osu file format v14

[General]
AudioFilename: audio.mp3
AudioLeadIn: 0
PreviewTime: 98420
Countdown: 0
SampleSet: Normal
StackLeniency: 1
Mode: 1
LetterboxInBreaks: 0
WidescreenStoryboard: 1

[Editor]
Bookmarks: 35902,105975,134004
DistanceSpacing: 0.1
BeatDivisor: 4
GridSize: 32
TimelineZoom: 1.4

[Metadata]
Title:Surges
TitleUnicode:Surges
Artist:Orangestar
ArtistUnicode:Orangestar
Creator:Rycy
Version:Futsuu
Source:夏がはじまる。
Tags:neonat イア IA 初音ミク Hatsune Miku MikanseiP j-pop j japanese pop vocaloid caloriemate カロリーメイト web movie summer begins
BeatmapID:3455228
BeatmapSetID:1690816

[Difficulty]
HPDrainRate:7
CircleSize:2
OverallDifficulty:3.5
ApproachRate:0
SliderMultiplier:1.4
SliderTickRate:1

[Events]
//Background and Video events
0,0,"surges.png",0,0
//Break Periods
2,50117,55124
//Storyboard Layer 0 (Background)
//Storyboard Layer 1 (Fail)
//Storyboard Layer 2 (Pass)
//Storyboard Layer 3 (Foreground)
//Storyboard Layer 4 (Overlay)
//Storyboard Sound Samples

[TimingPoints]
866,437.956204379562,4,1,0,60,1,0
866,-111.111111111111,4,1,0,60,0,0
13128,-109.89010989011,4,1,0,60,0,0
13457,-108.695652173913,4,1,0,60,0,0
13785,-107.52688172043,4,1,0,60,0,0
14442,-106.382978723404,4,1,0,60,0,0
14880,-105.263157894737,4,1,0,70,0,0
20574,-104.166666666667,4,1,0,70,0,0
20793,-103.092783505155,4,1,0,70,0,0
21011,-102.040816326531,4,1,0,70,0,0
21449,-101.010101010101,4,1,0,70,0,0
21887,-100,4,1,0,80,0,1
49917,-100,4,1,0,80,0,0
50026,-100,4,1,0,75,0,0
50355,-100,4,1,0,70,0,0
50793,-100,4,1,0,65,0,0
51230,-100,4,1,0,60,0,0
51668,-117.647058823529,4,1,0,55,0,0
56924,-116.279069767442,4,1,0,55,0,0
58676,-114.942528735632,4,1,0,55,0,0
60428,-113.636363636364,4,1,0,55,0,0
62179,-112.359550561798,4,1,0,55,0,0
63931,-111.111111111111,4,1,0,60,0,0
75099,-109.89010989011,4,1,0,60,0,0
76194,-108.695652173913,4,1,0,60,0,0
76522,-107.52688172043,4,1,0,60,0,0
76851,-106.382978723404,4,1,0,60,0,0
77946,-105.263157894737,4,1,0,70,0,0
84953,-105.263157894737,4,1,0,55,0,0
85391,-106.382978723404,4,1,0,55,0,0
86267,-107.52688172043,4,1,0,55,0,0
87143,-108.695652173913,4,1,0,55,0,0
88019,-109.89010989011,4,1,0,55,0,0
88457,-111.111111111111,4,1,0,55,0,0
91960,-111.111111111111,4,1,0,60,0,0
92398,-109.946584245135,4,1,0,60,0,0
92836,-109.368905753167,4,1,0,60,0,0
93274,-108.794262484553,4,1,0,60,0,0
93712,-108.2226384917,4,1,0,60,0,0
94150,-107.654017910807,4,1,0,60,0,0
94588,-107.088384961426,4,1,0,60,0,0
95026,-106.52572394602,4,1,0,60,0,0
95464,-105.966019249532,4,1,0,70,0,0
95902,-105.409255338946,4,1,0,70,0,0
96121,-104.855416762862,4,1,0,70,0,0
96340,-104.304488151063,4,1,0,70,0,0
96778,-103.756454214091,4,1,0,70,0,0
97216,-103.211299742819,4,1,0,80,0,0
97435,-102.669009608034,4,1,0,80,0,0
97654,-102.129568760013,4,1,0,80,0,0
97873,-101.592962228109,4,1,0,80,0,0
98092,-101.059175120329,4,1,0,80,0,0
98530,-100.52819262293,4,1,0,80,0,0
98968,-100,4,1,0,90,0,1
119990,-100,4,1,0,90,0,0
120428,-100,4,1,0,80,0,1
126997,-100,4,1,0,80,0,0
127106,-100,4,1,0,60,0,0
127435,-101.010101010101,4,1,0,60,0,0
128311,-102.040816326531,4,1,0,60,0,0
129187,-103.092783505155,4,1,0,60,0,0
130063,-104.166666666667,4,1,0,60,0,0
130938,-105.263157894737,4,1,0,60,0,0
131814,-106.382978723404,4,1,0,60,0,0
132690,-107.52688172043,4,1,0,60,0,0
133566,-108.695652173913,4,1,0,60,0,0
134004,-109.89010989011,4,1,0,55,0,0
134442,-111.111111111111,4,1,0,55,0,0
135318,-112.359550561798,4,1,0,55,0,0
136194,-113.636363636364,4,1,0,55,0,0
137070,-114.942528735632,4,1,0,55,0,0
137946,-116.279069767442,4,1,0,55,0,0
138822,-117.647058823529,4,1,0,55,0,0
139698,-119.047619047619,4,1,0,55,0,0
140574,-120.481927710843,4,1,0,55,0,0

[HitObjects]
256,192,866,5,8,0:0:0:0:
256,192,1522,1,0,0:0:0:0:
256,192,2617,1,0,0:0:0:0:
256,192,2946,1,0,0:0:0:0:
256,192,3274,1,8,0:0:0:0:
256,192,4369,1,0,0:0:0:0:
256,192,5026,1,8,0:0:0:0:
256,192,6121,1,8,0:0:0:0:
256,192,6449,1,0,0:0:0:0:
256,192,6778,1,8,0:0:0:0:
256,192,7873,1,8,0:0:0:0:
256,192,8530,1,0,0:0:0:0:
256,192,9625,1,8,0:0:0:0:
256,192,9953,1,8,0:0:0:0:
256,192,10282,1,0,0:0:0:0:
256,192,11376,1,0,0:0:0:0:
256,192,12033,1,8,0:0:0:0:
256,192,13128,1,0,0:0:0:0:
256,192,13457,1,0,0:0:0:0:
256,192,13785,1,8,0:0:0:0:
256,192,14442,1,8,0:0:0:0:
160,192,14880,5,4,0:0:0:0:
256,192,15318,1,8,0:0:0:0:
256,192,15537,1,0,0:0:0:0:
256,192,15975,1,0,0:0:0:0:
256,192,16194,1,8,0:0:0:0:
256,192,16632,1,8,0:0:0:0:
256,192,17070,1,8,0:0:0:0:
256,192,17289,1,0,0:0:0:0:
256,192,17508,1,8,0:0:0:0:
256,192,18384,1,0,0:0:0:0:
256,192,18822,1,8,0:0:0:0:
256,192,19041,1,8,0:0:0:0:
256,192,19479,1,0,0:0:0:0:
256,192,19698,1,8,0:0:0:0:
256,192,20136,1,0,0:0:0:0:
256,192,20574,1,0,0:0:0:0:
256,192,20793,1,8,0:0:0:0:
256,192,21011,1,0,0:0:0:0:
256,192,21449,1,8,0:0:0:0:
352,192,21887,5,12,0:0:0:0:
256,192,22325,1,8,0:0:0:0:
256,192,22544,1,8,0:0:0:0:
256,192,22763,1,0,0:0:0:0:
256,192,22982,1,0,0:0:0:0:
256,192,23201,1,8,0:0:0:0:
256,192,23639,1,0,0:0:0:0:
256,192,24077,1,8,0:0:0:0:
256,192,24296,1,0,0:0:0:0:
256,192,24515,1,8,0:0:0:0:
256,192,25391,1,0,0:0:0:0:
256,192,25829,1,0,0:0:0:0:
256,192,26048,1,0,0:0:0:0:
256,192,26267,1,8,0:0:0:0:
256,192,26705,1,8,0:0:0:0:
256,192,26924,1,0,0:0:0:0:
256,192,27143,1,8,0:0:0:0:
256,192,27362,1,0,0:0:0:0:
256,192,27581,1,8,0:0:0:0:
256,192,28019,1,8,0:0:0:0:
352,192,28895,5,12,0:0:0:0:
256,192,29333,1,8,0:0:0:0:
256,192,29552,1,8,0:0:0:0:
256,192,29771,1,0,0:0:0:0:
256,192,30209,1,8,0:0:0:0:
256,192,30428,1,0,0:0:0:0:
256,192,30647,1,8,0:0:0:0:
256,192,31084,1,0,0:0:0:0:
256,192,31303,1,8,0:0:0:0:
256,192,31522,1,8,0:0:0:0:
256,192,32398,1,0,0:0:0:0:
256,192,32836,1,8,0:0:0:0:
256,192,33055,1,0,0:0:0:0:
256,192,33274,1,0,0:0:0:0:
256,192,33712,1,0,0:0:0:0:
256,192,33931,1,0,0:0:0:0:
256,192,34150,5,8,0:0:0:0:
256,192,34588,1,0,0:0:0:0:
256,192,34807,1,8,0:0:0:0:
256,192,35464,1,8,0:0:0:0:
160,192,35902,5,4,0:0:0:0:
256,192,36340,1,0,0:0:0:0:
256,192,36559,1,0,0:0:0:0:
256,192,36778,1,8,0:0:0:0:
256,192,36997,1,8,0:0:0:0:
256,192,37216,1,0,0:0:0:0:
256,192,37654,1,0,0:0:0:0:
256,192,38092,1,8,0:0:0:0:
256,192,38311,1,8,0:0:0:0:
256,192,38530,1,0,0:0:0:0:
256,192,39406,1,0,0:0:0:0:
256,192,39844,1,8,0:0:0:0:
256,192,40063,1,8,0:0:0:0:
256,192,40282,1,0,0:0:0:0:
256,192,40501,1,8,0:0:0:0:
256,192,40720,1,0,0:0:0:0:
256,192,41157,5,0,0:0:0:0:
256,192,41595,1,0,0:0:0:0:
256,192,41814,1,8,0:0:0:0:
256,192,42033,1,0,0:0:0:0:
352,192,42909,5,12,0:0:0:0:
256,192,43347,1,0,0:0:0:0:
256,192,43785,1,8,0:0:0:0:
256,192,44004,1,0,0:0:0:0:
256,192,44223,1,0,0:0:0:0:
256,192,44661,1,8,0:0:0:0:
256,192,44880,1,0,0:0:0:0:
256,192,45099,1,0,0:0:0:0:
256,192,45318,1,8,0:0:0:0:
256,192,45537,1,8,0:0:0:0:
256,192,46413,1,0,0:0:0:0:
256,192,46851,1,8,0:0:0:0:
256,192,47289,1,0,0:0:0:0:
256,192,47508,1,8,0:0:0:0:
256,192,47727,1,8,0:0:0:0:
256,192,47946,1,8,0:0:0:0:
256,192,48165,5,0,0:0:0:0:
256,192,48603,1,0,0:0:0:0:
256,192,48822,1,0,0:0:0:0:
256,192,49041,1,8,0:0:0:0:
256,192,49479,1,8,0:0:0:0:
256,192,49917,5,0,0:0:0:0:
256,192,56924,5,0,0:0:0:0:
256,192,58676,1,8,0:0:0:0:
256,192,60428,1,0,0:0:0:0:
256,192,62179,1,8,0:0:0:0:
256,192,63931,1,8,0:0:0:0:
256,192,64588,1,0,0:0:0:0:
256,192,65683,1,8,0:0:0:0:
256,192,66011,1,0,0:0:0:0:
256,192,66340,1,0,0:0:0:0:
256,192,67435,1,8,0:0:0:0:
256,192,68092,1,0,0:0:0:0:
256,192,69187,1,0,0:0:0:0:
256,192,69515,1,0,0:0:0:0:
256,192,69844,1,8,0:0:0:0:
256,192,70938,1,0,0:0:0:0:
256,192,71595,1,8,0:0:0:0:
256,192,72690,1,8,0:0:0:0:
256,192,73019,1,8,0:0:0:0:
256,192,73347,1,0,0:0:0:0:
256,192,74442,1,0,0:0:0:0:
256,192,75099,1,8,0:0:0:0:
256,192,76194,1,8,0:0:0:0:
256,192,76522,1,0,0:0:0:0:
256,192,76851,1,8,0:0:0:0:
352,192,77946,5,4,0:0:0:0:
256,192,78384,1,8,0:0:0:0:
256,192,78603,1,0,0:0:0:0:
256,192,79041,1,0,0:0:0:0:
256,192,79260,1,0,0:0:0:0:
256,192,79698,1,8,0:0:0:0:
256,192,80136,1,8,0:0:0:0:
256,192,80355,1,0,0:0:0:0:
256,192,80574,1,8,0:0:0:0:
256,192,81449,1,0,0:0:0:0:
256,192,81887,1,0,0:0:0:0:
256,192,82106,1,8,0:0:0:0:
256,192,82544,1,8,0:0:0:0:
256,192,82763,1,0,0:0:0:0:
256,192,83201,1,0,0:0:0:0:
256,192,83639,1,0,0:0:0:0:
256,192,83858,1,8,0:0:0:0:
256,192,84077,1,8,0:0:0:0:
256,192,84515,1,8,0:0:0:0:
256,192,84953,5,0,0:0:0:0:
256,192,85391,1,8,0:0:0:0:
256,192,86267,1,8,0:0:0:0:
256,192,87143,1,8,0:0:0:0:
256,192,88019,1,8,0:0:0:0:
256,192,88457,1,0,0:0:0:0:
256,192,88895,1,8,0:0:0:0:
256,192,89771,1,8,0:0:0:0:
256,192,90647,1,8,0:0:0:0:
256,192,91522,1,8,0:0:0:0:
352,192,91960,5,4,0:0:0:0:
256,192,92398,1,8,0:0:0:0:
256,192,92836,1,8,0:0:0:0:
256,192,93274,1,8,0:0:0:0:
256,192,93712,1,0,0:0:0:0:
256,192,94150,1,8,0:0:0:0:
256,192,94588,1,8,0:0:0:0:
256,192,95026,1,8,0:0:0:0:
256,192,95464,1,0,0:0:0:0:
256,192,95902,1,8,0:0:0:0:
256,192,96121,1,0,0:0:0:0:
256,192,96340,1,8,0:0:0:0:
256,192,96778,1,8,0:0:0:0:
256,192,97216,5,0,0:0:0:0:
256,192,97435,1,0,0:0:0:0:
256,192,97654,1,8,0:0:0:0:
256,192,97873,1,8,0:0:0:0:
256,192,98092,1,0,0:0:0:0:
256,192,98530,1,8,0:0:0:0:
160,192,98968,5,12,0:0:0:0:
256,192,99406,1,8,0:0:0:0:
256,192,99625,1,0,0:0:0:0:
256,192,99844,1,0,0:0:0:0:
256,192,100063,1,0,0:0:0:0:
256,192,100282,1,8,0:0:0:0:
256,192,100720,1,0,0:0:0:0:
256,192,101157,1,0,0:0:0:0:
256,192,101376,1,8,0:0:0:0:
256,192,101595,1,8,0:0:0:0:
256,192,102471,1,0,0:0:0:0:
256,192,102909,1,8,0:0:0:0:
256,192,103128,1,8,0:0:0:0:
256,192,103347,1,0,0:0:0:0:
256,192,103566,1,0,0:0:0:0:
256,192,103785,1,8,0:0:0:0:
256,192,104223,5,8,0:0:0:0:
256,192,104661,1,8,0:0:0:0:
256,192,104880,1,0,0:0:0:0:
256,192,105537,1,8,0:0:0:0:
160,192,105975,5,12,0:0:0:0:
256,192,106413,1,0,0:0:0:0:
256,192,106632,1,8,0:0:0:0:
256,192,106851,1,0,0:0:0:0:
256,192,107289,1,0,0:0:0:0:
256,192,107727,1,0,0:0:0:0:
256,192,107946,1,0,0:0:0:0:
256,192,108165,1,8,0:0:0:0:
256,192,108384,1,8,0:0:0:0:
256,192,108603,1,0,0:0:0:0:
256,192,109479,1,0,0:0:0:0:
256,192,109917,1,8,0:0:0:0:
256,192,110136,1,8,0:0:0:0:
256,192,110355,1,0,0:0:0:0:
256,192,110793,1,8,0:0:0:0:
256,192,111230,5,8,0:0:0:0:
256,192,111449,1,0,0:0:0:0:
256,192,111668,1,0,0:0:0:0:
256,192,111887,1,8,0:0:0:0:
256,192,112106,1,0,0:0:0:0:
352,192,112982,5,4,0:0:0:0:
256,192,113420,1,8,0:0:0:0:
256,192,113639,1,8,0:0:0:0:
256,192,113858,1,0,0:0:0:0:
256,192,114077,1,8,0:0:0:0:
256,192,114296,1,0,0:0:0:0:
256,192,114734,1,8,0:0:0:0:
256,192,115172,1,0,0:0:0:0:
256,192,115391,1,8,0:0:0:0:
256,192,115610,1,8,0:0:0:0:
256,192,116486,1,0,0:0:0:0:
256,192,116924,1,8,0:0:0:0:
256,192,117143,1,8,0:0:0:0:
256,192,117362,1,8,0:0:0:0:
256,192,117581,1,0,0:0:0:0:
256,192,117800,1,8,0:0:0:0:
256,192,118238,1,8,0:0:0:0:
256,192,118676,5,8,0:0:0:0:
256,192,118895,1,0,0:0:0:0:
256,192,119552,1,8,0:0:0:0:
256,192,119990,1,0,0:0:0:0:
352,192,120428,5,12,0:0:0:0:
256,192,120865,1,0,0:0:0:0:
256,192,121084,1,0,0:0:0:0:
256,192,121303,1,8,0:0:0:0:
256,192,121741,1,8,0:0:0:0:
256,192,122179,1,8,0:0:0:0:
256,192,122398,1,8,0:0:0:0:
256,192,122617,1,0,0:0:0:0:
256,192,123493,1,0,0:0:0:0:
256,192,123712,1,0,0:0:0:0:
256,192,123931,1,0,0:0:0:0:
256,192,124369,1,8,0:0:0:0:
256,192,124588,1,0,0:0:0:0:
256,192,124807,1,8,0:0:0:0:
256,192,125245,1,0,0:0:0:0:
256,192,125683,1,8,0:0:0:0:
256,192,125902,1,8,0:0:0:0:
256,192,126121,1,0,0:0:0:0:
256,192,126340,1,0,0:0:0:0:
256,192,126559,1,8,0:0:0:0:
160,192,126997,5,4,0:0:0:0:
256,192,127435,1,8,0:0:0:0:
256,192,127654,1,0,0:0:0:0:
256,192,128311,1,8,0:0:0:0:
256,192,129187,1,8,0:0:0:0:
256,192,129406,1,0,0:0:0:0:
256,192,130063,1,8,0:0:0:0:
256,192,130501,1,0,0:0:0:0:
256,192,130938,1,8,0:0:0:0:
256,192,131157,1,0,0:0:0:0:
256,192,131814,1,8,0:0:0:0:
256,192,132690,1,8,0:0:0:0:
256,192,132909,1,0,0:0:0:0:
256,192,133566,1,8,0:0:0:0:
256,192,134004,5,0,0:0:0:0:
256,192,134442,1,8,0:0:0:0:
256,192,135318,1,8,0:0:0:0:
256,192,136194,1,8,0:0:0:0:
256,192,137070,1,8,0:0:0:0:
256,192,137508,1,0,0:0:0:0:
256,192,137946,1,8,0:0:0:0:
256,192,138822,1,8,0:0:0:0:
256,192,139698,1,8,0:0:0:0:
256,192,140574,1,8,0:0:0:0:
256,192,140793,1,0,0:0:0:0:
