osu file format v14

[General]
AudioFilename: audio.mp3
AudioLeadIn: 0
PreviewTime: 51456
Countdown: 0
SampleSet: Soft
StackLeniency: 0.4
Mode: 0
LetterboxInBreaks: 0
StoryFireInFront: 0
EpilepsyWarning: 1
WidescreenStoryboard: 1

[Editor]
Bookmarks: 10267,10591,61510,83240,209726,214591
DistanceSpacing: 1
BeatDivisor: 4
GridSize: 4
TimelineZoom: 1.599999

[Metadata]
Title:Mikansei Time Limiter
TitleUnicode:未完成タイムリミッター
Artist:Orangestar
ArtistUnicode:Orangestar
Creator:Irin
Version:papple's Normal
Source:
Tags:Orangestar Vocaloid IA unfinished Calvaria Fish Rose Papple104 Remapper Superdaloubot Kanor ExNeko -Nanako- Agagak
BeatmapID:2453614
BeatmapSetID:932914

[Difficulty]
HPDrainRate:3
CircleSize:3
OverallDifficulty:4
ApproachRate:5
SliderMultiplier:1
SliderTickRate:1

[Events]
//Background and Video events
0,0,"1493808758396.jpg",0,0
//Break Periods
2,75656,82040
2,145710,154202
2,196953,198148
//Storyboard Layer 0 (Background)
//Storyboard Layer 1 (Fail)
//Storyboard Layer 2 (Pass)
//Storyboard Layer 3 (Foreground)
Sprite,Foreground,Centre,"sb\highlight.png",422,395 C,0,164969,,255,153,151 F,2,164969,165169,1,0 S,2,164969,165169,1,0.2 P,0,164969,165169,A
Sprite,Foreground,Centre,"sb\highlight.png",515,433 C,0,165294,,255,153,151 F,2,165294,165494,1,0 S,2,165294,165494,1,0.2 P,0,165294,165494,A
Sprite,Foreground,Centre,"sb\highlight.png",0,0 C,0,165618,,255,153,151 M,0,165618,165658,553,340,551.7562,327.562 F,2,165618,166142,1,0 S,2,165618,166142,1,0.2 P,0,165618,166142,A M,0,165658,165699,551.7562,327.562,550.5125,315.1241 M,0,165699,165739,550.5125,315.1241,549.2686,302.6861 M,0,165739,165780,549.2686,302.6861,548.0248,290.2481 M,0,165780,165820,548.0248,290.2481,549.2686,302.6861 M,0,165820,165861,549.2686,302.6861,550.5125,315.1241 M,0,165861,165901,550.5125,315.1241,551.7562,327.562 M,0,165901,165942,551.7562,327.562,553,340
Sprite,Foreground,Centre,"sb\highlight.png",515,433 C,0,166267,,26,133,159 F,2,166267,166467,1,0 S,2,166267,166467,1,0.2 P,0,166267,166467,A
Sprite,Foreground,Centre,"sb\highlight.png",0,0 C,0,166591,,26,133,159 M,0,166591,166631,422,395,409.5274,394.9877 F,2,166591,166953,1,0 S,2,166591,166953,1,0.2 P,0,166591,166953,A M,0,166631,166672,409.5274,394.9877,397.1357,396.3218 M,0,166672,166712,397.1357,396.3218,384.9715,398.9745 M,0,166712,166753,384.9715,398.9745,373.1346,402.9486
Sprite,Foreground,Centre,"sb\highlight.png",0,0 C,0,166915,,26,133,159 M,0,166915,166955,324,395,322.7562,382.562 F,2,166915,167439,1,0 S,2,166915,167439,1,0.2 P,0,166915,167439,A M,0,166955,166996,322.7562,382.562,321.5124,370.1241 M,0,166996,167036,321.5124,370.1241,320.2686,357.6861 M,0,167036,167077,320.2686,357.6861,319.0248,345.2481 M,0,167077,167117,319.0248,345.2481,320.2686,357.6861 M,0,167117,167158,320.2686,357.6861,321.5124,370.1241 M,0,167158,167198,321.5124,370.1241,322.7562,382.562 M,0,167198,167239,322.7562,382.562,324,395
Sprite,Foreground,Centre,"sb\highlight.png",144,307 C,0,167888,,255,255,168 F,2,167888,168088,1,0 S,2,167888,168088,1,0.2 P,0,167888,168088,A
Sprite,Foreground,Centre,"sb\highlight.png",226,326 C,0,92321,,26,133,159 F,2,92321,92521,1,0 S,2,92321,92521,1,0.2 P,0,92321,92521,A
Sprite,Foreground,Centre,"sb\highlight.png",0,0 C,0,92645,,26,133,159 M,0,92645,92685,127,314,128.2438,301.562 F,2,92645,93169,1,0 S,2,92645,93169,1,0.2 P,0,92645,93169,A M,0,92685,92726,128.2438,301.562,129.4876,289.1241 M,0,92726,92766,129.4876,289.1241,130.7314,276.6861 M,0,92766,92807,130.7314,276.6861,131.9752,264.2481 M,0,92807,92847,131.9752,264.2481,133.219,251.8102 M,0,92847,92888,133.219,251.8102,134.4628,239.3722 M,0,92888,92928,134.4628,239.3722,135.7066,226.9342 M,0,92928,92969,135.7066,226.9342,136.9504,214.4963
Sprite,Foreground,Centre,"sb\highlight.png",0,0 C,0,93294,,26,133,159 M,0,93294,93334,198,135,209.9965,131.54 F,2,93294,93656,1,0 S,2,93294,93656,1,0.2 P,0,93294,93656,A M,0,93334,93375,209.9965,131.54,222.1888,128.8325 M,0,93375,93415,222.1888,128.8325,234.6074,127.5501 M,0,93415,93456,234.6074,127.5501,246,127
Sprite,Foreground,Centre,"sb\highlight.png",0,0 C,0,51456,,26,133,159 M,0,51456,51496,91,210,92.2438,197.562 F,2,51456,51980,1,0 S,2,51456,51980,1,0.2 P,0,51456,51980,A M,0,51496,51537,92.2438,197.562,93.48759,185.1241 M,0,51537,51577,93.48759,185.1241,94.73139,172.6861 M,0,51577,51618,94.73139,172.6861,95.97519,160.2481 M,0,51618,51658,95.97519,160.2481,97.21898,147.8102 M,0,51658,51699,97.21898,147.8102,98.46278,135.3722 M,0,51699,51739,98.46278,135.3722,99.70657,122.9342 M,0,51739,51780,99.70657,122.9342,100.9504,110.4963
//Storyboard Layer 4 (Overlay)
//Storyboard Sound Samples

[TimingPoints]
213,324.324324324324,4,2,1,50,1,0
20969,-100,4,2,1,60,0,0
31348,-100,4,2,1,50,0,0
41726,-100,4,2,1,60,0,0
51131,-100,4,2,1,50,0,0
51456,-100,4,2,1,40,0,0
52104,-100,4,2,1,70,0,1
72861,-100,4,2,1,40,0,0
83240,-100,4,2,1,50,0,0
92321,-100,4,2,1,60,0,0
93618,-100,4,2,1,70,0,1
114375,-100,4,2,1,50,0,0
124753,-100,4,2,1,60,0,0
135131,-100,4,2,1,70,0,0
145510,-100,4,2,1,30,0,0
153294,-100,4,2,1,40,0,0
155402,-100,4,2,1,50,0,0
167888,-100,4,2,1,60,0,0
168213,324.324324324324,4,2,1,80,1,1
188969,-100,4,2,1,70,0,0
209726,480,4,2,1,50,1,0
209726,-100,4,2,1,50,0,0
210686,517.241379310345,4,2,1,50,1,0
211203,571.428571428571,4,2,1,50,1,0
211774,631.578947368421,4,2,1,50,1,0
213037,705.882352941176,4,2,1,50,1,0
213742,800,4,2,1,50,1,0

[Colours]
Combo1 : 26,133,159
Combo2 : 255,255,168
Combo3 : 225,225,225
Combo4 : 255,153,151

[HitObjects]
499,103,10591,5,6,3:2:0:0:
424,37,10915,2,0,L|324:47,1,100,10|2,3:2|3:2,0:0:0:0:
281,72,11402,2,0,P|256:66|231:64,1,50,2|10,0:0|3:2,0:0:0:0:
183,76,11726,1,2,3:2:0:0:
83,64,12050,2,0,L|78:114,1,50,2|8,3:2|3:2,0:0:0:0:
53,157,12375,2,0,P|28:158|3:164,2,50,2|2|2,3:2|3:2|3:2,0:0:0:0:
88,192,12861,1,8,3:2:0:0:
169,250,13185,5,2,3:2:0:0:
235,174,13510,1,10,3:2:0:0:
323,221,13834,2,0,L|318:271,2,50,2|2|8,3:2|0:0|3:2,0:0:0:0:
364,192,14321,1,2,3:2:0:0:
437,259,14645,2,0,P|442:283|444:308,1,50,2|8,3:2|3:2,0:0:0:0:
434,357,14969,2,0,L|334:367,1,100,2|2,3:2|0:0,0:0:0:0:
284,364,15456,2,0,P|259:362|234:356,1,50,8|10,3:2|3:2,0:0:0:0:
192,330,15780,5,6,3:2:0:0:
93,345,16104,2,0,L|83:245,1,100,10|2,3:2|3:2,0:0:0:0:
56,203,16591,2,0,L|61:153,1,50,2|10,0:0|3:2,0:0:0:0:
66,104,16915,1,2,3:2:0:0:
132,28,17240,2,0,P|156:29|181:35,1,50,2|8,3:2|3:2,0:0:0:0:
214,73,17564,2,0,L|264:68,2,50,2|2|2,3:2|3:2|3:2,0:0:0:0:
187,115,18050,1,8,3:2:0:0:
255,187,18375,5,2,3:2:0:0:
340,135,18699,1,10,3:2:0:0:
429,180,19023,2,0,L|424:230,2,50,2|2|10,3:2|0:0|3:2,0:0:0:0:
447,133,19510,2,0,P|437:84|404:46,1,100,2|2,3:2|3:2,0:0:0:0:
356,36,19996,2,0,L|306:41,1,50,8|2,3:2|3:2,0:0:0:0:
264,68,20321,2,0,L|214:63,1,50,2|2,3:2|3:2,0:0:0:0:
165,57,20645,1,8,3:2:0:0:
79,107,20969,6,0,P|55:108|30:114,2,50,6|0|10,3:2|0:0|3:2,0:0:0:0:
165,158,21618,2,0,L|155:258,1,100,2|10,3:2|3:2,0:0:0:0:
149,307,22104,1,2,0:0:0:0:
229,367,22429,2,0,P|253:361|278:359,1,50,2|10,3:2|3:2,0:0:0:0:
318,329,22753,1,2,3:2:0:0:
321,326,22915,2,0,L|371:331,2,50,2|2|10,3:2|0:0|3:2,0:0:0:0:
348,229,23564,6,0,P|372:227|397:221,2,50,2|0|10,3:2|0:0|3:2,0:0:0:0:
260,182,24212,2,0,L|250:82,1,100,2|10,3:2|3:2,0:0:0:0:
244,33,24699,1,2,0:0:0:0:
343,47,25023,2,0,P|391:39|435:61,1,100,2|2,3:2|3:2,0:0:0:0:
454,108,25510,2,0,L|504:103,2,50,2|2|10,3:2|0:0|3:2,0:0:0:0:
407,196,26158,6,0,P|382:190|357:188,2,50,6|0|10,3:2|0:0|3:2,0:0:0:0:
464,278,26807,2,0,P|452:325|412:353,1,100,2|10,3:2|3:2,0:0:0:0:
364,341,27294,1,2,0:0:0:0:
274,298,27618,2,0,L|224:303,1,50,2|10,3:2|3:2,0:0:0:0:
183,331,27942,1,2,3:2:0:0:
180,334,28104,2,0,L|185:384,2,50,2|2|10,3:2|0:0|3:2,0:0:0:0:
93,285,28753,6,0,P|68:290|43:292,2,50,2|0|10,3:2|0:0|3:2,0:0:0:0:
156,207,29402,2,0,P|151:157|119:120,1,100,2|10,3:2|3:2,0:0:0:0:
71,107,29888,1,2,0:0:0:0:
112,16,30212,2,0,L|212:26,1,100,2|2,3:2|3:2,0:0:0:0:
245,63,30699,1,2,3:2:0:0:
342,41,31023,6,0,L|392:46,1,50,10|2,3:2|3:2,0:0:0:0:
434,73,31348,2,0,P|444:121|424:166,1,100,6|10,3:2|3:2,0:0:0:0:
383,194,31834,1,2,0:0:0:0:
380,197,31996,2,0,P|334:177|286:187,1,100,2|10,3:2|3:2,0:0:0:0:
195,147,32645,1,2,3:2:0:0:
107,195,32969,2,0,L|112:245,1,50,10|0,3:2|0:0,0:0:0:0:
86,288,33294,1,2,3:2:0:0:
143,370,33618,5,10,3:2:0:0:
225,313,33942,2,0,P|249:307|274:305,1,50,2|0,3:2|0:0,0:0:0:0:
322,319,34267,1,10,3:2:0:0:
384,241,34591,1,2,3:2:0:0:
305,180,34915,2,0,P|256:192|206:192,1,100,10|0,3:2|3:2,0:0:0:0:
155,107,35564,6,0,P|203:94|253:94,1,100,10|0,3:2|3:2,0:0:0:0:
330,30,36212,1,10,3:2:0:0:
396,105,36537,1,6,3:2:0:0:
484,58,36861,2,0,P|496:105|483:153,1,100,10|2,3:2|3:2,0:0:0:0:
398,205,37510,2,0,P|385:252|398:300,1,100,10|2,3:2|3:2,0:0:0:0:
434,335,37996,1,2,0:0:0:0:
431,338,38158,2,0,L|331:348,1,100,10|2,3:2|3:2,0:0:0:0:
240,308,38807,5,10,3:2:0:0:
161,369,39131,2,0,L|111:374,1,50,2|0,3:2|0:0,0:0:0:0:
68,348,39456,1,10,3:2:0:0:
122,264,39780,1,2,3:2:0:0:
38,210,40104,1,10,3:2:0:0:
92,126,40429,6,0,L|87:76,2,50,2|2|10,3:2|3:2|3:2,0:0:0:0:
176,180,41077,2,0,P|200:174|225:172,1,50,0|0,3:2|3:2,0:0:0:0:
273,188,41402,6,0,L|323:183,1,50,10|2,3:2|3:2,0:0:0:0:
369,202,41726,2,0,P|418:200|457:170,1,100,6|10,3:2|3:2,0:0:0:0:
478,125,42212,1,0,0:0:0:0:
481,122,42375,2,0,L|471:22,1,100,2|10,3:2|3:2,0:0:0:0:
376,54,43023,2,0,L|326:59,1,50,2|0,3:2|0:0,0:0:0:0:
279,40,43348,2,0,L|229:45,1,50,10|0,3:2|0:0,0:0:0:0:
190,76,43672,5,2,3:2:0:0:
96,40,43996,1,10,3:2:0:0:
33,118,44321,2,0,L|38:168,1,50,2|0,3:2|0:0,0:0:0:0:
75,201,44645,1,10,3:2:0:0:
23,286,44969,1,2,3:2:0:0:
102,346,45294,2,0,P|126:347|151:353,1,50,10|0,3:2|0:0,0:0:0:0:
195,330,45618,2,0,P|219:328|244:322,1,50,0|0,3:2|3:2,0:0:0:0:
287,296,45942,5,10,3:2:0:0:
385,316,46267,1,2,3:2:0:0:
405,218,46591,1,10,3:2:0:0:
307,198,46915,2,0,L|207:208,1,100,6|8,3:2|3:2,0:0:0:0:
198,108,47564,2,0,L|298:98,1,100,2|8,3:2|3:2,0:0:0:0:
337,68,48050,1,2,0:0:0:0:
340,65,48212,2,0,P|364:58|389:57,1,50,0|2,3:2|0:0,0:0:0:0:
436,74,48537,2,0,P|454:90|470:109,1,50,10|2,3:2|0:0,0:0:0:0:
485,157,48861,1,2,3:2:0:0:
405,218,49185,6,0,L|410:268,1,50,10|0,3:2|0:0,0:0:0:0:
417,317,49510,1,2,3:2:0:0:
332,370,49834,2,0,P|307:363|282:362,1,50,10|0,3:2|0:0,0:0:0:0:
235,345,50158,1,2,3:2:0:0:
135,357,50483,2,0,P|128:332|127:307,1,50,10|0,3:2|0:0,0:0:0:0:
136,258,50807,1,2,3:2:0:0:
139,255,50969,1,0,3:2:0:0:
27,154,51456,6,0,L|37:54,1,100,2|0,0:0|0:0,0:0:0:0:
133,81,52104,6,0,P|182:79|229:61,1,100,6|8,3:2|3:2,0:0:0:0:
319,107,52753,2,0,P|336:153|338:203,1,100,2|8,3:2|3:2,0:0:0:0:
315,248,53240,1,2,0:0:0:0:
312,251,53402,2,0,L|262:246,1,50,2|2,3:2|3:2,0:0:0:0:
223,214,53726,2,0,L|173:219,1,50,10|2,3:2|3:2,0:0:0:0:
139,255,54050,1,2,3:2:0:0:
97,346,54375,6,0,P|120:352|145:354,1,50,10|0,3:2|3:2,0:0:0:0:
194,341,54699,2,0,L|294:351,1,100,2|8,3:2|3:2,0:0:0:0:
357,273,55348,2,0,L|457:263,1,100,2|8,3:2|3:2,0:0:0:0:
492,228,55834,1,2,0:0:0:0:
495,225,55996,2,0,P|501:201|503:176,1,50,2|2,3:2|3:2,0:0:0:0:
474,135,56321,2,0,P|467:111|465:86,1,50,10|2,3:2|3:2,0:0:0:0:
494,45,56645,1,2,3:2:0:0:
400,10,56969,6,0,L|350:15,1,50,10|2,3:2|3:2,0:0:0:0:
306,39,57294,2,0,P|257:28|207:33,1,100,6|8,3:2|3:2,0:0:0:0:
198,132,57942,2,0,P|246:142|296:137,1,100,2|8,3:2|3:2,0:0:0:0:
339,164,58429,1,2,0:0:0:0:
342,167,58591,2,0,L|347:217,1,50,2|2,3:2|3:2,0:0:0:0:
311,251,58915,2,0,L|306:301,1,50,10|2,3:2|3:2,0:0:0:0:
301,350,59240,1,2,3:2:0:0:
207,315,59564,6,0,P|183:308|158:306,1,50,10|2,3:2|3:2,0:0:0:0:
110,321,59888,1,2,3:2:0:0:
42,247,60212,1,10,3:2:0:0:
116,179,60537,1,2,3:2:0:0:
104,80,60861,1,10,3:2:0:0:
188,26,61185,6,0,L|238:31,2,50,0|0|8,3:2|3:2|3:2,0:0:0:0:
104,80,61834,2,0,L|109:130,1,50,0|0,3:2|3:2,0:0:0:0:
116,179,62158,5,10,3:2:0:0:
184,253,62483,2,0,L|284:243,1,100,6|8,3:2|3:2,0:0:0:0:
383,252,63131,2,0,L|393:152,1,100,2|8,3:2|3:2,0:0:0:0:
398,103,63618,1,2,0:0:0:0:
401,100,63780,2,0,P|425:98|449:91,2,50,2|2|10,3:2|3:2|3:2,0:0:0:0:
353,85,64267,1,2,3:2:0:0:
350,82,64429,1,2,3:2:0:0:
269,23,64753,6,0,L|219:28,1,50,10|0,3:2|3:2,0:0:0:0:
170,21,65077,2,0,P|184:68|182:118,1,100,2|8,3:2|3:2,0:0:0:0:
277,152,65726,2,0,P|262:199|264:249,1,100,2|8,3:2|3:2,0:0:0:0:
287,294,66212,1,2,0:0:0:0:
290,297,66375,2,0,L|340:292,1,50,2|2,3:2|3:2,0:0:0:0:
381,320,66699,2,0,L|481:330,1,100,10|2,3:2|3:2,0:0:0:0:
468,230,67348,6,0,L|418:225,1,50,10|0,3:2|3:2,0:0:0:0:
387,185,67672,2,0,L|397:85,1,100,6|8,3:2|3:2,0:0:0:0:
302,54,68321,2,0,L|292:154,1,100,2|8,3:2|3:2,0:0:0:0:
253,185,68807,1,2,0:0:0:0:
250,188,68969,2,0,P|256:211|258:236,2,50,2|2|10,3:2|3:2|3:2,0:0:0:0:
212,154,69456,1,2,3:2:0:0:
209,151,69618,1,2,3:2:0:0:
128,209,69942,6,0,L|78:204,1,50,10|2,3:2|3:2,0:0:0:0:
37,174,70267,1,2,3:2:0:0:
19,76,70591,1,10,3:2:0:0:
98,15,70915,1,2,3:2:0:0:
196,33,71239,1,10,3:2:0:0:
247,119,71564,6,0,L|242:169,2,50,0|0|8,3:2|3:2|3:2,0:0:0:0:
334,70,72212,2,0,P|358:71|382:78,1,50,0|0,3:2|3:2,0:0:0:0:
422,110,72537,1,8,3:2:0:0:
347,176,72861,5,6,0:0:0:0:
256,192,73023,12,2,75456,0:0:0:0:
13,261,83240,5,6,3:2:0:0:
66,346,83564,2,0,L|166:336,1,100,8|2,3:2|3:2,0:0:0:0:
226,256,84212,2,0,L|326:266,1,100,8|2,3:2|3:2,0:0:0:0:
372,285,84699,1,2,3:2:0:0:
375,288,84861,2,0,P|422:275|455:239,1,100,10|2,3:2|3:2,0:0:0:0:
447,139,85510,1,10,3:2:0:0:
352,170,85834,6,0,L|302:165,1,50,2|0,3:2|0:0,0:0:0:0:
261,137,86158,1,10,3:2:0:0:
232,41,86483,1,2,3:2:0:0:
136,70,86807,2,0,L|141:120,1,50,10|0,3:2|0:0,0:0:0:0:
164,164,87131,1,2,3:2:0:0:
261,137,87456,6,0,P|261:186|239:230,1,100,10|2,3:2|3:2,0:0:0:0:
144,262,88104,1,10,3:2:0:0:
164,164,88429,1,6,3:2:0:0:
66,144,88753,2,0,P|37:103|33:54,1,100,8|2,3:2|3:2,0:0:0:0:
132,69,89402,2,0,L|232:59,1,100,8|2,3:2|3:2,0:0:0:0:
276,36,89888,1,2,3:2:0:0:
279,33,90050,2,0,P|326:45|359:81,1,100,10|2,3:2|3:2,0:0:0:0:
440,141,90699,6,0,L|435:191,1,50,10|0,3:2|3:2,0:0:0:0:
454,236,91023,1,2,3:2:0:0:
444,336,91348,1,10,3:2:0:0:
348,307,91672,2,0,P|298:306|249:318,1,100,2|10,3:2|3:2,0:0:0:0:
162,270,92321,5,2,3:2:0:0:
63,258,92645,2,0,L|73:158,1,100,10|2,3:2|3:2,0:0:0:0:
134,79,93294,2,0,P|157:73|182:71,1,50,10|8,3:2|3:2,0:0:0:0:
231,85,93618,6,0,L|241:185,1,100,6|8,3:2|3:2,0:0:0:0:
325,239,94267,2,0,L|425:229,1,100,2|8,3:2|3:2,0:0:0:0:
466,202,94753,1,2,0:0:0:0:
469,199,94915,2,0,P|475:174|476:149,1,50,2|2,3:2|3:2,0:0:0:0:
460,102,95240,2,0,P|435:95|410:94,1,50,10|2,3:2|3:2,0:0:0:0:
378,57,95564,1,2,3:2:0:0:
281,80,95888,6,0,L|231:85,1,50,10|0,3:2|3:2,0:0:0:0:
182,76,96212,2,0,P|196:123|194:173,1,100,2|8,3:2|3:2,0:0:0:0:
103,215,96861,2,0,P|89:262|91:312,1,100,2|8,3:2|3:2,0:0:0:0:
112,358,97348,1,2,0:0:0:0:
115,361,97510,2,0,L|165:356,1,50,2|2,3:2|3:2,0:0:0:0:
210,335,97834,2,0,L|310:345,1,100,10|2,3:2|3:2,0:0:0:0:
368,263,98483,6,0,P|366:238|359:214,1,50,10|2,3:2|3:2,0:0:0:0:
324,180,98807,2,0,L|224:190,1,100,6|8,3:2|3:2,0:0:0:0:
215,90,99456,2,0,L|315:80,1,100,2|8,3:2|3:2,0:0:0:0:
360,60,99942,1,2,0:0:0:0:
363,57,100104,2,0,P|387:58|411:65,1,50,2|2,3:2|3:2,0:0:0:0:
447,100,100429,2,0,P|445:124|438:148,1,50,10|2,3:2|3:2,0:0:0:0:
458,195,100753,1,2,3:2:0:0:
396,273,101077,6,0,L|401:323,1,50,10|0,3:2|3:2,0:0:0:0:
374,365,101402,1,2,3:2:0:0:
287,315,101726,1,10,3:2:0:0:
193,350,102050,1,2,3:2:0:0:
158,256,102375,1,10,3:2:0:0:
70,208,102699,6,0,L|20:213,2,50,0|0|8,3:2|3:2|3:2,0:0:0:0:
119,121,103348,2,0,L|169:126,1,50,0|0,3:2|3:2,0:0:0:0:
218,132,103672,5,10,3:2:0:0:
285,206,103996,2,0,P|312:164|316:115,1,100,6|8,3:2|3:2,0:0:0:0:
357,24,104645,2,0,P|398:51|447:55,1,100,2|8,3:2|3:2,0:0:0:0:
489,84,105131,1,2,0:0:0:0:
492,87,105294,2,0,L|487:137,1,50,2|2,3:2|3:2,0:0:0:0:
459,178,105618,2,0,P|435:171|410:169,2,50,10|0|2,3:2|3:2|3:2,0:0:0:0:
418,269,106267,6,0,P|394:275|369:277,1,50,10|0,3:2|3:2,0:0:0:0:
321,261,106591,2,0,L|221:271,1,100,2|8,3:2|3:2,0:0:0:0:
191,175,107240,2,0,L|91:165,1,100,2|8,3:2|3:2,0:0:0:0:
47,188,107726,1,2,0:0:0:0:
44,191,107889,2,0,L|49:241,1,50,2|2,3:2|3:2,0:0:0:0:
53,290,108212,2,0,P|101:293|137:326,1,100,10|2,3:2|3:2,0:0:0:0:
221,271,108861,6,0,L|271:266,1,50,10|0,3:2|3:2,0:0:0:0:
316,287,109185,2,0,L|416:297,1,100,6|8,3:2|3:2,0:0:0:0:
440,200,109834,2,0,L|340:190,1,100,2|8,3:2|3:2,0:0:0:0:
306,152,110321,1,2,0:0:0:0:
303,149,110483,2,0,P|296:125|294:100,1,50,2|0,3:2|3:2,0:0:0:0:
256,69,110807,2,0,P|232:75|207:77,1,50,10|0,3:2|3:2,0:0:0:0:
157,68,111131,1,2,3:2:0:0:
57,81,111456,6,0,L|62:131,1,50,10|2,3:2|3:2,0:0:0:0:
68,180,111780,1,2,3:2:0:0:
168,186,112104,1,10,3:2:0:0:
221,271,112429,1,2,3:2:0:0:
306,218,112753,1,10,3:2:0:0:
253,133,113077,6,0,L|248:83,2,50,0|0|8,3:2|3:2|3:2,0:0:0:0:
306,218,113726,2,0,P|329:211|354:209,1,50,0|0,3:2|3:2,0:0:0:0:
405,219,114050,1,8,3:2:0:0:
358,307,114375,5,6,3:2:0:0:
355,310,114537,2,0,B|323:350|323:350|224:340,1,150,2|8,3:2|3:2,0:0:0:0:
126,361,115348,1,2,0:0:0:0:
123,358,115510,2,0,P|101:313|103:263,1,100,6|10,3:2|3:2,0:0:0:0:
118,165,116158,1,0,3:2:0:0:
121,162,116321,2,0,L|221:172,1,100,8|2,3:2|3:2,0:0:0:0:
268,84,116969,5,6,3:2:0:0:
271,81,117131,2,0,B|303:41|303:41|402:51,1,150,2|8,3:2|3:2,0:0:0:0:
471,123,117942,1,2,0:0:0:0:
474,126,118104,2,0,P|475:175|453:219,1,100,6|10,3:2|3:2,0:0:0:0:
445,319,118753,1,0,3:2:0:0:
442,322,118916,2,0,L|342:312,1,100,8|2,3:2|3:2,0:0:0:0:
245,333,119564,5,6,3:2:0:0:
242,330,119726,2,0,P|191:277|195:204,1,150,2|8,3:2|3:2,0:0:0:0:
275,145,120537,1,2,0:0:0:0:
278,142,120700,2,0,L|378:132,1,100,6|10,3:2|3:2,0:0:0:0:
389,231,121348,1,0,3:2:0:0:
386,234,121511,2,0,L|286:244,1,100,8|2,3:2|3:2,0:0:0:0:
195,205,122158,5,6,3:2:0:0:
192,208,122321,2,0,P|119:211|66:160,1,150,2|8,3:2|3:2,0:0:0:0:
98,66,123131,1,2,0:0:0:0:
101,63,123294,2,0,L|201:73,1,100,6|8,3:2|3:2,0:0:0:0:
275,139,123942,1,2,3:2:0:0:
278,142,124104,2,0,L|328:137,2,50,8|0|10,3:2|3:2|3:2,0:0:0:0:
205,210,124753,6,0,P|198:234|197:259,1,50,6|0,3:2|0:0,0:0:0:0:
211,307,125077,1,10,3:2:0:0:
284,375,125402,1,2,3:2:0:0:
287,378,125564,2,0,L|337:373,1,50,2|10,3:2|3:2,0:0:0:0:
386,379,125888,1,2,3:2:0:0:
458,310,126212,2,0,P|464:285|465:260,1,50,2|10,0:0|3:2,0:0:0:0:
441,216,126537,2,0,L|391:211,2,50,0|2|2,3:2|3:2|3:2,0:0:0:0:
475,179,127023,1,10,3:2:0:0:
438,86,127348,5,6,3:2:0:0:
345,123,127672,1,10,3:2:0:0:
270,57,127996,2,0,L|275:7,2,50,2|2|8,3:2|3:2|3:2,0:0:0:0:
238,96,128483,1,2,3:2:0:0:
157,37,128807,2,0,P|132:31|107:30,1,50,2|8,0:0|3:2,0:0:0:0:
63,52,129131,2,0,L|73:152,1,100,2|2,3:2|3:2,0:0:0:0:
104,191,129618,2,0,L|99:241,1,50,8|10,3:2|3:2,0:0:0:0:
71,282,129942,5,6,3:2:0:0:
125,366,130267,2,0,P|163:335|212:328,1,100,10|2,3:2|3:2,0:0:0:0:
257,350,130753,2,0,L|307:355,1,50,2|10,3:2|3:2,0:0:0:0:
354,339,131077,1,2,3:2:0:0:
304,251,131402,2,0,P|298:226|297:201,1,50,2|10,0:0|3:2,0:0:0:0:
317,155,131727,2,0,L|367:160,2,50,0|2|2,3:2|3:2|3:2,0:0:0:0:
286,116,132213,1,10,3:2:0:0:
365,55,132537,5,6,3:2:0:0:
273,17,132861,1,10,3:2:0:0:
193,77,133185,2,0,L|198:127,2,50,2|2|10,3:2|3:2|3:2,0:0:0:0:
155,44,133672,1,2,3:2:0:0:
75,104,133996,2,0,L|80:154,1,50,2|8,0:0|3:2,0:0:0:0:
80,204,134321,2,0,P|109:243|157:252,1,100,2|2,3:2|3:2,0:0:0:0:
204,236,134807,2,0,L|254:241,1,50,8|8,3:2|3:2,0:0:0:0:
297,266,135131,6,0,P|291:291|290:316,2,50,4|2|10,3:2|0:0|3:2,0:0:0:0:
364,191,135780,2,0,P|412:187|453:215,1,100,2|10,3:2|3:2,0:0:0:0:
466,264,136267,1,2,0:0:0:0:
390,329,136591,2,0,L|340:334,1,50,2|10,0:0|3:2,0:0:0:0:
293,318,136915,1,2,0:0:0:0:
290,315,137077,2,0,L|240:320,1,50,2|2,3:2|0:0,0:0:0:0:
190,325,137402,1,10,3:2:0:0:
96,292,137726,6,0,P|71:298|46:299,2,50,4|2|10,3:2|0:0|3:2,0:0:0:0:
172,226,138375,2,0,L|162:126,1,100,2|10,3:2|3:2,0:0:0:0:
129,89,138861,1,2,0:0:0:0:
208,28,139185,2,0,P|257:24|305:38,1,100,2|2,0:0|0:0,0:0:0:0:
342,73,139672,2,0,L|347:123,1,50,2|2,3:2|0:0,0:0:0:0:
353,172,139997,1,10,3:2:0:0:
431,234,140321,6,0,P|456:228|481:227,2,50,4|2|10,3:2|0:0|3:2,0:0:0:0:
368,311,140969,2,0,L|268:301,1,100,2|10,3:2|3:2,0:0:0:0:
223,322,141456,1,2,0:0:0:0:
145,260,141780,2,0,P|139:235|138:210,1,50,2|10,0:0|3:2,0:0:0:0:
164,168,142104,1,2,0:0:0:0:
167,165,142267,2,0,P|192:159|217:158,1,50,2|2,3:2|0:0,0:0:0:0:
259,184,142591,1,10,3:2:0:0:
314,101,142915,6,0,P|339:107|364:108,2,50,4|2|10,3:2|0:0|3:2,0:0:0:0:
244,29,143564,2,0,L|144:39,1,100,2|10,3:2|3:2,0:0:0:0:
96,26,144050,1,2,0:0:0:0:
25,97,144375,2,0,P|21:146|45:190,1,100,2|2,0:0|0:0,0:0:0:0:
88,215,144861,2,0,L|138:210,1,50,2|2,3:2|0:0,0:0:0:0:
182,188,145185,2,0,L|232:193,1,50,10|10,3:2|3:2,0:0:0:0:
276,217,145510,5,14,3:2:0:0:
157,186,155402,6,0,P|132:187|108:194,1,50,0|14,3:2|3:2,0:0:0:0:
53,278,155888,1,6,3:2:0:0:
146,312,156212,2,0,L|196:307,1,50,10|0,3:2|0:0,0:0:0:0:
242,327,156537,1,2,3:2:0:0:
324,270,156861,2,0,L|374:275,1,50,10|0,3:2|3:2,0:0:0:0:
420,255,157185,2,0,P|445:212|446:163,1,100,2|10,3:2|3:2,0:0:0:0:
379,89,157834,5,2,3:2:0:0:
299,149,158158,1,10,3:2:0:0:
239,69,158483,1,2,3:2:0:0:
147,108,158807,2,0,L|47:98,1,100,10|2,3:2|3:2,0:0:0:0:
34,197,159456,2,0,L|134:207,1,100,10|0,3:2|3:2,0:0:0:0:
202,279,160104,5,10,3:2:0:0:
287,226,160429,1,2,3:2:0:0:
212,160,160753,2,0,P|205:137|203:112,1,50,10|0,3:2|3:2,0:0:0:0:
222,65,161077,2,0,L|272:70,1,50,6|2,3:2|0:0,0:0:0:0:
315,45,161402,1,10,3:2:0:0:
396,103,161726,1,2,3:2:0:0:
493,80,162050,2,0,P|492:129|468:172,1,100,10|2,3:2|3:2,0:0:0:0:
399,245,162699,1,10,3:2:0:0:
327,176,163023,1,2,3:2:0:0:
258,248,163348,5,10,3:2:0:0:
168,204,163672,1,2,3:2:0:0:
124,294,163996,2,0,L|129:344,1,50,10|0,3:2|0:0,0:0:0:0:
167,376,164321,1,2,3:2:0:0:
263,349,164645,2,0,P|287:350|311:357,1,50,10|0,3:2|3:2,0:0:0:0:
358,339,164969,1,2,0:0:0:0:
451,377,165294,1,2,0:0:0:0:
489,284,165618,2,0,L|484:234,2,50,2|2|2,0:0|0:0|0:0,0:0:0:0:
451,377,166267,5,2,0:0:0:0:
358,339,166591,2,0,P|333:340|309:347,1,50,2|2,0:0|0:0,0:0:0:0:
260,339,166915,2,0,L|255:289,2,50,2|2|2,0:0|0:0|0:0,0:0:0:0:
80,251,167888,5,10,3:2:0:0:
168,204,168213,6,0,L|268:214,1,100,4|8,3:2|3:2,0:0:0:0:
365,193,168861,2,0,P|392:151|396:102,1,100,2|8,3:2|3:2,0:0:0:0:
376,57,169348,2,0,L|326:62,1,50,2|0,3:2|3:2,0:0:0:0:
280,81,169672,2,0,L|230:86,1,50,2|8,3:2|3:2,0:0:0:0:
184,105,169996,1,2,3:2:0:0:
86,128,170321,5,2,0:0:0:0:
89,131,170483,2,0,P|96:154|97:179,1,50,10|2,3:2|3:2,0:0:0:0:
81,227,170807,2,0,L|31:222,2,50,2|2|10,3:2|0:0|3:2,0:0:0:0:
111,267,171294,1,2,0:0:0:0:
114,264,171456,2,0,P|160:246|208:257,1,100,2|10,3:2|3:2,0:0:0:0:
237,297,171942,1,2,3:2:0:0:
337,292,172267,6,0,L|342:342,1,50,0|10,3:2|3:2,0:0:0:0:
384,376,172591,2,0,P|432:386|477:369,1,100,2|2,3:2|0:0,0:0:0:0:
511,331,173077,2,0,L|506:281,1,50,8|2,3:2|3:2,0:0:0:0:
498,232,173402,2,0,P|452:214|404:225,1,100,4|8,3:2|3:2,0:0:0:0:
337,301,174050,5,2,3:2:0:0:
334,304,174213,2,0,L|284:299,1,50,2|8,0:0|3:2,0:0:0:0:
238,280,174537,2,0,P|211:238|213:189,1,100,2|0,3:2|3:2,0:0:0:0:
245,151,175023,1,10,3:2:0:0:
248,148,175185,2,0,L|298:143,1,50,2|0,3:2|3:2,0:0:0:0:
347,137,175510,1,2,0:0:0:0:
445,154,175834,1,0,3:2:0:0:
448,151,175996,2,0,P|455:128|456:103,1,50,2|2,3:2|0:0,0:0:0:0:
436,56,176321,2,0,P|413:49|388:48,1,50,10|2,3:2|0:0,0:0:0:0:
342,25,176645,5,0,3:2:0:0:
339,22,176807,2,0,L|289:27,1,50,2|8,0:0|3:2,0:0:0:0:
244,48,177131,2,0,P|198:30|149:40,1,100,2|2,3:2|3:2,0:0:0:0:
118,79,177618,2,0,L|123:129,1,50,10|2,3:2|3:2,0:0:0:0:
98,172,177942,2,0,P|73:172|49:179,2,50,2|2|10,3:2|3:2|3:2,0:0:0:0:
186,219,178591,6,0,L|286:209,1,100,6|8,3:2|3:2,0:0:0:0:
383,230,179240,2,0,P|410:272|414:321,1,100,2|8,3:2|3:2,0:0:0:0:
394,366,179726,2,0,L|344:361,1,50,2|0,3:2|3:2,0:0:0:0:
300,338,180050,2,0,L|250:343,1,50,2|8,3:2|3:2,0:0:0:0:
202,329,180375,1,2,3:2:0:0:
135,255,180699,5,2,0:0:0:0:
132,252,180861,2,0,P|108:244|83:244,1,50,10|2,3:2|3:2,0:0:0:0:
52,205,181185,2,0,L|2:210,2,50,2|2|10,3:2|0:0|3:2,0:0:0:0:
82,165,181672,2,0,P|82:140|74:116,1,50,2|2,0:0|3:2,0:0:0:0:
104,77,181996,2,0,P|129:77|153:69,1,50,2|10,0:0|3:2,0:0:0:0:
191,37,182321,1,2,3:2:0:0:
278,85,182645,6,0,L|328:80,1,50,0|10,3:2|3:2,0:0:0:0:
371,56,182969,2,0,P|420:59|460:87,1,100,2|2,3:2|0:0,0:0:0:0:
470,137,183456,2,0,L|465:187,1,50,8|2,3:2|3:2,0:0:0:0:
422,213,183780,2,0,P|373:210|332:182,1,100,4|8,3:2|3:2,0:0:0:0:
239,220,184429,5,2,3:2:0:0:
236,223,184591,2,0,L|241:273,1,50,2|8,0:0|3:2,0:0:0:0:
228,321,184915,2,0,P|249:364|295:378,1,100,2|0,3:2|3:2,0:0:0:0:
339,353,185402,1,10,3:2:0:0:
342,350,185564,2,0,L|392:355,1,50,2|0,3:2|3:2,0:0:0:0:
439,370,185888,1,2,0:0:0:0:
495,286,186212,5,2,3:2:0:0:
498,283,186375,2,0,P|506:259|506:234,1,50,2|2,3:2|0:0,0:0:0:0:
477,194,186699,2,0,P|469:170|469:145,1,50,10|2,3:2|0:0,0:0:0:0:
490,100,187023,2,0,L|485:50,1,50,2|2,3:2|0:0,0:0:0:0:
441,24,187348,5,10,3:2:0:0:
438,21,187510,2,0,P|392:39|343:29,1,100,2|2,3:2|3:2,0:0:0:0:
296,45,187996,2,0,L|246:40,1,50,10|2,3:2|3:2,0:0:0:0:
199,57,188321,1,2,3:2:0:0:
196,60,188483,2,0,P|150:42|101:52,1,100,2|2,3:2|3:2,0:0:0:0:
72,92,188969,5,6,3:2:0:0:
256,192,189131,12,0,191564,3:2:0:0:
83,233,193185,5,10,3:2:0:0:
86,230,193348,2,0,P|94:181|74:136,1,100,2|2,3:2|0:0,0:0:0:0:
29,113,193834,2,0,L|34:63,1,50,10|2,3:2|3:2,0:0:0:0:
71,29,194158,2,0,L|121:34,1,50,4|2,3:2|0:0,0:0:0:0:
170,41,194483,1,10,3:2:0:0:
256,192,194645,12,0,196753,3:2:0:0:
442,35,199348,6,0,P|467:29|492:27,2,50,6|2|10,3:2|0:0|3:2,0:0:0:0:
362,96,199996,2,0,P|368:121|370:146,2,50,2|2|10,3:2|0:0|3:2,0:0:0:0:
328,59,200483,1,2,3:2:0:0:
246,116,200807,2,0,L|196:111,1,50,2|10,3:2|3:2,0:0:0:0:
163,148,201131,1,2,3:2:0:0:
160,151,201294,2,0,L|110:156,2,50,2|2|10,3:2|0:0|3:2,0:0:0:0:
228,224,201942,6,0,P|253:218|278:216,2,50,2|2|10,3:2|0:0|3:2,0:0:0:0:
152,290,202591,2,0,P|127:284|102:282,2,50,2|2|10,3:2|0:0|3:2,0:0:0:0:
192,320,203077,1,2,3:2:0:0:
271,382,203402,2,0,L|371:372,1,100,2|2,3:2|3:2,0:0:0:0:
411,343,203888,2,0,L|461:348,2,50,2|2|10,3:2|0:0|3:2,0:0:0:0:
341,270,204537,6,0,P|335:245|333:220,2,50,6|2|10,3:2|0:0|3:2,0:0:0:0:
243,289,205185,2,0,P|237:264|235:239,2,50,2|2|10,3:2|0:0|3:2,0:0:0:0:
225,336,205672,1,2,3:2:0:0:
137,288,205996,2,0,L|87:283,1,50,2|10,3:2|3:2,0:0:0:0:
65,238,206321,1,2,3:2:0:0:
62,235,206483,2,0,P|37:229|12:227,2,50,2|2|10,3:2|0:0|3:2,0:0:0:0:
137,169,207131,6,0,P|161:163|186:161,2,50,2|2|10,3:2|0:0|3:2,0:0:0:0:
118,71,207780,2,0,P|142:65|167:63,2,50,2|2|10,3:2|0:0|3:2,0:0:0:0:
71,53,208267,1,2,3:2:0:0:
3,127,208591,2,0,L|13:227,1,100,2|2,3:2|3:2,0:0:0:0:
51,259,209077,2,0,L|101:264,1,50,2|2,3:2|3:2,0:0:0:0:
140,295,209402,2,0,L|190:290,1,50,10|2,3:2|3:2,0:0:0:0:
233,265,209726,5,6,0:0:0:0:
