osu file format v14

[General]
AudioFilename: audio.mp3
AudioLeadIn: 0
PreviewTime: 51456
Countdown: 0
SampleSet: Soft
StackLeniency: 0.7
Mode: 0
LetterboxInBreaks: 0
StoryFireInFront: 0
EpilepsyWarning: 1
WidescreenStoryboard: 1

[Editor]
Bookmarks: 20970,31348,83240,124754,135132,145510,155889,209726
DistanceSpacing: 1.4
BeatDivisor: 4
GridSize: 32
TimelineZoom: 2.999999

[Metadata]
Title:Mikansei Time Limiter
TitleUnicode:未完成タイムリミッター
Artist:Orangestar
ArtistUnicode:Orangestar
Creator:Irin
Version:Fish Rose's Insane
Source:
Tags:Orangestar Vocaloid IA unfinished Calvaria Fish Rose Papple104 Remapper Superdaloubot Kanor ExNeko -Nanako- Agagak
BeatmapID:2220883
BeatmapSetID:932914

[Difficulty]
HPDrainRate:6
CircleSize:3.8
OverallDifficulty:7.5
ApproachRate:9
SliderMultiplier:1.8
SliderTickRate:1

[Events]
//Background and Video events
0,0,"1493808758396.jpg",0,0
//Break Periods
2,73061,76977
2,78251,82490
2,115224,116220
2,117819,118814
2,120413,121409
2,145710,152544
//Storyboard Layer 0 (Background)
//Storyboard Layer 1 (Fail)
//Storyboard Layer 2 (Pass)
//Storyboard Layer 3 (Foreground)
Sprite,Foreground,Centre,"sb\highlight.png",0,0 C,0,164970,,26,133,159 M,0,164970,165010,275,161,291.8743,160.8466 F,2,164970,165494,1,0 S,2,164970,165494,1,0.2 P,0,164970,165494,A M,0,165010,165051,291.8743,160.8466,308.7486,160.6932 M,0,165051,165091,308.7486,160.6932,325.6229,160.5398 M,0,165091,165132,325.6229,160.5398,342.4972,160.3864 M,0,165132,165172,342.4972,160.3864,359.3715,160.233 M,0,165172,165213,359.3715,160.233,376.2458,160.0796 M,0,165213,165253,376.2458,160.0796,379.0207,165.4945 M,0,165253,165294,379.0207,165.4945,366.5952,176.9126
Sprite,Foreground,Centre,"sb\highlight.png",0,0 C,0,165619,,26,133,159 M,0,165619,165659,481,167,479.584,183.8155 F,2,165619,166143,1,0 S,2,165619,166143,1,0.2 P,0,165619,166143,A M,0,165659,165700,479.584,183.8155,478.1679,200.631 M,0,165700,165740,478.1679,200.631,476.7519,217.4464 M,0,165740,165781,476.7519,217.4464,475.3358,234.2619 M,0,165781,165821,475.3358,234.2619,476.7519,217.4465 M,0,165821,165862,476.7519,217.4465,478.1679,200.631 M,0,165862,165902,478.1679,200.631,479.584,183.8155 M,0,165902,165943,479.584,183.8155,481,167
Sprite,Foreground,Centre,"sb\highlight.png",0,0 C,0,166267,,26,133,159 M,0,166267,166307,525,380,510.6362,388.7876 F,2,166267,166791,1,0 S,2,166267,166791,1,0.2 P,0,166267,166791,A M,0,166307,166348,510.6362,388.7876,494.8835,394.7032 M,0,166348,166388,494.8835,394.7032,478.308,397.5386 M,0,166388,166429,478.308,397.5386,461.5042,397.1956 M,0,166429,166469,461.5042,397.1956,445.0745,393.6895 M,0,166469,166510,445.0745,393.6895,429.6073,387.1483 M,0,166510,166550,429.6073,387.1483,415.6562,377.8084 M,0,166550,166591,415.6562,377.8084,403.7207,366.0059
Sprite,Foreground,Centre,"sb\highlight.png",476,235 C,0,166754,,26,133,159 F,2,166754,166954,1,0 S,2,166754,166954,1,0.2 P,0,166754,166954,A
Sprite,Foreground,Centre,"sb\highlight.png",0,0 C,0,166916,,26,133,159 M,0,166916,166956,476,235,474.584,251.8155 F,2,166916,167278,1,0 S,2,166916,167278,1,0.2 P,0,166916,167278,A M,0,166956,166997,474.584,251.8155,473.1679,268.631 M,0,166997,167037,473.1679,268.631,471.7519,285.4464 M,0,167037,167078,471.7519,285.4464,470.3358,302.2619
Sprite,Foreground,Centre,"sb\highlight.png",0,0 C,0,167240,,26,133,159 M,0,167240,167280,383,282,381.9232,270.8016 F,2,167240,167764,1,0 S,2,167240,167764,1,0.2 P,0,167240,167764,A M,0,167280,167321,381.9232,270.8016,380.8465,259.6033 M,0,167321,167361,380.8465,259.6033,379.7697,248.4049 M,0,167361,167402,379.7697,248.4049,378.6929,237.2066 M,0,167402,167442,378.6929,237.2066,377.6162,226.0082 M,0,167442,167483,377.6162,226.0082,376.5394,214.8099 M,0,167483,167523,376.5394,214.8099,375.4626,203.6115 M,0,167523,167564,375.4626,203.6115,374.3859,192.4132
Sprite,Foreground,Centre,"sb\highlight.png",382,280 C,0,167889,,255,255,168 F,2,167889,168089,1,0 S,2,167889,168089,1,0.2 P,0,167889,168089,A
Sprite,Foreground,Centre,"sb\highlight.png",452,130 C,0,168051,,255,255,168 F,2,168051,168251,1,0 S,2,168051,168251,1,0.2 P,0,168051,168251,A
Sprite,Foreground,Centre,"sb\highlight.png",452,130 C,0,168132,,255,255,168 F,2,168132,168332,1,0 S,2,168132,168332,1,0.2 P,0,168132,168332,A
Sprite,Foreground,Centre,"sb\highlight.png",271,187 C,0,92483,,255,153,151 F,2,92483,92683,1,0 S,2,92483,92683,1,0.2 P,0,92483,92683,A
Sprite,Foreground,Centre,"sb\highlight.png",0,0 C,0,92646,,255,153,151 M,0,92646,92686,173,246,153.3253,250.7926 F,2,92646,93008,1,0 S,2,92646,93008,1,0.2 P,0,92646,93008,A M,0,92686,92727,153.3253,250.7926,133.6506,255.5851 M,0,92727,92767,133.6506,255.5851,113.9759,260.3777 M,0,92767,92808,113.9759,260.3777,95,265
Sprite,Foreground,Centre,"sb\highlight.png",113,147 C,0,92970,,255,153,151 F,2,92970,93170,1,0 S,2,92970,93170,1,0.2 P,0,92970,93170,A
Sprite,Foreground,Centre,"sb\highlight.png",113,147 C,0,93051,,255,153,151 F,2,93051,93251,1,0 S,2,93051,93251,1,0.2 P,0,93051,93251,A
Sprite,Foreground,Centre,"sb\highlight.png",113,147 C,0,93132,,255,153,151 F,2,93132,93332,1,0 S,2,93132,93332,1,0.2 P,0,93132,93332,A
Sprite,Foreground,Centre,"sb\highlight.png",266,110 C,0,93294,,255,153,151 F,2,93294,93494,1,0 S,2,93294,93494,1,0.2 P,0,93294,93494,A
Sprite,Foreground,Centre,"sb\highlight.png",288,145 C,0,93375,,255,153,151 F,2,93375,93575,1,0 S,2,93375,93575,1,0.2 P,0,93375,93575,A
Sprite,Foreground,Centre,"sb\highlight.png",295,189 C,0,93456,,255,153,151 F,2,93456,93656,1,0 S,2,93456,93656,1,0.2 P,0,93456,93656,A
Sprite,Foreground,Centre,"sb\highlight.png",279,233 C,0,93537,,255,153,151 F,2,93537,93737,1,0 S,2,93537,93737,1,0.2 P,0,93537,93737,A
Sprite,Foreground,Centre,"sb\highlight.png",0,0 C,0,51456,,255,255,168 M,0,51456,51496,476,155,483.1132,163.704 F,2,51456,52142,1,0 S,2,51456,52142,1,0.2 P,0,51456,52142,A M,0,51496,51537,483.1132,163.704,488.6839,173.4572 M,0,51537,51577,488.6839,173.4572,491.8856,184.2081 M,0,51577,51618,491.8856,184.2081,484.439,192.2078 M,0,51618,51658,484.439,192.2078,475.5172,199.0479 M,0,51658,51699,475.5172,199.0479,465.7097,204.5327 M,0,51699,51739,465.7097,204.5327,455.0667,208.1156 M,0,51739,51780,455.0667,208.1156,443.9052,209.302 M,0,51780,51820,443.9052,209.302,432.7639,207.925 M,0,51820,51861,432.7639,207.925,422.1374,204.2842 M,0,51861,51901,422.1374,204.2842,412.2635,198.9146 M,0,51901,51942,412.2635,198.9146,403.1645,192.3091
Sprite,Foreground,Centre,"sb\highlight.png",0,0 C,0,10267,,255,255,168 M,0,10267,10307,527,146,517.2355,159.7103 F,2,10267,10710,1,0 S,2,10267,10710,1,0.2 P,0,10267,10710,A M,0,10307,10348,517.2355,159.7103,504.6501,170.8752 M,0,10348,10388,504.6501,170.8752,489.8874,178.9282 M,0,10388,10429,489.8874,178.9282,473.7014,183.4619 M,0,10429,10469,473.7014,183.4619,456.9179,184.2481 M,0,10469,10510,456.9179,184.2481,440.3923,181.2499
//Storyboard Layer 4 (Overlay)
//Storyboard Sound Samples

[TimingPoints]
213,324.324324324324,4,2,1,50,1,0
10267,-133.333333333333,4,2,1,50,0,0
10591,-100,4,2,1,50,0,0
20969,-100,4,2,1,60,0,0
31348,-133.333333333333,4,2,1,50,0,0
32321,-111.111111111111,4,2,1,50,0,0
32646,-133.333333333333,4,2,1,50,0,0
33619,-111.111111111111,4,2,1,50,0,0
33943,-133.333333333333,4,2,1,50,0,0
36213,-111.111111111111,4,2,1,50,0,0
36537,-133.333333333333,4,2,1,50,0,0
37510,-111.111111111111,4,2,1,50,0,0
37835,-133.333333333333,4,2,1,50,0,0
38808,-111.111111111111,4,2,1,50,0,0
39132,-133.333333333333,4,2,1,50,0,0
41726,-133.333333333333,4,2,1,60,0,0
41727,-111.111111111111,4,2,1,60,0,0
51131,-111.111111111111,4,2,1,50,0,0
51456,-200,4,2,1,40,0,0
52104,-100,4,2,1,70,0,1
72861,-133.333333333333,4,2,1,40,0,0
83240,-133.333333333333,4,2,1,50,0,0
83564,-111.111111111111,4,2,1,50,0,0
88429,-133.333333333333,4,2,1,50,0,0
88754,-111.111111111111,4,2,1,50,0,0
92321,-111.111111111111,4,2,1,50,0,0
93618,-100,4,2,1,70,0,1
114375,-133.333333333333,4,2,1,50,0,0
124753,-133.333333333333,4,2,1,60,0,0
124754,-100,4,2,1,60,0,0
135131,-100,4,2,1,70,0,0
145510,-100,4,2,1,30,0,0
153294,-200,4,2,1,40,0,0
153943,-158.730158730159,4,2,1,40,0,0
154591,-133.333333333333,4,2,1,40,0,0
155402,-133.333333333333,4,2,1,50,0,0
155889,-133.333333333333,4,2,1,50,0,0
162051,-100,4,2,1,50,0,0
162375,-133.333333333333,4,2,1,50,0,0
163348,-100,4,2,1,50,0,0
163673,-133.333333333333,4,2,1,50,0,0
167240,-200,4,2,1,50,0,0
167888,-200,4,2,1,60,0,0
168213,324.324324324324,4,2,1,80,1,1
168213,-100,4,2,1,80,0,1
188969,-100,4,2,1,70,0,0
194158,-133.333333333333,4,2,1,70,0,0
194483,-100,4,2,1,70,0,0
199348,-100,4,2,1,70,0,0
209726,480,4,2,1,50,1,0
209726,-100,4,2,1,50,0,0
210686,517.241379310345,4,2,1,50,1,0
211203,571.428571428571,4,2,1,50,1,0
211774,631.578947368421,4,2,1,50,1,0
213037,705.882352941176,4,2,1,50,1,0
213742,800,4,2,1,50,1,0

[Colours]
Combo1 : 26,133,159
Combo2 : 255,255,168
Combo3 : 225,225,225
Combo4 : 255,153,151

[HitObjects]
463,90,10267,6,0,P|426:123|363:120,1,101.250003862381,2|0,0:0|0:0,0:0:0:0:
397,48,10592,6,0,B|422:100|422:100|401:237,1,180,6|10,3:2|3:2,0:0:0:0:
241,274,11240,2,0,P|194:260|167:228,1,90,2|2,3:2|0:0,0:0:0:0:
322,247,11564,1,10,3:2:0:0:
322,247,11727,2,0,L|304:357,1,90,2|0,3:2|0:0,0:0:0:0:
256,185,12051,2,0,L|238:75,1,90,2|8,3:2|3:2,0:0:0:0:
79,42,12375,1,2,3:2:0:0:
94,131,12537,2,0,P|133:157|176:157,1,90,2|2,3:2|3:2,0:0:0:0:
307,34,12862,1,8,3:2:0:0:
307,34,13024,1,2,3:2:0:0:
415,83,13186,6,0,B|380:105|333:86|333:86|282:70|230:102,1,180,2|10,3:2|3:2,0:0:0:0:
266,243,13835,2,0,P|291:212|296:163,1,90,2|2,3:2|0:0,0:0:0:0:
317,306,14158,1,8,3:2:0:0:
204,179,14321,2,0,P|164:172|119:192,1,90,2|0,3:2|0:0,0:0:0:0:
143,343,14646,2,0,P|170:308|174:264,1,90,2|8,3:2|3:2,0:0:0:0:
29,221,14970,2,0,P|43:258|82:287,1,90,2|0,3:2|3:2,0:0:0:0:
204,179,15294,1,2,0:0:0:0:
147,115,15456,1,8,3:2:0:0:
115,199,15619,1,10,3:2:0:0:
63,81,15781,6,0,B|110:111|110:111|231:92,1,180,6|10,3:2|3:2,0:0:0:0:
410,59,16429,2,0,L|321:73,1,90,2|2,3:2|0:0,0:0:0:0:
292,158,16754,1,10,3:2:0:0:
292,158,16916,2,0,L|381:144,1,90,2|0,3:2|0:0,0:0:0:0:
491,262,17240,2,0,P|487:306|460:341,1,90,2|8,3:2|3:2,0:0:0:0:
373,367,17564,1,2,3:2:0:0:
316,269,17727,2,0,L|405:283,1,90,2|2,3:2|3:2,0:0:0:0:
245,324,18051,1,8,3:2:0:0:
245,324,18213,1,2,3:2:0:0:
138,229,18375,6,0,P|223:247|283:186,1,180,2|10,3:2|3:2,0:0:0:0:
52,205,19024,2,0,L|66:294,1,90,2|2,3:2|0:0,0:0:0:0:
109,143,19347,1,10,3:2:0:0:
109,143,19510,2,0,P|70:123|26:128,1,90,2|0,3:2|0:0,0:0:0:0:
199,172,19835,2,0,P|239:191|283:186,1,90,2|8,3:2|3:2,0:0:0:0:
342,121,20159,1,2,3:2:0:0:
316,269,20321,5,2,3:2:0:0:
316,269,20402,1,8,3:2:0:0:
316,269,20483,1,2,3:2:0:0:
163,249,20645,1,8,3:2:0:0:
163,227,20726,1,0,3:2:0:0:
170,205,20807,1,2,3:2:0:0:
182,186,20888,1,8,3:2:0:0:
199,172,20970,6,0,P|239:191|283:186,1,90,6|0,3:2|0:0,0:0:0:0:
342,121,21294,2,0,P|302:102|258:107,1,90,10|0,3:2|0:0,0:0:0:0:
169,88,21618,2,0,L|183:-1,1,90,2|2,3:2|0:0,0:0:0:0:
99,31,21943,2,0,L|85:120,1,90,10|2,3:2|0:0,0:0:0:0:
71,207,22267,6,0,L|57:296,2,90,2|2|10,3:2|3:2|3:2,0:0:0:0:
155,176,22754,1,2,3:2:0:0:
155,176,22916,2,0,P|199:170|239:189,1,90,2|2,3:2|0:0,0:0:0:0:
167,343,23240,2,0,P|161:299|181:259,1,90,10|2,3:2|3:2,0:0:0:0:
420,223,23564,6,0,L|331:209,1,90,2|0,3:2|0:0,0:0:0:0:
251,314,23889,2,0,L|340:300,1,90,10|0,3:2|0:0,0:0:0:0:
503,251,24213,2,0,P|509:207|490:168,1,90,2|2,3:2|0:0,0:0:0:0:
420,223,24537,2,0,P|415:267|435:307,1,90,10|2,3:2|0:0,0:0:0:0:
409,129,24862,5,2,3:2:0:0:
409,129,25024,2,0,L|423:40,1,90,2|10,3:2|3:2,0:0:0:0:
325,96,25348,2,0,L|339:185,1,90,2|2,3:2|3:2,0:0:0:0:
311,6,25673,1,2,0:0:0:0:
241,62,25835,1,10,3:2:0:0:
157,29,25997,1,10,3:2:0:0:
88,81,26159,6,0,P|79:124|95:165,1,90,6|0,3:2|0:0,0:0:0:0:
177,201,26483,2,0,P|149:235|106:249,1,90,10|0,3:2|0:0,0:0:0:0:
166,118,26808,2,0,P|209:124|243:154,1,90,2|2,3:2|0:0,0:0:0:0:
185,285,27132,2,0,P|168:243|177:199,1,90,10|2,3:2|0:0,0:0:0:0:
347,252,27456,6,0,L|258:238,2,90,2|2|10,3:2|3:2|3:2,0:0:0:0:
414,312,27943,1,2,3:2:0:0:
427,223,28105,2,0,L|441:134,1,90,2|2,3:2|0:0,0:0:0:0:
352,172,28429,2,0,L|338:83,1,90,10|2,3:2|3:2,0:0:0:0:
94,154,28754,6,0,L|183:168,1,90,2|0,3:2|0:0,0:0:0:0:
190,258,29077,2,0,L|101:244,1,90,10|0,3:2|0:0,0:0:0:0:
256,118,29403,2,0,P|273:160|265:204,1,90,2|2,3:2|0:0,0:0:0:0:
183,168,29727,2,0,P|167:127|176:84,1,90,10|2,3:2|0:0,0:0:0:0:
270,297,30051,5,2,3:2:0:0:
270,297,30213,2,0,P|312:283|340:249,1,90,2|10,3:2|3:2,0:0:0:0:
398,85,30537,1,2,3:2:0:0:
422,236,30700,2,0,L|429:312,2,45,2|8|2,3:2|3:2|3:2,0:0:0:0:
480,66,31024,1,10,3:2:0:0:
480,110,31105,1,0,3:2:0:0:
451,151,31186,1,2,3:2:0:0:
411,172,31267,1,8,3:2:0:0:
369,164,31348,6,0,P|288:177|253:229,1,135.000005149842,6|10,3:2|3:2,0:0:0:0:
112,198,31835,1,2,0:0:0:0:
112,198,31997,2,0,P|144:205|176:196,1,67.5000025749208,2|0,3:2|0:0,0:0:0:0:
80,26,32321,6,0,B|51:67|73:122|73:122|108:99,1,121.499996292114,10|0,3:2|3:2,0:0:0:0:
109,105,32646,2,0,P|141:96|173:103,1,67.5000025749208,2|0,3:2|0:0,0:0:0:0:
269,143,32970,2,0,P|301:150|333:141,1,67.5000025749208,10|0,3:2|0:0,0:0:0:0:
429,110,33294,1,2,3:2:0:0:
429,110,33619,6,0,B|408:177|450:171|433:237,1,121.499996292114,10|0,3:2|0:0,0:0:0:0:
434,242,33943,2,0,L|447:335,1,67.5000025749208,2|0,3:2|0:0,0:0:0:0:
364,372,34267,2,0,L|355:306,1,67.5000025749208,10|0,3:2|0:0,0:0:0:0:
252,203,34591,2,0,L|262:270,1,67.5000025749208,2|0,3:2|0:0,0:0:0:0:
354,305,34916,2,0,L|344:238,1,67.5000025749208,10|0,3:2|0:0,0:0:0:0:
242,116,35240,1,0,3:2:0:0:
173,170,35402,1,0,3:2:0:0:
98,123,35564,2,0,P|34:139|53:200,1,135.000005149842,10|0,3:2|3:2,0:0:0:0:
44,195,36213,6,0,P|40:137|97:122,1,121.499996292114,10|0,3:2|0:0,0:0:0:0:
107,131,36537,2,0,B|132:171|132:171|112:215|122:280,1,135.000005149842,6|10,3:2|3:2,0:0:0:0:
162,334,37024,1,0,0:0:0:0:
207,259,37186,1,2,3:2:0:0:
328,302,37510,6,0,P|271:273|203:266,1,121.499996292114,10|0,3:2|3:2,0:0:0:0:
206,258,37835,2,0,L|286:240,1,67.5000025749208,2|2,3:2|0:0,0:0:0:0:
287,100,38159,1,10,3:2:0:0:
238,172,38321,1,2,0:0:0:0:
325,176,38483,1,2,3:2:0:0:
509,109,38808,6,0,P|455:135|397:124,1,121.499996292114,10|0,3:2|0:0,0:0:0:0:
383,119,39132,2,0,P|401:146|406:179,1,67.5000025749208,2|0,3:2|0:0,0:0:0:0:
305,89,39456,2,0,P|318:58|345:37,1,67.5000025749208,10|0,3:2|0:0,0:0:0:0:
325,176,39781,2,0,L|231:187,1,67.5000025749208,2|0,3:2|0:0,0:0:0:0:
345,39,40105,2,0,L|438:50,1,67.5000025749208,10|0,3:2|0:0,0:0:0:0:
507,180,40429,5,2,3:2:0:0:
463,256,40591,1,2,3:2:0:0:
418,179,40754,1,10,3:2:0:0:
244,104,41078,2,0,L|236:52,2,33.7500012874604,0|8|0,3:2|3:2|3:2,0:0:0:0:
212,282,41402,1,10,3:2:0:0:
212,282,41483,1,0,3:2:0:0:
212,282,41564,2,0,L|204:334,1,33.7500012874604,2|8,3:2|3:2,0:0:0:0:
100,193,41727,6,0,B|93:143|121:93,1,80.9999975280763,6|0,3:2|0:0,0:0:0:0:
110,113,42051,2,0,P|125:149|126:190,1,80.9999975280763,10|0,3:2|0:0,0:0:0:0:
41,246,42375,2,0,P|65:213|99:193,1,80.9999975280763,2|0,3:2|0:0,0:0:0:0:
186,139,42700,2,0,P|147:134|111:114,1,80.9999975280763,10|0,3:2|0:0,0:0:0:0:
340,138,43024,6,0,P|298:139|248:167,1,80.9999975280763,2|0,3:2|0:0,0:0:0:0:
186,139,43348,2,0,P|222:154|263:155,1,80.9999975280763,10|0,3:2|0:0,0:0:0:0:
392,78,43673,2,0,P|361:101|339:136,1,80.9999975280763,2|0,3:2|0:0,0:0:0:0:
370,225,43997,2,0,P|401:202|423:167,1,80.9999975280763,10|0,3:2|0:0,0:0:0:0:
262,154,44321,6,0,L|271:259,1,80.9999975280763,2|0,3:2|0:0,0:0:0:0:
424,167,44646,2,0,L|433:272,1,80.9999975280763,10|0,3:2|0:0,0:0:0:0:
279,174,44970,2,0,L|288:279,1,80.9999975280763,2|0,3:2|0:0,0:0:0:0:
441,187,45295,2,0,L|450:292,1,80.9999975280763,10|0,3:2|0:0,0:0:0:0:
392,78,45619,5,0,3:2:0:0:
338,136,45781,1,0,3:2:0:0:
229,64,45943,2,0,L|334:57,1,80.9999975280763,10|0,3:2|0:0,0:0:0:0:
315,213,46267,2,0,L|234:207,1,80.9999975280763,2|0,3:2|0:0,0:0:0:0:
114,143,46591,2,0,L|219:136,1,80.9999975280763,10|0,3:2|3:2,0:0:0:0:
46,95,46916,6,0,B|-3:168|84:188|20:273,1,161.999995056153,6|8,3:2|3:2,0:0:0:0:
61,349,47402,1,0,0:0:0:0:
61,349,47564,2,0,B|103:315|103:315|233:328,1,161.999995056153,2|8,3:2|3:2,0:0:0:0:
384,341,48051,1,2,0:0:0:0:
384,341,48213,2,0,L|279:334,1,80.9999975280763,0|2,3:2|0:0,0:0:0:0:
345,226,48537,2,0,L|426:221,1,80.9999975280763,10|2,3:2|0:0,0:0:0:0:
263,257,48862,2,0,P|258:217|269:179,1,80.9999975280763,2|0,3:2|0:0,0:0:0:0:
432,141,49186,2,0,P|436:180|426:219,1,80.9999975280763,10|0,3:2|0:0,0:0:0:0:
269,178,49510,6,0,L|188:173,1,80.9999975280763,2|0,3:2|0:0,0:0:0:0:
26,280,49835,2,0,L|107:285,1,80.9999975280763,10|0,3:2|0:0,0:0:0:0:
118,127,50159,2,0,P|106:165|111:205,1,80.9999975280763,2|0,3:2|0:0,0:0:0:0:
177,331,50484,2,0,P|188:292|183:252,1,80.9999975280763,10|0,3:2|0:0,0:0:0:0:
118,127,50808,5,2,3:2:0:0:
188,173,50970,1,0,3:2:0:0:
269,178,51132,1,2,0:0:0:0:
355,157,51294,1,2,0:0:0:0:
412,99,51456,6,0,B|426:114|428:129|428:129|379:180|326:124,1,135,2|0,0:0|0:0,0:0:0:0:
402,73,52104,6,0,P|440:160|379:228,1,180,6|8,3:2|3:2,0:0:0:0:
305,230,52591,1,0,0:0:0:0:
174,149,52754,2,0,B|265:112|267:189|375:134,1,180,2|8,3:2|3:2,0:0:0:0:
115,77,53239,1,2,0:0:0:0:
223,224,53401,1,2,3:2:0:0:
203,61,53563,1,2,3:2:0:0:
87,163,53727,2,0,L|95:291,1,90,10|2,3:2|3:2,0:0:0:0:
228,313,54051,2,0,L|220:185,1,90,2|0,3:2|0:0,0:0:0:0:
103,342,54375,1,10,3:2:0:0:
103,342,54537,1,0,3:2:0:0:
228,313,54700,6,0,B|293:308|293:308|342:331|342:331|417:321,1,180,2|8,3:2|3:2,0:0:0:0:
492,316,55186,1,0,0:0:0:0:
380,172,55348,2,0,P|350:253|402:323,1,180,2|8,3:2|3:2,0:0:0:0:
441,241,55835,1,2,0:0:0:0:
290,177,55997,2,0,L|418:169,1,90,2|2,3:2|3:2,0:0:0:0:
269,256,56321,2,0,L|141:248,1,90,10|2,3:2|3:2,0:0:0:0:
282,92,56646,2,0,P|298:129|269:201,1,90,2|0,3:2|0:0,0:0:0:0:
128,175,56970,1,10,3:2:0:0:
209,135,57132,1,2,3:2:0:0:
269,256,57294,6,0,B|204:298|139:260|139:260|163:262|184:246,1,180,6|8,3:2|3:2,0:0:0:0:
128,175,57781,1,0,0:0:0:0:
282,92,57943,2,0,P|281:20|205:64,1,180,2|8,3:2|3:2,0:0:0:0:
381,84,58429,1,2,0:0:0:0:
259,188,58591,1,2,3:2:0:0:
419,175,58754,1,2,3:2:0:0:
282,92,58916,2,0,B|260:128|260:128|261:178,1,90,10|2,3:2|3:2,0:0:0:0:
322,323,59240,2,0,B|344:287|344:287|344:240,1,90,2|0,3:2|0:0,0:0:0:0:
176,225,59564,1,10,3:2:0:0:
259,188,59727,1,2,3:2:0:0:
185,321,59889,6,0,P|197:282|162:213,1,90,2|0,3:2|0:0,0:0:0:0:
101,183,60213,2,0,P|88:226|101:269,1,90,10|0,3:2|0:0,0:0:0:0:
107,95,60537,2,0,P|64:101|30:130,1,90,2|0,3:2|0:0,0:0:0:0:
183,147,60862,2,0,P|226:136|256:104,1,90,10|0,3:2|3:2,0:0:0:0:
101,183,61185,5,0,3:2:0:0:
188,66,61347,1,0,3:2:0:0:
327,149,61510,1,8,3:2:0:0:
183,147,61672,1,0,3:2:0:0:
332,68,61835,1,0,3:2:0:0:
332,68,61916,1,8,3:2:0:0:
332,68,61997,1,0,3:2:0:0:
471,151,62159,1,10,3:2:0:0:
482,194,62240,1,0,3:2:0:0:
472,238,62321,1,0,3:2:0:0:
443,273,62402,1,8,3:2:0:0:
402,291,62483,6,0,B|311:254|309:331|201:276,1,180,6|8,3:2|3:2,0:0:0:0:
133,285,62970,1,0,0:0:0:0:
245,117,63132,2,0,B|275:79|275:79|274:211,1,180,2|8,3:2|3:2,0:0:0:0:
226,287,63619,1,2,0:0:0:0:
93,208,63781,2,0,L|182:209,1,90,2|2,3:2|3:2,0:0:0:0:
43,283,64105,1,10,3:2:0:0:
2,202,64267,1,2,3:2:0:0:
141,138,64429,2,0,P|129:176|60:213,1,90,2|0,3:2|0:0,0:0:0:0:
109,54,64754,1,10,3:2:0:0:
109,54,64916,1,0,3:2:0:0:
52,124,65078,6,0,B|105:179|177:157|177:157|153:153|137:133,1,180,2|8,3:2|3:2,0:0:0:0:
199,69,65564,1,0,0:0:0:0:
165,246,65727,2,0,P|165:318|241:274,1,180,2|8,3:2|3:2,0:0:0:0:
328,284,66213,1,2,0:0:0:0:
456,198,66375,2,0,L|328:206,1,90,2|2,3:2|3:2,0:0:0:0:
240,289,66699,2,0,L|275:199,1,90,10|2,3:2|3:2,0:0:0:0:
224,33,67023,2,0,L|222:122,1,90,2|0,3:2|0:0,0:0:0:0:
92,126,67348,2,0,P|57:98|43:57,1,90,10|0,3:2|3:2,0:0:0:0:
132,44,67673,6,0,B|131:109|131:109|104:155|104:155|106:216,1,180,6|8,3:2|3:2,0:0:0:0:
187,253,68159,1,0,0:0:0:0:
33,263,68321,2,0,B|-9:302|-9:302|135:306,1,180,2|8,3:2|3:2,0:0:0:0:
266,294,68807,1,2,0:0:0:0:
249,113,68970,1,2,3:2:0:0:
187,253,69132,1,2,3:2:0:0:
328,154,69294,1,10,3:2:0:0:
170,72,69456,1,2,3:2:0:0:
170,72,69619,2,0,L|175:176,1,90,2|0,3:2|0:0,0:0:0:0:
106,216,69943,1,10,3:2:0:0:
106,216,70105,1,2,3:2:0:0:
84,71,70267,6,0,P|126:58|169:71,1,90,2|0,3:2|0:0,0:0:0:0:
334,112,70591,2,0,P|291:125|248:112,1,90,10|0,3:2|0:0,0:0:0:0:
409,62,70916,2,0,L|414:151,1,90,2|0,3:2|0:0,0:0:0:0:
243,202,71240,2,0,L|248:112,1,90,10|0,3:2|3:2,0:0:0:0:
417,240,71563,5,0,3:2:0:0:
254,314,71727,1,0,3:2:0:0:
345,156,71889,1,8,3:2:0:0:
364,337,72051,1,0,3:2:0:0:
243,202,72213,1,0,3:2:0:0:
243,202,72294,1,8,3:2:0:0:
243,202,72375,1,0,3:2:0:0:
417,240,72537,1,8,3:2:0:0:
392,283,72619,1,0,3:2:0:0:
352,312,72700,1,0,3:2:0:0:
303,320,72781,1,8,3:2:0:0:
254,314,72861,5,6,0:0:0:0:
173,190,77727,6,0,P|204:142|201:79,1,101.250003862381,2|0,0:0|0:0,0:0:0:0:
202,65,78051,1,6,0:0:0:0:
173,190,83240,6,0,P|204:142|201:79,1,101.250003862381,6|0,3:2|0:0,0:0:0:0:
202,65,83564,6,0,P|188:113|277:122,1,161.999995056153,8|2,3:2|3:2,0:0:0:0:
352,108,84051,1,0,0:0:0:0:
358,27,84213,2,0,L|279:45,1,80.9999975280763,8|0,3:2|0:0,0:0:0:0:
328,185,84537,1,2,3:2:0:0:
328,185,84700,1,2,3:2:0:0:
430,126,84862,2,0,L|351:107,1,80.9999975280763,10|2,3:2|3:2,0:0:0:0:
249,165,85186,2,0,L|327:184,1,80.9999975280763,2|0,3:2|0:0,0:0:0:0:
406,202,85510,1,10,3:2:0:0:
346,257,85673,1,0,3:2:0:0:
269,232,85835,6,0,P|294:193|331:183,1,80.9999975280763,2|0,3:2|0:0,0:0:0:0:
281,309,86159,2,0,P|236:305|207:278,1,80.9999975280763,10|0,3:2|0:0,0:0:0:0:
128,256,86483,2,0,L|147:334,1,80.9999975280763,2|0,3:2|0:0,0:0:0:0:
49,225,86807,1,10,3:2:0:0:
190,203,86970,2,0,L|209:281,1,80.9999975280763,0|2,0:0|3:2,0:0:0:0:
147,334,87294,1,2,3:2:0:0:
49,225,87456,2,0,P|74:188|112:176,1,80.9999975280763,10|2,3:2|3:2,0:0:0:0:
69,311,87781,1,2,3:2:0:0:
69,311,87943,1,0,0:0:0:0:
107,176,88105,2,0,L|126:98,1,80.9999975280763,10|0,3:2|3:2,0:0:0:0:
269,46,88429,6,0,B|279:94|241:125|241:125|226:93,1,101.250003862381,6|0,3:2|0:0,0:0:0:0:
257,30,88754,6,0,B|343:61|336:-2|418:39,1,161.999995056153,8|2,3:2|3:2,0:0:0:0:
451,114,89241,1,2,0:0:0:0:
451,114,89402,2,0,L|438:193,1,80.9999975280763,8|0,3:2|0:0,0:0:0:0:
305,156,89727,1,2,3:2:0:0:
370,105,89888,1,2,3:2:0:0:
317,236,90051,2,0,L|304:156,1,80.9999975280763,10|2,3:2|3:2,0:0:0:0:
438,194,90375,2,0,L|425:273,1,80.9999975280763,2|0,3:2|0:0,0:0:0:0:
304,316,90700,1,10,3:2:0:0:
304,316,90861,1,0,3:2:0:0:
168,292,91023,6,0,P|147:326|154:366,1,80.9999975280763,2|0,3:2|3:2,0:0:0:0:
244,259,91348,2,0,P|225:225|188:210,1,80.9999975280763,10|0,3:2|0:0,0:0:0:0:
232,342,91673,2,0,P|271:340|303:315,1,80.9999975280763,2|0,3:2|0:0,0:0:0:0:
266,190,91996,1,10,3:2:0:0:
188,210,92159,2,0,L|110:191,1,80.9999975280763,0|2,3:2|3:2,0:0:0:0:
207,131,92483,1,0,3:2:0:0:
109,190,92646,2,0,L|31:209,1,80.9999975280763,10|0,3:2|3:2,0:0:0:0:
49,91,92970,1,2,3:2:0:0:
49,91,93051,1,8,3:2:0:0:
49,91,93132,1,0,3:2:0:0:
202,54,93294,1,10,3:2:0:0:
224,89,93375,1,8,3:2:0:0:
231,133,93456,1,8,3:2:0:0:
215,177,93537,1,8,3:2:0:0:
188,210,93618,6,0,B|279:173|281:250|389:195,1,180,6|8,3:2|3:2,0:0:0:0:
320,127,94105,1,0,0:0:0:0:
408,282,94267,2,0,P|455:210|416:134,1,180,2|8,3:2|3:2,0:0:0:0:
237,285,94753,1,2,0:0:0:0:
363,206,94915,1,2,3:2:0:0:
188,210,95077,1,2,3:2:0:0:
328,375,95240,2,0,L|322:285,1,90,10|2,3:2|3:2,0:0:0:0:
193,120,95564,2,0,L|187:209,1,90,2|0,3:2|0:0,0:0:0:0:
91,292,95889,1,10,3:2:0:0:
91,292,96051,1,0,3:2:0:0:
103,119,96213,6,0,B|166:73|233:109|233:109|209:107|192:119,1,180,2|8,3:2|3:2,0:0:0:0:
150,197,96700,1,0,0:0:0:0:
318,148,96862,2,0,P|312:224|242:193,1,180,2|8,3:2|3:2,0:0:0:0:
410,201,97348,1,2,0:0:0:0:
242,296,97510,2,0,L|248:207,1,90,2|2,3:2|3:2,0:0:0:0:
311,58,97835,2,0,L|317:147,1,90,10|2,3:2|3:2,0:0:0:0:
331,289,98159,2,0,L|242:295,1,90,2|0,3:2|0:0,0:0:0:0:
167,171,98483,1,10,3:2:0:0:
248,206,98646,1,2,3:2:0:0:
107,265,98808,6,0,B|77:303|77:303|78:171,1,180,6|8,3:2|3:2,0:0:0:0:
167,171,99294,1,0,0:0:0:0:
68,18,99456,2,0,P|32:97|77:171,1,180,2|8,3:2|3:2,0:0:0:0:
257,171,99943,1,2,0:0:0:0:
123,92,100105,1,2,3:2:0:0:
122,248,100267,1,2,3:2:0:0:
212,97,100429,2,0,L|84:89,1,90,10|2,3:2|3:2,0:0:0:0:
257,171,100754,2,0,L|385:163,1,90,2|0,3:2|0:0,0:0:0:0:
493,122,101078,1,10,3:2:0:0:
407,99,101240,1,0,3:2:0:0:
369,246,101402,6,0,P|407:225|428:185,1,90,2|0,3:2|0:0,0:0:0:0:
280,231,101727,2,0,P|279:275|302:313,1,90,10|0,3:2|0:0,0:0:0:0:
346,165,102051,2,0,L|219:151,1,90,2|0,3:2|0:0,0:0:0:0:
213,323,102375,2,0,L|340:309,1,90,10|0,3:2|3:2,0:0:0:0:
176,168,102700,5,0,3:2:0:0:
114,314,102862,1,0,3:2:0:0:
250,231,103024,1,8,3:2:0:0:
91,218,103186,1,0,3:2:0:0:
213,323,103348,1,0,3:2:0:0:
213,323,103429,1,8,3:2:0:0:
213,323,103510,1,0,3:2:0:0:
345,309,103673,1,10,3:2:0:0:
370,271,103754,1,0,3:2:0:0:
380,227,103835,1,0,3:2:0:0:
367,183,103916,1,8,3:2:0:0:
349,148,103997,6,0,B|283:146|283:146|236:171|236:171|160:165,1,180,6|8,3:2|3:2,0:0:0:0:
113,231,104483,1,0,0:0:0:0:
146,73,104646,2,0,B|176:35|176:35|175:167,1,180,2|8,3:2|3:2,0:0:0:0:
27,205,105132,1,2,0:0:0:0:
27,205,105294,2,0,P|48:165|87:144,1,90,2|2,3:2|3:2,0:0:0:0:
261,194,105619,1,10,3:2:0:0:
113,231,105781,1,0,3:2:0:0:
241,110,105943,2,0,P|286:108|323:131,1,90,2|0,3:2|0:0,0:0:0:0:
197,264,106267,1,10,3:2:0:0:
197,264,106429,1,0,3:2:0:0:
385,337,106591,6,0,B|385:271|385:271|412:225|412:225|409:149,1,180,2|8,3:2|3:2,0:0:0:0:
397,77,107077,1,0,0:0:0:0:
261,194,107239,2,0,P|343:219|410:164,1,180,2|8,3:2|3:2,0:0:0:0:
494,196,107726,1,2,0:0:0:0:
323,130,107889,2,0,P|285:107|241:109,1,90,2|2,3:2|3:2,0:0:0:0:
185,280,108212,2,0,L|312:266,1,90,10|0,3:2|3:2,0:0:0:0:
429,250,108537,2,0,L|328:218,1,90,2|0,3:2|0:0,0:0:0:0:
240,109,108862,2,0,P|217:147|219:191,1,90,10|0,3:2|3:2,0:0:0:0:
155,88,109186,6,0,P|213:37|240:109,1,180,6|8,3:2|3:2,0:0:0:0:
176,170,109673,1,0,0:0:0:0:
92,279,109835,2,0,B|49:214|88:148|88:148|85:175|95:197,1,180,2|8,3:2|3:2,0:0:0:0:
261,194,110321,1,2,0:0:0:0:
261,194,110483,2,0,L|170:218,1,90,2|0,3:2|3:2,0:0:0:0:
240,108,110808,2,0,L|331:132,1,90,10|0,3:2|3:2,0:0:0:0:
425,197,111132,2,0,L|338:220,1,90,2|0,3:2|0:0,0:0:0:0:
409,116,111456,1,10,3:2:0:0:
409,116,111619,1,2,3:2:0:0:
261,194,111781,6,0,P|255:238|275:277,1,90,2|0,3:2|0:0,0:0:0:0:
327,130,112105,2,0,L|240:108,1,90,10|0,3:2|0:0,0:0:0:0:
187,299,112429,2,0,L|275:277,1,90,2|0,3:2|0:0,0:0:0:0:
173,47,112754,2,0,P|152:86|158:130,1,90,10|0,3:2|3:2,0:0:0:0:
348,219,113078,5,0,3:2:0:0:
239,107,113240,1,0,3:2:0:0:
113,236,113402,1,8,3:2:0:0:
261,194,113564,1,0,3:2:0:0:
91,149,113727,1,0,3:2:0:0:
91,149,113808,1,8,3:2:0:0:
91,149,113889,1,0,3:2:0:0:
46,319,114051,1,8,3:2:0:0:
90,327,114132,1,0,3:2:0:0:
134,322,114213,1,0,3:2:0:0:
175,305,114294,1,8,3:2:0:0:
215,272,114375,5,6,3:2:0:0:
303,290,114537,2,0,B|308:225|261:193|261:193|326:213,1,168.750006437302,2|0,3:2|0:0,0:0:0:0:
316,210,115024,1,8,3:2:0:0:
355,121,116970,5,6,3:2:0:0:
418,51,117132,2,0,P|448:126|407:197,1,168.750006437302,2|0,3:2|0:0,0:0:0:0:
406,198,117619,1,8,3:2:0:0:
103,46,119564,5,6,3:2:0:0:
55,127,119727,2,0,B|135:164|153:95|226:121,1,168.750006437302,2|0,3:2|0:0,0:0:0:0:
217,119,120213,1,8,3:2:0:0:
88,255,122159,5,6,3:2:0:0:
168,304,122321,2,0,B|177:324|173:346|173:346|211:279|169:213,1,168.750006437302,2|0,3:2|0:0,0:0:0:0:
176,226,122808,1,8,3:2:0:0:
382,328,123132,5,2,0:0:0:0:
382,328,123294,2,0,P|344:348|309:344,1,67.5000025749208,6|0,3:2|0:0,0:0:0:0:
277,216,123619,2,0,P|296:244|326:260,1,67.5000025749208,8|0,3:2|0:0,0:0:0:0:
460,291,123942,2,0,P|441:263|411:247,1,67.5000025749208,2|8,3:2|3:2,0:0:0:0:
245,303,124267,1,0,3:2:0:0:
359,176,124429,2,0,L|367:135,1,33.7500012874604,10|8,3:2|3:2,0:0:0:0:
320,348,124591,2,0,L|312:389,1,33.7500012874604,8|8,3:2|3:2,0:0:0:0:
277,216,124754,6,0,B|186:179|184:256|76:201,1,180,6|10,3:2|3:2,0:0:0:0:
145,134,125240,1,0,3:2:0:0:
63,292,125402,2,0,P|15:229|53:139,1,180,2|10,3:2|3:2,0:0:0:0:
91,62,125889,1,2,3:2:0:0:
101,212,126051,6,0,B|192:249|194:172|302:227,1,180,2|10,3:2|3:2,0:0:0:0:
229,292,126537,1,0,3:2:0:0:
323,137,126700,2,0,P|395:140|350:218,1,180,2|10,3:2|3:2,0:0:0:0:
276,215,127186,1,2,3:2:0:0:
172,135,127348,6,0,P|238:177|325:131,1,180,6|10,3:2|3:2,0:0:0:0:
248,84,127835,1,0,3:2:0:0:
90,85,127997,2,0,B|55:180|142:175|92:286,1,180,2|8,3:2|3:2,0:0:0:0:
21,220,128483,1,2,3:2:0:0:
181,303,128646,6,0,P|170:379|100:347,1,180,2|8,3:2|3:2,0:0:0:0:
102,258,129132,1,2,3:2:0:0:
287,221,129294,2,0,B|267:180|267:180|248:259|248:259|272:307,1,180,0|8,3:2|3:2,0:0:0:0:
293,346,129700,1,8,3:2:0:0:
293,346,129781,2,0,L|314:288,1,45,10|8,3:2|3:2,0:0:0:0:
462,231,129943,6,0,B|403:218|403:218|350:233|350:233|274:218,1,180,6|10,3:2|3:2,0:0:0:0:
198,204,130429,1,0,3:2:0:0:
322,74,130591,2,0,P|345:156|287:220,1,180,2|10,3:2|3:2,0:0:0:0:
227,289,131078,1,2,3:2:0:0:
112,163,131240,6,0,P|179:109|261:137,1,180,2|10,3:2|3:2,0:0:0:0:
347,158,131727,1,0,3:2:0:0:
295,319,131889,2,0,P|214:288|197:203,1,180,2|10,3:2|3:2,0:0:0:0:
261,137,132375,1,2,3:2:0:0:
431,139,132537,6,0,B|459:211|407:267|407:267|415:244|407:224,1,180,6|10,3:2|3:2,0:0:0:0:
347,158,133024,1,0,3:2:0:0:
197,203,133186,2,0,P|184:126|261:136,1,180,2|10,3:2|3:2,0:0:0:0:
286,223,133673,1,2,3:2:0:0:
140,291,133835,6,0,B|205:290|205:290|254:314|254:314|315:312,1,180,0|8,3:2|3:2,0:0:0:0:
373,244,134321,1,2,3:2:0:0:
197,203,134483,2,0,P|184:126|261:136,1,180,2|8,3:2|3:2,0:0:0:0:
285,168,134889,1,8,3:2:0:0:
285,168,134970,2,0,L|283:95,1,45,8|8,3:2|3:2,0:0:0:0:
89,93,135132,5,4,3:2:0:0:
111,245,135294,1,2,0:0:0:0:
183,107,135456,1,10,3:2:0:0:
42,176,135618,1,2,0:0:0:0:
187,292,135781,2,0,L|201:165,1,90,2|2,3:2|0:0,0:0:0:0:
42,176,136105,2,0,L|56:303,1,90,10|2,3:2|0:0,0:0:0:0:
187,292,136429,6,0,P|229:304|271:291,1,90,0|2,3:2|0:0,0:0:0:0:
436,249,136754,2,0,P|394:236|352:249,1,90,10|2,3:2|0:0,0:0:0:0:
272,291,137078,2,0,P|259:248|272:206,1,90,2|2,3:2|0:0,0:0:0:0:
349,73,137402,2,0,P|361:116|349:159,1,90,10|2,3:2|0:0,0:0:0:0:
195,167,137727,5,4,3:2:0:0:
352,249,137889,1,2,0:0:0:0:
268,118,138051,1,10,3:2:0:0:
272,291,138213,1,2,0:0:0:0:
195,167,138375,2,0,L|68:181,1,90,2|2,3:2|0:0,0:0:0:0:
268,118,138700,2,0,L|395:132,1,90,10|2,3:2|0:0,0:0:0:0:
195,167,139024,6,0,P|179:125|187:82,1,90,0|2,3:2|0:0,0:0:0:0:
273,205,139348,2,0,P|245:239|203:253,1,90,10|2,3:2|0:0,0:0:0:0:
268,118,139673,2,0,P|311:124|344:153,1,90,2|2,3:2|0:0,0:0:0:0:
195,167,139997,1,10,3:2:0:0:
184,147,140078,1,8,3:2:0:0:
179,125,140159,1,10,3:2:0:0:
180,103,140240,1,8,3:2:0:0:
187,82,140321,6,0,L|60:96,1,90,4|2,3:2|0:0,0:0:0:0:
345,154,140646,2,0,L|472:140,1,90,10|2,3:2|0:0,0:0:0:0:
268,118,140970,2,0,P|258:161|273:202,1,90,2|2,3:2|0:0,0:0:0:0:
434,144,141294,2,0,P|420:102|386:73,1,90,10|2,3:2|0:0,0:0:0:0:
274,203,141619,6,0,L|201:256,1,90,0|2,3:2|0:0,0:0:0:0:
354,243,141943,2,0,L|345:154,1,90,10|2,3:2|0:0,0:0:0:0:
201,256,142267,2,0,L|210:345,1,90,2|2,3:2|0:0,0:0:0:0:
274,203,142591,2,0,L|264:113,1,90,10|2,3:2|0:0,0:0:0:0:
98,39,142916,5,4,3:2:0:0:
191,166,143078,1,2,0:0:0:0:
253,22,143240,1,10,3:2:0:0:
108,129,143402,1,2,0:0:0:0:
264,113,143564,2,0,L|354:123,1,90,2|2,3:2|0:0,0:0:0:0:
321,289,143889,2,0,L|311:199,1,90,10|2,3:2|0:0,0:0:0:0:
177,80,144213,6,0,P|134:93|107:128,1,90,0|2,3:2|0:0,0:0:0:0:
190,250,144538,2,0,P|199:206|183:164,1,90,0|2,0:0|0:0,0:0:0:0:
21,222,144862,2,0,L|111:212,1,90,2|2,3:2|0:0,0:0:0:0:
264,113,145186,1,10,3:2:0:0:
261,90,145267,1,8,3:2:0:0:
259,67,145348,1,10,3:2:0:0:
257,44,145429,1,8,3:2:0:0:
255,21,145510,5,14,3:2:0:0:
222,154,153294,6,0,L|245:245,1,90,2|2,0:0|0:0,0:0:0:0:
227,112,153943,6,0,L|244:231,1,113.399996539307,2|2,0:0|0:0,0:0:0:0:
235,71,154591,6,0,L|243:209,1,135.000005149842,2|2,0:0|0:0,0:0:0:0:
254,32,155240,5,2,0:0:0:0:
313,122,155402,1,0,3:2:0:0:
205,122,155564,2,0,L|125:109,1,67.5000025749208,14|0,3:2|3:2,0:0:0:0:
94,42,155889,6,0,B|116:87|116:87|105:197,1,135.000005149842,6|10,3:2|3:2,0:0:0:0:
29,313,156537,2,0,P|96:289|166:332,1,135.000005149842,2|10,3:2|3:2,0:0:0:0:
221,272,157024,2,0,P|279:312|358:289,1,135.000005149842,0|0,3:2|3:2,0:0:0:0:
380,233,157510,2,0,P|409:260|420:290,1,67.5000025749208,10|0,3:2|3:2,0:0:0:0:
298,228,157835,2,0,B|295:131|295:131|316:77,1,135.000005149842,2|10,3:2|3:2,0:0:0:0:
346,23,158322,1,0,0:0:0:0:
369,156,158483,6,0,P|302:180|232:137,1,135.000005149842,2|10,3:2|3:2,0:0:0:0:
123,95,159132,2,0,B|144:140|144:140|133:250,1,135.000005149842,2|10,3:2|3:2,0:0:0:0:
246,155,159619,2,0,B|216:195|216:195|208:305,1,135.000005149842,0|0,3:2|3:2,0:0:0:0:
200,360,160105,1,10,3:2:0:0:
275,328,160268,1,0,3:2:0:0:
135,307,160429,2,0,P|75:289|48:227,1,135.000005149842,2|10,3:2|3:2,0:0:0:0:
136,224,160916,1,0,3:2:0:0:
136,224,160997,1,8,3:2:0:0:
136,224,161078,2,0,B|144:139|144:139|122:94,2,135.000005149842,6|10|2,3:2|3:2|3:2,0:0:0:0:
252,86,162051,6,0,B|276:88|294:105|294:105|317:87|340:82,1,90,10|0,3:2|3:2,0:0:0:0:
404,36,162375,2,0,P|418:77|413:113,1,67.5000025749208,2|0,3:2|3:2,0:0:0:0:
365,168,162700,2,0,P|364:201|378:232,1,67.5000025749208,10|0,3:2|3:2,0:0:0:0:
450,182,163024,1,2,3:2:0:0:
311,297,163348,6,0,B|296:299|273:317|273:317|255:300|231:298,1,90,10|0,3:2|3:2,0:0:0:0:
155,343,163673,2,0,P|143:289|191:220,1,135.000005149842,2|10,3:2|3:2,0:0:0:0:
211,105,164321,2,0,P|223:159|175:228,1,135.000005149842,2|10,3:2|3:2,0:0:0:0:
138,147,164808,1,0,3:2:0:0:
211,105,164970,6,0,B|321:104|321:104|284:138,1,135.000005149842,2|2,0:0|0:0,0:0:0:0:
417,111,165619,2,0,L|409:206,2,67.5000025749208,2|2|2,0:0|0:0|0:0,0:0:0:0:
461,324,166267,2,0,P|408:342|334:303,1,135.000005149842,2|2,0:0|0:0,0:0:0:0:
412,179,166754,1,2,0:0:0:0:
412,179,166916,2,0,L|404:274,1,67.5000025749208,2|2,0:0|0:0,0:0:0:0:
318,224,167240,2,0,L|308:120,1,90,2|0,0:0|0:0,0:0:0:0:
318,224,167889,5,10,3:2:0:0:
388,74,168051,1,8,3:2:0:0:
388,74,168132,1,8,3:2:0:0:
388,74,168213,2,0,B|386:140|386:140|411:187|411:187|405:263,1,180,4|8,3:2|3:2,0:0:0:0:
346,314,168698,1,0,0:0:0:0:
171,265,168861,2,0,P|234:206|319:225,1,180,2|8,3:2|3:2,0:0:0:0:
110,331,169348,6,0,L|22:311,1,90,2|0,3:2|3:2,0:0:0:0:
258,294,169672,2,0,L|345:313,1,90,2|8,3:2|3:2,0:0:0:0:
143,179,169996,2,0,L|55:159,1,90,2|0,3:2|3:2,0:0:0:0:
290,141,170321,1,2,0:0:0:0:
168,263,170483,1,10,3:2:0:0:
203,115,170645,1,2,3:2:0:0:
377,167,170807,5,2,3:2:0:0:
205,227,170969,1,2,0:0:0:0:
309,78,171131,1,10,3:2:0:0:
312,260,171293,1,2,0:0:0:0:
203,115,171456,2,0,L|299:95,1,90,2|0,3:2|0:0,0:0:0:0:
377,167,171780,1,10,3:2:0:0:
449,33,171942,6,0,B|420:126|496:122|451:234,1,180,2|0,3:2|3:2,0:0:0:0:
392,345,172429,1,10,3:2:0:0:
288,185,172591,2,0,L|384:165,1,90,2|0,3:2|3:2,0:0:0:0:
283,360,172915,2,0,P|240:349|209:317,1,90,2|8,0:0|3:2,0:0:0:0:
288,185,173240,2,0,P|300:227|287:269,1,90,2|4,3:2|3:2,0:0:0:0:
207,226,173564,1,0,0:0:0:0:
362,137,173726,6,0,P|359:223|285:269,1,180,8|2,3:2|3:2,0:0:0:0:
214,133,174213,1,2,0:0:0:0:
214,133,174375,2,0,L|221:37,1,90,8|2,3:2|3:2,0:0:0:0:
288,185,174699,2,0,L|284:282,1,90,0|0,3:2|3:2,0:0:0:0:
291,95,175023,1,10,3:2:0:0:
360,236,175185,2,0,P|328:266|285:274,1,90,2|0,3:2|0:0,0:0:0:0:
124,126,175510,2,0,L|220:133,1,90,2|8,0:0|3:2,0:0:0:0:
288,185,175834,1,0,3:2:0:0:
117,215,175996,5,2,3:2:0:0:
216,43,176158,1,2,0:0:0:0:
284,274,176321,1,10,3:2:0:0:
213,132,176483,1,2,0:0:0:0:
114,304,176645,1,0,3:2:0:0:
288,185,176807,2,0,P|306:144|300:100,1,90,2|8,0:0|3:2,0:0:0:0:
123,125,177131,6,0,L|116:221,1,90,2|0,3:2|3:2,0:0:0:0:
284,274,177456,1,2,3:2:0:0:
213,132,177618,1,10,3:2:0:0:
209,317,177780,1,2,3:2:0:0:
394,321,177942,1,2,3:2:0:0:
394,321,178023,1,8,3:2:0:0:
394,321,178104,1,2,3:2:0:0:
398,136,178267,1,10,3:2:0:0:
284,274,178429,1,0,3:2:0:0:
284,274,178510,1,8,3:2:0:0:
284,274,178591,6,0,B|218:276|218:276|171:251|171:251|95:257,1,180,6|8,3:2|3:2,0:0:0:0:
44,317,179077,1,0,0:0:0:0:
81,162,179240,2,0,B|111:124|111:124|110:256,1,180,2|8,3:2|3:2,0:0:0:0:
124,344,179726,2,0,P|165:327|192:292,1,90,2|0,3:2|3:2,0:0:0:0:
218,123,180050,2,0,P|211:167|228:208,1,90,2|8,3:2|3:2,0:0:0:0:
361,316,180375,2,0,P|326:288|282:282,1,90,2|0,3:2|3:2,0:0:0:0:
138,217,180699,1,2,0:0:0:0:
312,200,180861,1,10,3:2:0:0:
192,292,181023,1,2,3:2:0:0:
280,115,181185,5,2,3:2:0:0:
282,282,181348,1,2,0:0:0:0:
458,282,181510,1,10,3:2:0:0:
312,200,181673,1,2,0:0:0:0:
223,355,181834,1,2,3:2:0:0:
367,269,181997,1,2,0:0:0:0:
225,207,182158,1,10,3:2:0:0:
225,207,182321,2,0,B|317:230|309:154|397:186,1,180,2|0,3:2|3:2,0:0:0:0:
257,126,182807,5,10,3:2:0:0:
257,126,182969,2,0,P|212:119|171:136,1,90,2|0,3:2|3:2,0:0:0:0:
191,285,183294,2,0,P|218:250|224:206,1,90,2|8,0:0|3:2,0:0:0:0:
124,65,183618,2,0,P|86:142|135:214,1,180,2|0,3:2|0:0,0:0:0:0:
315,287,184104,6,0,L|308:191,1,90,8|0,3:2|0:0,0:0:0:0:
227,158,184429,1,2,3:2:0:0:
230,294,184591,2,0,P|244:336|277:365,1,90,2|8,0:0|3:2,0:0:0:0:
444,297,184915,2,0,B|381:251|314:287|314:287|338:285|355:297,1,180,2|0,3:2|3:2,0:0:0:0:
460,125,185402,1,10,3:2:0:0:
386,171,185564,2,0,P|339:182|287:167,1,90,2|0,3:2|3:2,0:0:0:0:
188,44,185888,2,0,P|234:32|287:48,1,90,2|8,0:0|3:2,0:0:0:0:
224,233,186212,1,2,3:2:0:0:
171,59,186375,5,2,3:2:0:0:
299,173,186537,1,2,0:0:0:0:
101,141,186699,1,10,3:2:0:0:
308,195,186861,1,2,0:0:0:0:
184,317,187023,1,2,3:2:0:0:
208,144,187185,1,2,0:0:0:0:
289,298,187348,1,10,3:2:0:0:
134,221,187510,6,0,P|107:185|102:141,1,90,2|0,3:2|3:2,0:0:0:0:
184,317,187834,1,2,3:2:0:0:
184,317,187996,2,0,P|142:330|98:322,1,90,10|2,3:2|3:2,0:0:0:0:
208,144,188321,1,2,3:2:0:0:
208,144,188402,1,8,3:2:0:0:
208,144,188483,1,2,3:2:0:0:
354,77,188645,1,10,3:2:0:0:
369,118,188726,1,0,3:2:0:0:
370,163,188807,1,2,3:2:0:0:
349,203,188888,1,8,3:2:0:0:
316,236,188969,6,0,B|225:273|223:196|115:251,1,180,6|10,3:2|3:2,0:0:0:0:
50,83,189618,2,0,B|141:120|143:43|251:98,1,180,2|10,3:2|3:2,0:0:0:0:
301,134,190104,1,2,3:2:0:0:
467,62,190267,2,0,B|442:126|442:126|460:263,1,180,0|8,3:2|3:2,0:0:0:0:
373,331,190753,1,2,3:2:0:0:
373,331,190915,2,0,L|356:225,1,90,2|2,3:2|0:0,0:0:0:0:
268,242,191240,2,0,L|254:330,1,90,10|2,3:2|3:2,0:0:0:0:
194,161,191564,6,0,P|117:200|45:153,1,180,2|10,3:2|3:2,0:0:0:0:
63,272,192212,2,0,B|43:299|43:299|45:142,1,180,2|8,3:2|3:2,0:0:0:0:
124,109,192699,2,0,B|215:146|217:69|325:124,1,180,2|2,3:2|3:2,0:0:0:0:
416,251,193185,1,10,3:2:0:0:
388,96,193348,2,0,L|357:9,1,90,2|0,3:2|3:2,0:0:0:0:
446,166,193671,1,2,0:0:0:0:
299,112,193834,2,0,L|208:95,1,90,10|2,3:2|3:2,0:0:0:0:
316,232,194158,6,0,L|422:252,1,101.250003862381,4|0,3:2|0:0,0:0:0:0:
438,259,194483,6,0,L|241:289,1,180,10|2,3:2|3:2,0:0:0:0:
98,206,195131,1,10,3:2:0:0:
103,296,195294,1,2,3:2:0:0:
178,248,195456,2,0,B|216:164|132:158|179:62,1,180,0|8,3:2|3:2,0:0:0:0:
248,25,195942,1,2,3:2:0:0:
429,85,196104,2,0,P|427:128|402:164,1,90,2|2,3:2|0:0,0:0:0:0:
257,117,196429,2,0,P|295:96|339:99,1,90,10|2,3:2|3:2,0:0:0:0:
457,245,196753,6,0,B|369:289|360:213|258:277,1,180,2|10,3:2|3:2,0:0:0:0:
121,345,197402,2,0,P|178:280|151:199,1,180,2|10,3:2|3:2,0:0:0:0:
132,54,197888,1,2,3:2:0:0:
132,54,198050,2,0,L|86:148,1,90,2|2,3:2|3:2,0:0:0:0:
237,158,198375,2,0,L|222:70,1,90,8|2,3:2|3:2,0:0:0:0:
152,199,198699,2,0,L|144:271,2,45,2|8|2,3:2|3:2|3:2,0:0:0:0:
339,206,199023,1,10,3:2:0:0:
337,183,199104,1,0,3:2:0:0:
334,162,199185,2,0,L|326:96,1,45,2|8,3:2|3:2,0:0:0:0:
132,54,199348,5,6,3:2:0:0:
237,158,199510,1,2,0:0:0:0:
92,134,199672,1,10,3:2:0:0:
221,69,199834,1,2,0:0:0:0:
152,199,199996,2,0,L|138:326,1,90,2|2,3:2|0:0,0:0:0:0:
339,206,200321,2,0,L|329:116,1,90,10|2,3:2|3:2,0:0:0:0:
300,286,200645,6,0,P|343:298|385:285,1,90,2|2,3:2|3:2,0:0:0:0:
475,277,200969,2,0,P|464:234|432:204,1,90,10|2,3:2|3:2,0:0:0:0:
249,215,201294,2,0,P|217:246|207:289,1,90,2|2,3:2|0:0,0:0:0:0:
339,206,201618,2,0,L|329:116,1,90,10|2,3:2|3:2,0:0:0:0:
300,286,201943,5,2,3:2:0:0:
431,204,202105,1,2,0:0:0:0:
345,362,202267,1,10,3:2:0:0:
339,206,202429,1,2,0:0:0:0:
474,275,202591,2,0,L|385:285,1,90,2|2,3:2|0:0,0:0:0:0:
249,215,202915,2,0,L|338:205,1,90,10|2,3:2|3:2,0:0:0:0:
172,263,203240,6,0,P|156:221|164:177,1,90,2|2,3:2|3:2,0:0:0:0:
231,42,203564,2,0,P|247:84|239:128,1,90,10|2,3:2|3:2,0:0:0:0:
94,227,203888,2,0,P|121:192|163:177,1,90,2|2,3:2|0:0,0:0:0:0:
318,165,204212,2,0,P|290:199|248:214,1,90,10|2,3:2|3:2,0:0:0:0:
84,137,204537,5,6,3:2:0:0:
239,127,204699,1,2,0:0:0:0:
77,47,204861,1,10,3:2:0:0:
163,177,205023,1,2,0:0:0:0:
318,165,205185,2,0,L|308:75,1,90,2|2,3:2|0:0,0:0:0:0:
248,214,205510,2,0,L|330:250,1,90,10|2,3:2|3:2,0:0:0:0:
407,155,205834,6,0,L|317:164,1,90,2|2,3:2|3:2,0:0:0:0:
294,332,206158,2,0,L|330:249,1,90,10|2,3:2|3:2,0:0:0:0:
163,177,206483,2,0,L|172:266,1,90,2|2,3:2|0:0,0:0:0:0:
318,165,206807,2,0,L|308:75,1,90,10|2,3:2|3:2,0:0:0:0:
248,214,207132,5,2,3:2:0:0:
407,155,207294,1,2,0:0:0:0:
337,320,207456,1,10,3:2:0:0:
318,165,207618,1,2,0:0:0:0:
485,191,207780,2,0,P|457:225|415:240,1,90,2|2,3:2|0:0,0:0:0:0:
401,65,208104,2,0,P|445:72|479:101,1,90,10|2,3:2|3:2,0:0:0:0:
318,165,208429,6,0,L|308:75,1,90,2|2,3:2|3:2,0:0:0:0:
152,91,208753,2,0,L|234:127,1,90,10|2,3:2|3:2,0:0:0:0:
401,65,209077,2,0,L|388:0,2,45,2|0|2,3:2|3:2|3:2,0:0:0:0:
485,191,209402,1,10,3:2:0:0:
318,165,209564,2,0,L|253:178,2,45,2|8|6,3:2|3:2|0:0,0:0:0:0:
256,192,209807,12,0,214542,0:0:0:0:
