osu file format v14

[General]
AudioFilename: audio.mp3
AudioLeadIn: 0
PreviewTime: 25913
Countdown: 1
SampleSet: None
StackLeniency: 0.7
Mode: 0
LetterboxInBreaks: 0
WidescreenStoryboard: 1

[Editor]
Bookmarks: 226336,241106,255875,274106
DistanceSpacing: 1
BeatDivisor: 4
GridSize: 16
TimelineZoom: 1.4

[Metadata]
Title:Life Source (Meari cover)
TitleUnicode:Life Source (Meari cover)
Artist:Orangestar
ArtistUnicode:Orangestar
Creator:Command DDOS
Version:remap
Source:
Tags:Orangestar Life Source (Meari cover)
BeatmapID:2802361
BeatmapSetID:1029215

[Difficulty]
HPDrainRate:5
CircleSize:4.2
OverallDifficulty:5
ApproachRate:9.3
SliderMultiplier:1.8
SliderTickRate:1

[Events]
//Background and Video events
0,0,"tło.jpg",0,0
//Break Periods
//Storyboard Layer 0 (Background)
//Storyboard Layer 1 (Fail)
//Storyboard Layer 2 (Pass)
//Storyboard Layer 3 (Foreground)
//Storyboard Layer 4 (Overlay)
//Storyboard Sound Samples

[TimingPoints]
1106,461.538461538462,4,1,0,100,1,0
1106,-166.666666666667,4,1,0,20,0,0
11259,-125,4,1,0,20,0,0
18644,-100,4,1,0,20,0,0
26029,-83.3333333333333,4,1,0,20,0,0
40798,-66.6666666666667,4,1,0,50,0,0
71259,-83.3333333333333,4,1,0,20,0,0
100798,-66.6666666666667,4,1,0,50,0,0
111875,-83.3333333333333,4,1,0,20,0,0
115567,-76.9230769230769,4,1,0,20,0,0
130336,-100,4,1,0,20,0,0
138182,-83.3333333333333,4,1,0,20,0,0
167259,-62.5,4,1,0,70,0,0
181567,-76.9230769230769,4,1,0,20,0,0
194952,-100,4,1,0,20,0,0
226336,-76.9230769230769,4,1,0,20,0,0
228182,-76.9230769230769,4,1,0,20,0,1
255875,-133.333333333333,4,1,0,20,0,0
270644,-133.333333333333,4,1,0,5,0,0

[HitObjects]
71,103,1106,5,0,0:0:0:0:
174,133,1567,2,0,L|168:171,1,26.9999991760254
279,117,3798,5,0,0:0:0:0:
201,140,4144,5,0,0:0:0:0:
266,92,4490,1,0,0:0:0:0:
176,102,4875,1,0,0:0:0:0:
114,119,7259,5,0,0:0:0:0:
194,131,7606,1,0,0:0:0:0:
131,183,7952,1,0,0:0:0:0:
236,158,8413,1,0,0:0:0:0:
287,143,8644,1,0,0:0:0:0:
304,140,8721,1,0,0:0:0:0:
321,140,8798,1,0,0:0:0:0:
338,141,8875,1,0,0:0:0:0:
355,142,8952,1,0,0:0:0:0:
215,89,11144,5,0,0:0:0:0:
177,120,11202,1,0,0:0:0:0:
146,153,11259,2,0,P|139:209|191:288,1,144
264,211,11952,2,0,P|278:158|278:132,1,72
382,113,12413,5,0,0:0:0:0:
395,220,12644,1,0,0:0:0:0:
381,112,12875,1,0,0:0:0:0:
290,170,13106,6,0,P|243:237|228:308,1,144
334,272,13798,2,0,P|398:232|401:227,1,72
301,182,14259,1,0,0:0:0:0:
198,215,14490,1,0,0:0:0:0:
301,183,14721,1,0,0:0:0:0:
300,74,14952,2,0,P|215:71|145:81,1,144
133,184,15644,2,0,P|129:237|134:267,1,72
238,275,16106,5,0,0:0:0:0:
244,167,16336,1,0,0:0:0:0:
238,275,16567,1,0,0:0:0:0:
332,222,16798,6,0,P|349:153|327:73,1,144
234,128,17490,2,0,P|211:188|213:206,1,72
319,205,17952,1,0,0:0:0:0:
400,134,18182,1,0,0:0:0:0:
339,44,18413,1,0,0:0:0:0:
211,89,18644,6,0,P|170:142|146:213,1,135
215,206,19106,1,0,0:0:0:0:
81,223,19336,2,0,P|85:157|83:129,1,90
218,145,19798,1,0,0:0:0:0:
89,102,20029,2,0,P|61:126|64:138,1,45
101,183,20259,1,0,0:0:0:0:
189,80,20490,6,0,P|244:55|274:63,1,90
187,168,20952,2,0,P|153:139|152:123,1,45
203,96,21182,2,0,P|235:87|296:112,1,90
220,221,21644,1,0,0:0:0:0:
115,135,21875,2,0,P|123:94|133:89,1,45
184,122,22106,1,0,0:0:0:0:
49,117,22336,1,0,0:0:0:0:
168,180,22567,1,0,0:0:0:0:
33,195,22798,2,0,P|2:221|6:229,1,45
59,250,23029,2,0,P|105:295|130:325,1,90
240,250,23490,5,0,0:0:0:0:
131,168,23721,2,0,L|105:122,1,45
171,101,23952,1,0,0:0:0:0:
47,155,24182,2,0,P|80:202|105:235,1,90
221,167,24644,2,0,L|225:212,1,45
159,192,24875,1,0,0:0:0:0:
428,198,25336,1,0,0:0:0:0:
294,178,25567,2,0,P|281:229|281:234,1,45
75,91,26029,6,0,P|69:174|74:199,1,107.999996704102
234,178,26490,2,0,P|280:121|324:182,1,161.999995056153
275,269,26952,2,0,P|234:303|172:307,1,107.999996704102
104,106,27413,6,0,P|133:73|167:153,1,161.999995056153
92,212,27875,2,0,P|149:244|201:258,1,107.999996704102
390,175,28336,1,0,0:0:0:0:
237,120,28567,1,0,0:0:0:0:
262,280,28798,1,0,0:0:0:0:
324,130,29029,1,0,0:0:0:0:
201,235,29259,2,0,P|141:234|39:176,1,161.999995056153
119,144,29721,2,0,P|153:110|162:155,1,107.999996704102
323,187,30182,6,0,P|277:216|259:132,1,161.999995056153
327,110,30644,2,0,P|376:141|404:192,1,107.999996704102
240,211,31106,6,0,P|194:168|100:197,1,161.999995056153
75,265,31567,1,0,0:0:0:0:
75,265,31913,1,0,0:0:0:0:
75,265,32029,2,0,P|81:180|87:146,1,107.999996704102
237,103,32490,2,0,P|187:162|168:203,1,107.999996704102
327,242,32952,1,0,0:0:0:0:
343,81,33182,1,0,0:0:0:0:
182,102,33413,2,0,P|150:153|150:161,1,53.9999983520508
313,147,33759,1,0,0:0:0:0:
231,143,33875,2,0,P|210:204|228:257,1,107.999996704102
381,229,34336,1,0,0:0:0:0:
333,74,34567,1,0,0:0:0:0:
224,194,34798,2,0,P|181:221|165:228,1,53.9999983520508
139,150,35029,2,0,P|94:143|74:132,1,53.9999983520508
121,66,35259,5,0,0:0:0:0:
121,66,35606,1,0,0:0:0:0:
121,66,35721,2,0,P|160:55|187:53,1,53.9999983520508
190,133,35952,2,0,P|171:169|176:245,1,107.999996704102
330,200,36413,1,0,0:0:0:0:
168,213,36644,6,0,P|108:195|103:192,1,53.9999983520508
159,130,36875,1,0,0:0:0:0:
104,282,37106,2,0,P|156:294|215:286,1,107.999996704102
170,215,37452,1,0,0:0:0:0:
129,145,37567,2,0,P|180:124|201:123,1,53.9999983520508
243,173,37798,1,0,0:0:0:0:
134,52,38029,2,0,P|84:54|75:61,1,53.9999983520508
59,132,38259,1,0,0:0:0:0:
218,100,38490,1,0,0:0:0:0:
150,247,38721,1,0,0:0:0:0:
306,288,38952,2,0,P|346:177|331:129,1,161.999995056153
260,168,39413,2,0,P|235:143|238:122,1,53.9999983520508
317,121,39644,1,0,0:0:0:0:
155,134,39875,1,0,0:0:0:0:
283,232,40106,2,0,P|172:237|163:237,2,107.999996704102
402,68,40798,6,0,P|329:64|256:56,1,135.000005149842
291,156,41144,2,0,L|217:138,1,67.5000025749208
127,317,41490,2,0,L|128:178,1,135.000005149842
196,106,41836,1,0,0:0:0:0:
292,73,41952,2,0,L|287:159,1,67.5000025749208
388,143,42182,1,0,0:0:0:0:
190,186,42413,1,0,0:0:0:0:
387,231,42644,2,0,L|459:248,2,67.5000025749208
287,251,42990,2,0,L|215:253,1,67.5000025749208
119,269,43221,1,0,0:0:0:0:
35,212,43336,2,0,L|200:88,1,202.500007724762
280,148,43798,2,0,L|237:208,1,67.5000025749208
342,209,44029,2,0,L|381:272,2,67.5000025749208
260,23,44490,6,0,P|178:7|112:29,1,135.000005149842
108,119,44836,2,0,P|106:175|109:198,1,67.5000025749208
199,228,45067,1,0,0:0:0:0:
299,232,45182,2,0,P|314:157|278:100,1,135.000005149842
184,107,45529,1,0,0:0:0:0:
91,147,45644,2,0,P|70:202|78:234,1,67.5000025749208
165,246,45875,1,0,0:0:0:0:
153,43,46106,1,0,0:0:0:0:
252,218,46336,6,0,P|160:249|100:244,1,135.000005149842
55,172,46682,6,0,P|96:99|150:83,1,135.000005149842
201,165,47029,2,0,P|261:120|233:57,1,135.000005149842
61,147,47490,6,0,P|56:211|61:225,1,67.5000025749208
158,206,47721,1,0,0:0:0:0:
357,167,47952,1,0,0:0:0:0:
160,121,48182,2,0,P|86:132|39:172,1,135.000005149842
137,203,48529,2,0,P|191:264|158:290,1,135.000005149842
69,263,48875,2,0,P|89:173|109:118,1,135.000005149842
302,98,49336,6,0,L|229:76,1,67.5000025749208
165,150,49567,2,0,L|143:223,1,67.5000025749208
246,227,49798,2,0,L|319:257,1,67.5000025749208
315,151,50029,2,0,L|357:85,2,67.5000025749208
386,222,50375,2,0,P|379:260|287:301,1,135.000005149842
166,207,50721,2,0,P|201:162|341:149,1,202.500007724762
282,231,51182,6,0,P|250:254|213:276,1,67.5000025749208
125,256,51413,1,0,0:0:0:0:
201,68,51644,1,0,0:0:0:0:
138,260,51875,2,0,P|108:203|102:128,1,135.000005149842
202,122,52221,2,0,P|201:189|208:211,1,67.5000025749208
302,188,52452,1,0,0:0:0:0:
402,191,52567,1,0,0:0:0:0:
502,191,52682,2,0,P|501:259|498:277,1,67.5000025749208
301,296,53029,5,0,0:0:0:0:
160,151,53259,1,0,0:0:0:0:
224,343,53490,1,0,0:0:0:0:
246,141,53721,2,0,P|271:88|349:60,1,135.000005149842
387,148,54067,2,0,B|369:162|361:193|337:214,1,67.5000025749208
163,287,54413,5,0,0:0:0:0:
281,122,54644,2,0,L|229:60,2,67.5000025749208
181,145,54990,1,0,0:0:0:0:
88,187,55106,2,0,P|82:236|83:275,1,67.5000025749208
182,257,55336,2,0,L|242:311,1,67.5000025749208
333,294,55567,6,0,P|322:207|408:235,1,202.500007724762
436,322,56029,1,0,0:0:0:0:
234,318,56259,2,0,P|198:286|129:209,1,135.000005149842
330,153,56721,1,0,0:0:0:0:
133,103,56952,2,0,L|64:174,1,67.5000025749208
173,202,57182,1,0,0:0:0:0:
22,65,57413,2,0,P|29:164|37:222,1,135.000005149842
131,227,57759,1,0,0:0:0:0:
232,219,57875,2,0,P|237:177|230:134,1,67.5000025749208
322,101,58106,2,0,P|313:179|285:310,1,202.500007724762
186,297,58567,5,0,0:0:0:0:
85,307,58682,1,0,0:0:0:0:
13,234,58798,2,0,P|41:151|83:98,1,135.000005149842
270,93,59259,6,0,P|327:142|341:213,1,135.000005149842
239,195,59606,1,0,0:0:0:0:
138,200,59721,2,0,P|51:227|19:271,1,135.000005149842
425,197,60413,5,0,0:0:0:0:
256,83,60644,1,0,0:0:0:0:
306,279,60875,1,0,0:0:0:0:
428,117,61106,2,0,P|325:61|288:57,1,135.000005149842
212,89,61452,1,0,0:0:0:0:
111,85,61567,2,0,P|101:136|98:166,1,67.5000025749208
2,182,61798,2,0,P|98:215|229:222,1,202.500007724762
190,123,62259,2,0,P|259:126|278:132,1,67.5000025749208
313,210,62490,1,0,0:0:0:0:
481,96,62721,1,0,0:0:0:0:
278,83,62952,6,0,P|191:93|136:103,1,135.000005149842
178,197,63298,1,0,0:0:0:0:
313,210,63413,2,0,P|288:252|268:288,1,67.5000025749208
177,272,63644,2,0,P|62:201|90:162,1,202.500007724762
165,144,64106,6,0,P|142:88|113:69,1,67.5000025749208
61,150,64336,1,0,0:0:0:0:
255,93,64567,1,0,0:0:0:0:
113,237,64798,2,0,P|159:293|236:318,1,135.000005149842
225,214,65144,1,0,0:0:0:0:
149,147,65259,2,0,P|196:127|226:113,1,67.5000025749208
167,28,65490,2,0,P|76:77|33:187,1,202.500007724762
134,180,65952,2,0,L|174:251,1,67.5000025749208
67,253,66182,1,0,0:0:0:0:
253,173,66413,1,0,0:0:0:0:
67,253,66644,6,0,P|99:309|172:357,1,135.000005149842
240,294,66990,1,0,0:0:0:0:
316,227,67106,2,0,P|338:262|333:302,1,67.5000025749208
237,292,67336,6,0,P|208:185|334:111,1,270.000010299683
366,309,68029,1,0,0:0:0:0:
431,118,68259,1,0,0:0:0:0:
351,304,68490,2,0,P|244:315|196:308,1,135.000005149842
187,214,68836,2,0,P|232:221|261:222,1,67.5000025749208
422,109,69182,2,0,P|323:59|225:63,1,202.500007724762
231,162,69644,2,0,P|189:128|174:102,1,67.5000025749208
248,40,69875,2,0,P|185:32|169:36,1,67.5000025749208
138,124,70106,2,0,P|90:159|93:106,1,135.000005149842
107,93,71259,6,0,P|88:155|85:208,1,107.999996704102
225,191,71721,1,0,0:0:0:0:
214,50,71952,1,0,0:0:0:0:
225,191,72182,2,0,P|146:218|110:215,1,107.999996704102
47,97,72644,2,0,P|71:71|92:147,1,161.999995056153
32,172,73106,2,0,P|23:227|36:291,1,107.999996704102
171,287,73567,1,0,0:0:0:0:
150,147,73798,1,0,0:0:0:0:
102,279,74029,2,0,P|192:289|225:293,1,107.999996704102
91,213,74490,6,0,P|171:160|244:123,1,161.999995056153
275,183,74952,2,0,P|327:192|349:187,1,53.9999983520508
160,98,75413,6,0,P|114:133|86:184,1,107.999996704102
222,219,75875,2,0,P|263:162|212:75,1,161.999995056153
173,125,76336,2,0,P|143:167|131:227,1,107.999996704102
265,262,76798,1,0,0:0:0:0:
265,262,77259,1,0,0:0:0:0:
155,174,77490,1,0,0:0:0:0:
163,314,77721,1,0,0:0:0:0:
283,141,78067,1,0,0:0:0:0:
283,141,78182,2,0,P|220:97|173:82,1,107.999996704102
104,197,78644,6,0,P|116:132|197:66,1,161.999995056153
208,136,79106,2,0,P|190:172|183:196,1,53.9999983520508
372,282,79567,1,0,0:0:0:0:
244,222,79798,1,0,0:0:0:0:
381,191,80029,2,0,P|378:137|368:120,1,53.9999983520508
308,146,80259,1,0,0:0:0:0:
170,175,80490,2,0,P|182:133|188:114,2,53.9999983520508
32,208,80952,1,0,0:0:0:0:
143,292,81182,1,0,0:0:0:0:
137,151,81413,2,0,P|190:150|253:141,1,107.999996704102
125,218,81875,1,0,0:0:0:0:
126,77,82106,1,0,0:0:0:0:
260,114,82336,5,0,0:0:0:0:
260,114,82452,5,0,0:0:0:0:
260,114,82567,2,0,L|286:169,1,53.9999983520508
353,159,82798,2,0,P|366:220|361:273,1,107.999996704102
212,282,83259,1,0,0:0:0:0:
134,152,83490,1,0,0:0:0:0:
279,109,83721,2,0,P|390:70|402:68,1,107.999996704102
420,217,84182,2,0,P|353:205|348:205,2,53.9999983520508
381,150,84529,1,0,0:0:0:0:
342,85,84644,2,0,P|296:68|270:64,1,53.9999983520508
218,44,84875,6,0,P|195:97|195:107,1,53.9999983520508
262,128,85106,2,0,P|221:161|152:157,1,107.999996704102
86,223,85567,2,0,P|123:312|140:338,1,107.999996704102
242,323,86029,5,0,0:0:0:0:
115,90,86375,1,0,0:0:0:0:
115,90,86490,2,0,P|183:62|220:64,1,107.999996704102
129,188,86952,2,0,P|116:88|110:75,1,107.999996704102
251,143,87413,2,0,P|253:200|215:243,1,107.999996704102
175,178,87759,1,0,0:0:0:0:
168,102,87875,2,0,P|205:85|280:70,1,107.999996704102
316,214,88336,5,0,0:0:0:0:
164,208,88567,2,0,P|193:137|230:103,1,107.999996704102
330,212,89029,1,0,0:0:0:0:
201,290,89259,2,0,P|308:284|332:282,1,107.999996704102
205,172,89721,1,0,0:0:0:0:
205,172,90067,1,0,0:0:0:0:
205,172,90182,2,0,P|146:135|100:122,1,107.999996704102
174,261,90644,2,0,P|250:263|283:247,1,107.999996704102
298,99,91106,6,0,P|190:101|130:120,1,161.999995056153
184,176,91567,2,0,P|197:228|204:288,1,107.999996704102
128,270,91913,1,0,0:0:0:0:
55,291,92029,2,0,P|51:232|53:225,2,53.9999983520508
205,274,92490,1,0,0:0:0:0:
206,122,92721,1,0,0:0:0:0:
293,245,92952,1,0,0:0:0:0:
293,245,93182,1,0,0:0:0:0:
143,270,93413,6,0,P|116:193|111:147,1,107.999996704102
76,100,93759,1,0,0:0:0:0:
112,167,93875,2,0,P|90:204|36:263,1,107.999996704102
189,305,94336,1,0,0:0:0:0:
220,157,94567,1,0,0:0:0:0:
189,305,94798,2,0,P|125:299|122:298,1,53.9999983520508
152,227,95029,1,0,0:0:0:0:
165,76,95259,2,0,P|231:57|331:73,1,161.999995056153
270,124,95721,2,0,P|256:190|258:196,1,53.9999983520508
329,169,95952,1,0,0:0:0:0:
178,159,96182,1,0,0:0:0:0:
30,192,96413,6,0,P|47:150|56:132,1,53.9999983520508
116,180,96644,2,0,P|132:241|173:285,1,107.999996704102
307,240,97106,1,0,0:0:0:0:
209,35,97452,1,0,0:0:0:0:
209,35,97567,1,0,0:0:0:0:
139,169,97798,1,0,0:0:0:0:
280,115,98029,2,0,L|384:173,1,107.999996704102
240,238,98490,2,0,P|189:265|183:272,1,53.9999983520508
243,318,98721,1,0,0:0:0:0:
152,197,98952,2,0,P|171:121|246:111,1,161.999995056153
230,184,99413,2,0,P|257:184|302:186,1,53.9999983520508
270,259,99644,1,0,0:0:0:0:
308,112,99875,2,0,P|216:92|134:104,1,161.999995056153
169,172,100336,2,0,P|121:164|101:157,2,53.9999983520508
310,298,100798,6,0,P|305:213|316:157,1,135.000005149842
408,167,101144,2,0,P|398:120|399:99,2,67.5000025749208
313,166,101490,2,0,P|252:150|230:150,3,67.5000025749208
230,243,101952,2,0,P|162:251|141:249,1,67.5000025749208
111,172,102182,2,0,P|111:113|116:97,1,67.5000025749208
206,123,102413,1,0,0:0:0:0:
389,167,102644,2,0,P|362:229|357:256,2,67.5000025749208
294,168,102990,1,0,0:0:0:0:
199,157,103106,2,0,P|186:208|186:240,1,67.5000025749208
95,252,103336,2,0,P|118:298|152:320,1,67.5000025749208
222,288,103567,2,0,P|307:257|371:260,1,135.000005149842
165,215,104029,1,0,0:0:0:0:
352,199,104259,1,0,0:0:0:0:
169,149,104490,6,0,P|106:127|144:75,1,135.000005149842
222,86,104836,2,0,P|258:133|256:142,2,67.5000025749208
129,106,105182,2,0,P|81:197|96:250,1,135.000005149842
173,260,105529,1,0,0:0:0:0:
265,278,105644,1,0,0:0:0:0:
359,275,105759,1,0,0:0:0:0:
453,270,105875,2,0,P|426:209|406:193,1,67.5000025749208
467,123,106106,2,0,P|417:82|411:82,1,67.5000025749208
324,83,106336,5,0,0:0:0:0:
246,137,106452,1,0,0:0:0:0:
186,210,106567,1,0,0:0:0:0:
112,269,106682,1,0,0:0:0:0:
20,295,106798,2,0,P|50:228|56:208,1,67.5000025749208
84,145,107029,2,0,P|114:219|115:225,1,67.5000025749208
162,285,107259,2,0,P|194:254|205:215,1,67.5000025749208
191,138,107490,1,0,0:0:0:0:
258,71,107606,1,0,0:0:0:0:
352,66,107721,2,0,P|376:128|384:156,1,67.5000025749208
344,218,107952,6,0,L|434:221,1,67.5000025749208
400,126,108182,2,0,P|380:225|395:272,1,135.000005149842
473,212,108529,2,0,P|474:163|468:145,1,67.5000025749208
376,127,108759,1,0,0:0:0:0:
281,131,108875,6,0,P|268:186|270:203,1,67.5000025749208
349,247,109106,2,0,P|286:269|198:267,1,135.000005149842
141,214,109452,1,0,0:0:0:0:
49,193,109567,2,0,P|106:156|120:143,1,67.5000025749208
35,91,109798,1,0,0:0:0:0:
221,56,110029,1,0,0:0:0:0:
116,212,110259,1,0,0:0:0:0:
291,281,110490,6,0,P|349:248|352:236,1,67.5000025749208
266,201,110721,2,0,P|214:239|210:251,1,67.5000025749208
296,287,110952,2,0,P|347:246|355:237,2,67.5000025749208
269,195,111298,1,0,0:0:0:0:
179,165,111413,2,0,P|136:109|131:92,1,67.5000025749208
231,98,111644,2,0,P|272:73|295:59,1,67.5000025749208
350,106,111875,6,0,P|352:155|350:230,1,107.999996704102
278,191,112221,2,0,P|273:228|278:265,1,53.9999983520508
136,307,112567,2,0,P|129:260|144:191,1,107.999996704102
291,201,113029,1,0,0:0:0:0:
157,131,113259,2,0,P|91:114|86:116,1,53.9999983520508
106,186,113490,2,0,P|91:233|97:257,1,53.9999983520508
156,275,113721,5,0,0:0:0:0:
189,50,114067,1,0,0:0:0:0:
30,212,114413,1,0,0:0:0:0:
332,232,114875,1,0,0:0:0:0:
194,169,115106,1,0,0:0:0:0:
202,319,115336,2,0,L|213:279,1,26.9999991760254
170,290,115452,2,0,L|141:248,1,26.9999991760254
188,244,115567,6,0,P|236:165|227:122,1,116.999994644165
155,167,115913,2,0,P|128:187|107:212,1,58.4999973220826
270,247,116259,2,0,P|254:179|308:161,1,116.999994644165
414,262,116721,1,0,0:0:0:0:
250,251,116952,2,0,P|200:221|199:215,1,58.4999973220826
268,179,117182,2,0,P|313:162|329:160,1,58.4999973220826
367,230,117413,2,0,P|305:274|255:284,1,116.999994644165
228,209,117759,2,0,P|211:180|203:143,1,58.4999973220826
345,72,118106,2,0,P|353:150|315:243,1,175.499991966248
253,188,118567,5,0,0:0:0:0:
93,225,118798,1,0,0:0:0:0:
237,303,119029,5,0,0:0:0:0:
237,303,119144,1,0,0:0:0:0:
237,303,119259,2,0,P|291:275|314:272,1,58.4999973220826
357,230,119490,2,0,P|341:183|325:175,1,58.4999973220826
254,192,119721,6,0,P|258:154|262:127,1,58.4999973220826
199,188,119952,2,0,P|191:144|70:121,1,175.499991966248
105,191,120413,2,0,P|113:242|111:253,1,58.4999973220826
194,254,120644,2,0,P|197:187|198:171,1,58.4999973220826
273,165,120875,2,0,L|271:84,1,58.4999973220826
189,106,121106,2,0,P|216:57|331:62,1,175.499991966248
337,136,121567,2,0,P|348:175|374:197,1,58.4999973220826
436,159,121798,2,0,P|461:224|321:278,1,233.999989288331
348,210,122375,1,0,0:0:0:0:
348,210,122490,2,0,P|326:177|293:150,1,58.4999973220826
230,165,122721,1,0,0:0:0:0:
230,165,122836,1,0,0:0:0:0:
230,165,122952,6,0,P|188:134|114:116,1,116.999994644165
115,198,123298,2,0,P|67:189|48:191,1,58.4999973220826
21,263,123529,1,0,0:0:0:0:
21,263,123644,2,0,P|66:305|126:326,1,116.999994644165
112,159,124106,1,0,0:0:0:0:
163,313,124336,1,0,0:0:0:0:
229,163,124567,1,0,0:0:0:0:
288,315,124798,2,0,P|334:285|353:216,1,116.999994644165
277,196,125144,1,0,0:0:0:0:
203,231,125259,2,0,P|193:263|196:292,1,58.4999973220826
274,265,125490,6,0,P|348:237|373:139,1,175.499991966248
293,157,125952,2,0,P|246:149|211:148,1,58.4999973220826
241,229,126182,2,0,P|174:226|166:232,1,58.4999973220826
199,301,126413,5,0,0:0:0:0:
199,301,126529,1,0,0:0:0:0:
199,301,126644,2,0,P|246:316|271:317,1,58.4999973220826
276,237,126875,1,0,0:0:0:0:
276,237,126990,2,0,P|284:188|337:138,1,116.999994644165
383,203,127336,2,0,P|418:247|352:338,1,175.499991966248
314,270,127798,2,0,P|279:243|250:240,1,58.4999973220826
268,157,128029,2,0,P|228:167|213:182,1,58.4999973220826
222,259,128259,1,0,0:0:0:0:
193,97,128490,6,0,P|121:85|24:130,1,175.499991966248
90,180,128952,2,0,P|78:217|73:246,1,58.4999973220826
155,235,129182,2,0,P|188:281|249:337,1,116.999994644165
325,188,129644,1,0,0:0:0:0:
205,75,129875,2,0,P|163:101|81:127,1,116.999994644165
113,248,130336,5,0,0:0:0:0:
247,244,130682,1,0,0:0:0:0:
135,167,131029,1,0,0:0:0:0:
311,131,131490,1,0,0:0:0:0:
228,94,131721,1,0,0:0:0:0:
306,50,131952,1,0,0:0:0:0:
382,96,132182,2,0,P|402:152|396:233,1,135
262,229,132875,5,0,0:0:0:0:
262,229,133394,1,0,0:0:0:0:
203,195,133567,1,0,0:0:0:0:
115,215,133798,1,0,0:0:0:0:
139,301,134029,2,0,P|183:323|237:325,1,90
231,258,134375,1,0,0:0:0:0:
231,258,134490,1,0,0:0:0:0:
161,200,134721,2,0,P|152:147|256:93,1,180
271,176,135413,5,0,0:0:0:0:
225,253,135644,1,0,0:0:0:0:
175,177,135875,2,0,P|120:139|43:129,2,135
354,196,137029,6,0,P|349:154|344:133,1,45
304,144,137259,1,0,0:0:0:0:
224,186,137490,1,0,0:0:0:0:
201,225,137606,1,0,0:0:0:0:
184,266,137721,1,0,0:0:0:0:
303,86,138182,6,0,P|373:76|455:130,1,161.999995056153
377,160,138644,2,0,P|361:221|367:275,1,107.999996704102
202,279,139106,2,0,P|115:237|101:170,1,161.999995056153
178,197,139567,2,0,P|221:166|230:110,1,107.999996704102
68,119,140029,6,0,P|61:160|66:189,1,53.9999983520508
142,163,140259,2,0,P|126:221|101:283,1,107.999996704102
60,109,140721,1,0,0:0:0:0:
110,262,140952,2,0,P|183:303|257:292,1,161.999995056153
202,232,141413,2,0,P|196:169|207:114,1,107.999996704102
348,200,141875,6,0,P|321:98|281:61,1,161.999995056153
263,140,142336,2,0,P|212:162|152:158,1,107.999996704102
244,299,142798,2,0,P|314:289|378:220,1,161.999995056153
295,213,143259,2,0,P|226:207|176:213,1,107.999996704102
124,262,143606,2,0,P|101:230|103:216,1,53.9999983520508
257,168,143952,1,0,0:0:0:0:
95,115,144182,1,0,0:0:0:0:
186,249,144413,1,0,0:0:0:0:
191,86,144644,2,0,P|165:55|130:46,1,53.9999983520508
101,112,144875,1,0,0:0:0:0:
95,115,144990,1,0,0:0:0:0:
95,115,145106,2,0,P|75:170|74:229,1,107.999996704102
233,244,145567,6,0,P|274:302|267:345,1,107.999996704102
115,287,146029,2,0,P|117:225|139:179,1,107.999996704102
297,194,146490,2,0,P|309:162|298:143,2,53.9999983520508
141,243,146952,2,0,P|60:185|141:120,1,215.999993408203
267,189,147644,1,0,0:0:0:0:
428,171,147875,2,0,P|371:105|337:87,1,107.999996704102
192,87,148336,2,0,P|141:147|124:183,1,107.999996704102
283,222,148798,6,0,P|319:268|322:277,2,53.9999983520508
202,209,149144,1,0,0:0:0:0:
122,220,149259,2,0,P|112:171|116:160,1,53.9999983520508
187,136,149490,1,0,0:0:0:0:
187,136,149606,1,0,0:0:0:0:
187,136,149721,2,0,P|249:89|282:81,1,107.999996704102
210,229,150182,2,0,P|152:232|81:212,1,107.999996704102
239,131,150644,6,0,P|203:83|133:138,1,161.999995056153
173,201,151106,1,0,0:0:0:0:
173,201,151221,1,0,0:0:0:0:
173,201,151336,2,0,P|186:244|191:268,1,53.9999983520508
268,265,151567,2,0,P|316:270|396:277,1,107.999996704102
287,138,152029,1,0,0:0:0:0:
126,156,152259,1,0,0:0:0:0:
288,152,152490,1,0,0:0:0:0:
46,129,152836,1,0,0:0:0:0:
46,129,152952,2,0,L|91:243,1,107.999996704102
290,141,153413,2,0,L|262:259,1,107.999996704102
104,216,153875,6,0,P|109:152|196:122,1,161.999995056153
177,200,154336,2,0,P|222:208|304:195,1,107.999996704102
343,146,154682,1,0,0:0:0:0:
348,64,154798,2,0,P|290:36|241:42,1,107.999996704102
220,199,155259,1,0,0:0:0:0:
96,293,155490,1,0,0:0:0:0:
53,136,155721,2,0,P|90:122|108:118,1,53.9999983520508
126,197,155952,1,0,0:0:0:0:
49,54,156182,2,0,P|114:47|169:51,1,107.999996704102
130,127,156529,1,0,0:0:0:0:
130,127,156644,2,0,P|138:161|142:198,1,53.9999983520508
78,232,156875,6,0,P|80:269|86:298,1,53.9999983520508
211,237,157106,2,0,P|221:164|212:122,1,107.999996704102
52,132,157567,6,0,P|105:100|111:95,1,53.9999983520508
37,51,157798,1,0,0:0:0:0:
53,212,158029,2,0,P|135:233|176:229,1,107.999996704102
169,312,158375,2,0,P|211:288|214:277,1,53.9999983520508
49,284,158721,1,0,0:0:0:0:
205,325,158952,1,0,0:0:0:0:
205,325,159067,2,0,P|224:286|225:274,1,53.9999983520508
63,264,159413,1,0,0:0:0:0:
206,189,159644,1,0,0:0:0:0:
111,320,159875,1,0,0:0:0:0:
133,159,160106,2,0,P|160:120|175:108,1,53.9999983520508
95,74,160336,2,0,P|167:46|209:44,1,107.999996704102
313,157,160798,6,0,P|282:237|276:284,1,107.999996704102
440,251,161259,2,0,B|450:256|421:294|410:305,1,53.9999983520508
365,233,161490,1,0,0:0:0:0:
365,233,161721,2,0,P|323:256|293:262,1,53.9999983520508
279,185,161952,1,0,0:0:0:0:
279,185,162067,1,0,0:0:0:0:
279,185,162182,2,0,P|227:180|213:176,1,53.9999983520508
205,100,162413,2,0,P|139:101|-1:32,1,215.999993408203
168,29,163106,5,0,0:0:0:0:
156,190,163336,1,0,0:0:0:0:
299,113,163567,2,0,P|344:105|413:107,1,107.999996704102
367,177,163913,1,0,0:0:0:0:
287,193,164029,2,0,P|241:174|192:124,1,107.999996704102
87,251,164490,2,0,P|119:318|162:342,1,107.999996704102
178,261,164836,1,0,0:0:0:0:
139,189,164952,2,0,P|204:175|246:183,1,107.999996704102
357,298,165413,2,0,P|377:235|351:133,1,161.999995056153
292,193,165875,2,0,P|241:195|222:188,1,53.9999983520508
190,128,166106,2,0,P|149:178|226:291,1,215.999993408203
372,240,166798,5,0,0:0:0:0:
351,161,166913,1,0,0:0:0:0:
281,119,167029,1,0,0:0:0:0:
200,124,167144,1,0,0:0:0:0:
125,157,167259,2,0,P|129:202|164:299,1,144
254,237,167606,1,0,0:0:0:0:
341,174,167721,2,0,P|287:153|247:158,1,72
285,44,167952,2,0,P|225:69|214:81,1,72
160,161,168182,2,0,P|99:129|66:58,1,144
283,68,168644,2,0,P|253:127|246:146,1,72
355,161,168875,2,0,P|344:204|346:246,1,72
237,250,169106,2,0,P|166:217|89:166,1,144
173,93,169452,2,0,P|226:122|236:148,1,72
87,292,169798,6,0,P|180:308|305:266,1,216
202,217,170259,2,0,P|150:217|110:207,1,72
76,119,170490,1,0,0:0:0:0:
291,131,170721,1,0,0:0:0:0:
75,119,170952,2,0,P|48:204|64:264,1,144
166,232,171298,1,0,0:0:0:0:
166,232,171413,2,0,P|170:156|177:139,1,72
274,185,171644,2,0,P|341:166|368:170,1,72
367,271,171875,2,0,P|286:314|218:308,1,144
188,101,172336,6,0,P|154:123|140:155,1,72
245,179,172567,1,0,0:0:0:0:
245,179,172682,1,0,0:0:0:0:
245,179,172798,2,0,P|236:250|242:282,1,72
344,246,173029,2,0,P|352:179|411:125,1,144
330,330,173490,6,0,P|290:328|254:311,1,72
342,244,173721,2,0,P|400:224|417:345,1,216
324,303,174182,2,0,P|297:273|285:240,1,72
379,188,174413,1,0,0:0:0:0:
379,188,174529,1,0,0:0:0:0:
299,115,174644,2,0,P|248:95|147:93,1,144
111,187,174990,1,0,0:0:0:0:
48,98,175106,2,0,P|112:35|163:36,1,144
184,141,175452,2,0,P|206:211|258:274,1,144
328,192,175798,5,0,0:0:0:0:
146,309,176029,1,0,0:0:0:0:
355,260,176259,1,0,0:0:0:0:
142,219,176490,2,0,P|166:159|237:137,1,144
249,244,176836,1,0,0:0:0:0:
249,244,176952,2,0,P|197:287|102:290,1,144
81,195,177298,2,0,P|149:140|279:129,1,216
131,290,177875,1,0,0:0:0:0:
289,143,178106,1,0,0:0:0:0:
289,143,178221,1,0,0:0:0:0:
289,143,178336,2,0,P|318:225|307:288,1,144
205,250,178682,2,0,P|175:286|74:290,1,144
98,186,179029,6,0,P|142:150|218:179,1,144
396,297,179490,1,0,0:0:0:0:
180,308,179721,1,0,0:0:0:0:
384,238,179952,1,0,0:0:0:0:
169,215,180182,2,0,P|124:171|227:103,1,216
444,325,180875,6,0,P|436:229|409:162,1,144
204,180,181336,1,0,0:0:0:0:
112,329,181567,1,0,0:0:0:0:
227,308,181798,5,0,0:0:0:0:
227,308,182029,2,0,P|241:256|298:204,1,116.999994644165
329,272,182375,2,0,P|326:315|314:341,1,58.4999973220826
182,265,182721,1,0,0:0:0:0:
47,192,182952,2,0,P|101:155|160:145,1,116.999994644165
298,180,183413,1,0,0:0:0:0:
146,197,183644,1,0,0:0:0:0:
226,67,183875,1,0,0:0:0:0:
208,218,184106,1,0,0:0:0:0:
126,90,184336,2,0,P|101:129|76:205,1,116.999994644165
224,153,184798,2,0,P|269:221|288:267,1,116.999994644165
130,247,185259,2,0,P|106:276|55:353,1,116.999994644165
212,315,185721,6,0,P|318:293|345:291,1,116.999994644165
306,218,186067,1,0,0:0:0:0:
230,226,186182,2,0,P|191:189|197:127,1,116.999994644165
102,176,186875,2,0,P|85:205|85:247,1,58.4999973220826
155,249,187106,2,0,P|195:266|279:263,1,116.999994644165
148,171,187567,2,0,P|205:128|275:133,1,116.999994644165
261,200,187913,2,0,P|305:197|320:181,1,58.4999973220826
176,124,188259,2,0,P|156:199|157:248,1,116.999994644165
282,323,188721,1,0,0:0:0:0:
287,170,188952,6,0,P|273:129|260:103,1,58.4999973220826
220,175,189182,1,0,0:0:0:0:
367,135,189413,2,0,P|360:199|353:274,1,116.999994644165
206,214,189875,1,0,0:0:0:0:
54,227,190106,6,0,L|61:167,1,58.4999973220826
136,173,190336,2,0,L|121:296,1,116.999994644165
270,253,190798,1,0,0:0:0:0:
145,164,191029,2,0,P|165:128|200:114,1,58.4999973220826
254,128,191259,2,0,P|276:175|276:251,1,116.999994644165
201,248,191606,2,0,P|211:278|218:317,1,58.4999973220826
368,300,191952,5,0,0:0:0:0:
296,166,192182,1,0,0:0:0:0:
288,318,192413,1,0,0:0:0:0:
381,198,192644,2,0,P|413:137|412:129,2,58.4999973220826
247,122,193106,6,0,P|213:167|193:284,1,175.499991966248
257,242,193567,2,0,P|277:269|271:306,1,58.4999973220826
200,284,193798,2,0,P|116:255|127:129,1,233.999989288331
261,201,194490,1,0,0:0:0:0:
154,92,194721,1,0,0:0:0:0:
175,207,194952,1,0,0:0:0:0:
279,121,195298,5,0,0:0:0:0:
257,254,195644,1,0,0:0:0:0:
120,136,196106,1,0,0:0:0:0:
208,149,196336,1,0,0:0:0:0:
149,217,196567,1,0,0:0:0:0:
239,220,196798,6,0,P|305:221|335:224,1,90
316,312,197259,2,0,P|284:328|171:338,1,135
182,272,197721,2,0,P|180:215|195:168,1,90
323,175,198182,2,0,P|331:129|375:180,1,135
397,231,198644,2,0,P|398:258|351:293,1,90
264,188,199106,2,0,P|253:177|197:247,1,135
252,252,199567,2,0,P|271:283|241:321,1,90
116,268,200029,1,0,0:0:0:0:
140,135,200259,1,0,0:0:0:0:
124,269,200490,1,0,0:0:0:0:
137,134,200721,1,0,0:0:0:0:
211,246,200952,6,0,P|226:207|259:162,1,90
322,284,201413,1,0,0:0:0:0:
54,242,201875,6,0,P|83:201|126:175,1,90
150,309,202336,1,0,0:0:0:0:
393,191,202798,2,0,P|352:143|317:128,1,90
326,266,203259,1,0,0:0:0:0:
247,221,203490,1,0,0:0:0:0:
259,310,203721,1,0,0:0:0:0:
177,271,203952,2,0,P|149:206|146:183,2,90
236,203,204644,6,0,P|282:206|316:246,1,90
267,314,205106,1,0,0:0:0:0:
102,240,205567,2,0,P|110:183|139:148,1,90
197,215,206029,1,0,0:0:0:0:
268,161,206259,5,0,0:0:0:0:
304,243,206490,1,0,0:0:0:0:
263,162,206721,1,0,0:0:0:0:
197,215,206952,2,0,P|191:259|193:313,2,90
285,230,207644,1,0,0:0:0:0:
311,143,207875,1,0,0:0:0:0:
222,158,208106,1,0,0:0:0:0:
132,163,208336,6,0,P|97:211|99:238,1,90
233,220,208798,1,0,0:0:0:0:
233,220,209259,2,0,P|176:184|138:179,1,90
91,299,209721,1,0,0:0:0:0:
178,318,209952,1,0,0:0:0:0:
86,218,210182,2,0,P|77:163|96:120,1,90
211,187,210644,1,0,0:0:0:0:
209,96,210875,1,0,0:0:0:0:
153,166,211106,1,0,0:0:0:0:
234,202,211336,1,0,0:0:0:0:
319,121,211567,6,0,P|371:110|420:114,1,90
398,178,211913,2,0,P|394:230|395:237,1,45
459,340,212259,1,0,0:0:0:0:
397,219,212490,1,0,0:0:0:0:
332,337,212721,1,0,0:0:0:0:
271,216,212952,2,0,P|210:174|182:163,1,90
123,282,213413,5,0,0:0:0:0:
123,282,213644,2,0,P|106:233|111:222,1,45
170,226,213875,2,0,P|169:156|161:127,1,90
65,229,214336,1,0,0:0:0:0:
75,94,214567,1,0,0:0:0:0:
56,227,214798,1,0,0:0:0:0:
138,120,215029,1,0,0:0:0:0:
151,253,215259,2,0,L|237:298,1,90
280,247,215606,1,0,0:0:0:0:
280,247,215721,1,0,0:0:0:0:
173,164,215952,5,0,0:0:0:0:
301,123,216182,1,0,0:0:0:0:
181,60,216413,2,0,P|115:63|66:69,1,90
80,200,216875,1,0,0:0:0:0:
190,277,217106,1,0,0:0:0:0:
213,144,217336,2,0,L|167:141,2,45
190,277,217798,1,0,0:0:0:0:
221,145,218029,1,0,0:0:0:0:
272,269,218259,5,0,0:0:0:0:
272,269,218490,1,0,0:0:0:0:
328,146,218721,1,0,0:0:0:0:
328,146,218836,1,0,0:0:0:0:
328,146,218952,2,0,L|395:222,1,90
336,257,219298,1,0,0:0:0:0:
336,257,219413,2,0,P|264:240|225:233,1,90
160,133,219875,5,0,0:0:0:0:
294,118,220106,1,0,0:0:0:0:
181,43,220336,1,0,0:0:0:0:
130,168,220567,1,0,0:0:0:0:
130,168,220682,1,0,0:0:0:0:
130,168,220798,2,0,P|134:222|147:271,1,90
209,246,221144,1,0,0:0:0:0:
209,246,221259,2,0,P|238:317|257:349,1,90
368,273,221721,5,0,0:0:0:0:
382,138,221952,1,0,0:0:0:0:
376,272,222182,1,0,0:0:0:0:
284,172,222413,1,0,0:0:0:0:
233,297,222644,2,0,P|174:273|136:248,1,90
111,204,222990,1,0,0:0:0:0:
64,154,223106,2,0,P|101:106|136:100,1,90
261,113,223567,1,0,0:0:0:0:
340,222,223798,1,0,0:0:0:0:
204,217,224029,1,0,0:0:0:0:
117,320,224259,6,0,L|177:335,1,45
155,263,224490,1,0,0:0:0:0:
143,128,224721,1,0,0:0:0:0:
154,262,224952,1,0,0:0:0:0:
288,259,225182,1,0,0:0:0:0:
320,127,225413,2,0,P|382:108|433:105,2,90
290,188,225990,1,0,0:0:0:0:
276,254,226106,1,0,0:0:0:0:
302,315,226221,1,0,0:0:0:0:
368,333,226336,1,0,0:0:0:0:
125,83,228182,6,0,P|102:141|100:152,1,58.4999973220826
179,180,228413,1,0,0:0:0:0:
179,180,228529,2,0,P|219:118|232:113,1,58.4999973220826
340,238,228875,2,0,P|392:185|509:186,1,175.499991966248
445,253,229336,1,0,0:0:0:0:
287,330,229567,1,0,0:0:0:0:
174,195,229798,1,0,0:0:0:0:
329,112,230029,2,0,P|261:64|199:48,1,116.999994644165
124,193,230490,6,0,P|131:253|136:261,1,58.4999973220826
215,231,230721,2,0,P|273:259|296:262,1,58.4999973220826
303,177,230952,2,0,P|454:188|490:206,1,175.499991966248
396,237,231413,2,0,P|346:283|345:293,2,58.4999973220826
318,78,231875,5,0,0:0:0:0:
98,223,232106,1,0,0:0:0:0:
98,223,232221,1,0,0:0:0:0:
98,223,232336,2,0,L|99:149,1,58.4999973220826
173,116,232567,2,0,P|187:200|197:279,1,116.999994644165
366,214,233029,6,0,L|361:150,1,58.4999973220826
277,178,233259,2,0,P|236:266|246:303,1,116.999994644165
387,186,233721,1,0,0:0:0:0:
387,186,233836,1,0,0:0:0:0:
211,179,234067,1,0,0:0:0:0:
211,179,234182,1,0,0:0:0:0:
35,189,234413,2,0,P|35:259|62:320,1,116.999994644165
225,278,234875,5,0,0:0:0:0:
223,102,235106,1,0,0:0:0:0:
139,255,235336,1,0,0:0:0:0:
296,177,235567,2,0,P|362:151|411:152,1,116.999994644165
370,231,235913,2,0,P|302:251|290:251,1,58.4999973220826
223,99,236259,2,0,P|183:188|195:329,1,233.999989288331
333,215,236952,1,0,0:0:0:0:
333,215,237182,5,0,0:0:0:0:
333,215,237298,1,0,0:0:0:0:
333,215,237413,2,0,P|255:182|209:172,1,116.999994644165
149,222,237759,6,0,P|116:167|138:88,1,116.999994644165
208,127,238106,2,0,P|278:105|375:118,1,116.999994644165
180,210,238567,1,0,0:0:0:0:
64,77,238798,1,0,0:0:0:0:
92,250,239029,1,0,0:0:0:0:
181,99,239259,2,0,P|265:84|313:90,1,116.999994644165
279,174,239606,1,0,0:0:0:0:
279,174,239721,2,0,P|349:164|361:158,1,58.4999973220826
401,108,239952,2,0,P|429:177|398:275,1,175.499991966248
317,245,240413,1,0,0:0:0:0:
141,252,240644,1,0,0:0:0:0:
296,171,240875,5,0,0:0:0:0:
296,171,240990,1,0,0:0:0:0:
296,171,241106,2,0,P|271:117|216:77,1,116.999994644165
183,158,241452,2,0,P|195:248|210:283,1,116.999994644165
275,219,241798,2,0,P|339:213|396:235,1,116.999994644165
224,294,242259,5,0,0:0:0:0:
109,160,242490,1,0,0:0:0:0:
282,184,242721,1,0,0:0:0:0:
123,259,242952,2,0,P|46:246|11:210,1,116.999994644165
109,160,243298,2,0,P|156:116|226:109,1,116.999994644165
195,193,243644,2,0,P|232:316|236:323,1,116.999994644165
402,312,244106,1,0,0:0:0:0:
380,138,244336,1,0,0:0:0:0:
391,313,244567,1,0,0:0:0:0:
402,312,244682,1,0,0:0:0:0:
402,312,244798,2,0,L|337:296,1,58.4999973220826
335,210,245029,1,0,0:0:0:0:
253,177,245144,2,0,P|158:194|140:220,1,116.999994644165
227,245,245490,2,0,P|246:318|227:368,1,116.999994644165
90,253,245952,5,0,0:0:0:0:
187,107,246182,1,0,0:0:0:0:
60,228,246413,1,0,0:0:0:0:
235,219,246644,6,0,P|306:195|286:144,1,116.999994644165
218,148,246990,1,0,0:0:0:0:
135,179,247106,2,0,P|171:243|211:284,1,116.999994644165
274,226,247452,2,0,P|295:283|239:333,1,116.999994644165
180,301,247798,1,0,0:0:0:0:
174,125,248029,1,0,0:0:0:0:
180,301,248259,1,0,0:0:0:0:
258,341,248375,1,0,0:0:0:0:
345,343,248490,2,0,P|379:286|387:224,1,116.999994644165
301,215,248836,2,0,P|348:155|400:140,1,116.999994644165
429,217,249182,2,0,P|382:254|314:282,1,116.999994644165
347,101,249644,5,0,0:0:0:0:
196,191,249875,1,0,0:0:0:0:
371,204,250106,1,0,0:0:0:0:
225,106,250336,2,0,P|155:90|106:94,1,116.999994644165
99,180,250682,1,0,0:0:0:0:
14,156,250798,2,0,P|21:93|26:85,1,58.4999973220826
103,76,251029,2,0,P|172:97|193:137,1,116.999994644165
105,286,251490,5,0,0:0:0:0:
94,110,251721,1,0,0:0:0:0:
105,286,251952,1,0,0:0:0:0:
185,320,252067,1,0,0:0:0:0:
267,289,252182,2,0,P|304:228|305:175,1,116.999994644165
218,169,252529,1,0,0:0:0:0:
218,169,252644,2,0,P|247:107|265:97,1,58.4999973220826
324,100,252875,2,0,P|410:122|440:161,1,116.999994644165
298,259,253336,5,0,0:0:0:0:
157,153,253567,1,0,0:0:0:0:
173,327,253798,1,0,0:0:0:0:
246,167,254029,2,0,P|259:99|249:53,1,116.999994644165
174,100,254375,2,0,P|168:163|169:171,1,58.4999973220826
339,192,254721,2,0,P|367:117|341:77,1,116.999994644165
204,183,255182,1,0,0:0:0:0:
350,279,255413,1,0,0:0:0:0:
115,122,255644,1,0,0:0:0:0:
124,222,255875,5,0,0:0:0:0:
225,224,256221,1,0,0:0:0:0:
173,137,256567,1,0,0:0:0:0:
303,170,257029,5,0,0:0:0:0:
303,170,257259,1,0,0:0:0:0:
303,170,257490,1,0,0:0:0:0:
215,118,257721,1,0,0:0:0:0:
145,191,258067,1,0,0:0:0:0:
227,249,258413,1,0,0:0:0:0:
317,148,258875,5,0,0:0:0:0:
317,148,259106,1,0,0:0:0:0:
317,148,259336,1,0,0:0:0:0:
317,148,259567,2,0,P|304:218|309:254,1,101.250003862381
208,227,260259,1,0,0:0:0:0:
213,91,260721,5,0,0:0:0:0:
213,91,260952,1,0,0:0:0:0:
213,91,261182,1,0,0:0:0:0:
213,91,261413,2,0,P|154:114|121:145,1,101.250003862381
195,212,262106,2,0,P|235:238|240:264,1,67.5000025749208
164,299,262567,5,0,0:0:0:0:
87,255,262798,1,0,0:0:0:0:
164,299,263029,1,0,0:0:0:0:
182,199,263259,5,0,0:0:0:0:
329,159,263606,1,0,0:0:0:0:
182,120,263952,1,0,0:0:0:0:
182,120,264413,5,0,0:0:0:0:
260,183,264644,1,0,0:0:0:0:
263,81,264875,1,0,0:0:0:0:
340,146,265106,1,0,0:0:0:0:
247,266,265452,5,0,0:0:0:0:
171,134,265798,1,0,0:0:0:0:
251,319,266259,1,0,0:0:0:0:
338,267,266490,1,0,0:0:0:0:
243,229,266721,1,0,0:0:0:0:
333,183,266952,1,0,0:0:0:0:
333,183,267298,1,0,0:0:0:0:
196,116,267644,5,0,0:0:0:0:
147,312,268106,1,0,0:0:0:0:
161,212,268336,1,0,0:0:0:0:
147,312,268567,1,0,0:0:0:0:
243,281,268798,2,0,L|250:233,1,33.7500012874604
161,212,269144,2,0,L|151:172,1,33.7500012874604
252,160,269490,2,0,L|297:138,1,33.7500012874604
145,77,269952,5,0,0:0:0:0:
244,92,270182,1,0,0:0:0:0:
151,133,270413,1,0,0:0:0:0:
234,190,270644,5,0,0:0:0:0:
153,251,270990,1,0,0:0:0:0:
252,269,271336,1,0,0:0:0:0:
371,206,271798,1,0,0:0:0:0:
371,206,272029,1,0,0:0:0:0:
329,153,272259,1,0,0:0:0:0:
329,153,272375,2,0,L|299:120,1,33.7500012874604
206,109,272836,5,0,0:0:0:0:
152,194,273182,1,0,0:0:0:0:
286,208,273644,1,0,0:0:0:0:
335,161,273875,1,0,0:0:0:0:
338,93,274106,2,0,P|303:80|271:83,1,67.5000025749208
