osu file format v14

[General]
AudioFilename: audio.mp3
AudioLeadIn: 0
PreviewTime: 25913
Countdown: 1
SampleSet: Normal
StackLeniency: 0.7
Mode: 0
LetterboxInBreaks: 0
WidescreenStoryboard: 0

[Editor]
Bookmarks: 226336,241106,255875,274106
DistanceSpacing: 1
BeatDivisor: 8
GridSize: 16
TimelineZoom: 1

[Metadata]
Title:Life Source (Meari cover)
TitleUnicode:Life Source (Meari cover)
Artist:Orangestar
ArtistUnicode:Orangestar
Creator:Command DDOS
Version:Insane
Source:
Tags:Orangestar Life Source (Meari cover)
BeatmapID:2152152
BeatmapSetID:1029215

[Difficulty]
HPDrainRate:5
CircleSize:5
OverallDifficulty:5
ApproachRate:9.3
SliderMultiplier:1.8
SliderTickRate:1

[Events]
//Background and Video events
0,0,"tło.jpg",0,0
//Break Periods
2,196767,211013
//Storyboard Layer 0 (Background)
//Storyboard Layer 1 (Fail)
//Storyboard Layer 2 (Pass)
//Storyboard Layer 3 (Foreground)
//Storyboard Layer 4 (Overlay)
//Storyboard Sound Samples

[TimingPoints]
1106,461.538461538462,4,1,0,100,1,0
1106,-166.666666666667,4,1,0,20,0,0
11259,-125,4,1,0,20,0,0
18644,-100,4,1,0,20,0,0
26029,-83.3333333333333,4,1,0,20,0,0
40798,-66.6666666666667,4,1,0,50,0,0
71259,-83.3333333333333,4,1,0,20,0,0
100798,-66.6666666666667,4,1,0,50,0,0
111875,-83.3333333333333,4,1,0,20,0,0
115567,-76.9230769230769,4,1,0,20,0,0
130336,-100,4,1,0,20,0,0
138182,-83.3333333333333,4,1,0,20,0,0
167259,-62.5,4,1,0,70,0,0
181567,-76.9230769230769,4,1,0,20,0,0
194952,-100,4,1,0,20,0,0
226336,-76.9230769230769,4,1,0,20,0,0
228182,-76.9230769230769,4,1,0,20,0,1
255875,-133.333333333333,4,1,0,20,0,0
270644,-133.333333333333,4,1,0,5,0,0

[HitObjects]
117,132,1106,5,0,0:0:0:0:
222,156,1567,1,0,0:0:0:0:
142,100,3798,5,0,0:0:0:0:
225,118,4163,1,0,0:0:0:0:
172,179,4509,2,0,P|186:213|232:228,1,80.9999975280763
225,228,7259,5,0,0:0:0:0:
308,246,7624,1,0,0:0:0:0:
255,307,7970,2,0,P|269:341|342:354,1,107.999996704102
342,298,8663,6,0,L|342:280,3,13.4999995880127
316,278,8894,1,0,0:0:0:0:
291,270,8952,1,0,0:0:0:0:
188,137,11144,5,0,0:0:0:0:
205,138,11202,1,0,0:0:0:0:
228,140,11259,2,0,P|291:158|329:182,2,108
188,323,12413,5,0,0:0:0:0:
281,321,12644,1,0,0:0:0:0:
308,231,12875,1,0,0:0:0:0:
214,228,13106,2,0,P|192:171|208:126,2,108
238,183,14259,5,0,0:0:0:0:
328,208,14490,1,0,0:0:0:0:
318,301,14721,2,0,P|350:314|368:316,1,36
381,277,14952,2,0,P|413:307|366:335,2,108
321,200,16106,1,0,0:0:0:0:
411,222,16336,1,0,0:0:0:0:
339,281,16567,5,0,0:0:0:0:
246,292,16798,2,0,P|220:251|222:192,2,108
433,294,17952,5,0,0:0:0:0:
392,209,18182,1,0,0:0:0:0:
433,294,18413,1,0,0:0:0:0:
315,289,18644,6,0,L|261:288,3,45
286,231,19106,2,0,P|229:206|196:210,1,90,8|0,0:0|0:0,0:0:0:0:
94,163,19567,6,0,L|76:205,3,45
133,219,20029,2,0,P|178:237|205:280,1,90,8|0,0:0|0:0,0:0:0:0:
318,273,20490,5,0,0:0:0:0:
349,223,20606,1,0,0:0:0:0:
344,164,20721,1,0,0:0:0:0:
308,117,20836,1,0,0:0:0:0:
264,70,20952,2,0,P|228:81|174:102,1,90,8|0,0:0|0:0,0:0:0:0:
198,224,21413,5,0,0:0:0:0:
160,274,21529,1,0,0:0:0:0:
98,285,21644,1,0,0:0:0:0:
41,257,21759,1,0,0:0:0:0:
13,200,21875,2,0,P|33:165|70:122,1,90,8|0,0:0|0:0,0:0:0:0:
190,138,22336,6,0,L|246:142,3,45
171,145,22798,2,0,P|166:197|174:237,1,90,8|0,0:0|0:0,0:0:0:0:
298,242,23259,6,0,L|343:241,3,45
279,236,23721,2,0,P|270:157|278:132,1,90,8|0,0:0|0:0,0:0:0:0:
392,111,24182,5,0,0:0:0:0:
416,169,24298,1,0,0:0:0:0:
411,231,24413,1,0,0:0:0:0:
366,276,24529,1,0,0:0:0:0:
304,288,24644,2,0,P|249:283|208:265,1,90,8|0,0:0|0:0,0:0:0:0:
173,151,25106,5,0,0:0:0:0:
212,101,25221,1,0,0:0:0:0:
273,86,25336,1,0,0:0:0:0:
336,81,25452,1,0,0:0:0:0:
395,101,25567,2,0,P|407:151|407:192,1,90,8|0,0:0|0:0,0:0:0:0:
292,289,26029,5,8,0:0:0:0:
40,121,26490,1,8,0:0:0:0:
283,300,26952,1,8,0:0:0:0:
31,132,27413,1,8,0:0:0:0:
283,300,27875,1,8,0:0:0:0:
75,222,28336,5,8,0:0:0:0:
363,129,28798,1,8,0:0:0:0:
77,227,29259,1,8,0:0:0:0:
350,96,29721,2,0,L|411:108,3,53.9999983520508
428,177,30182,2,0,P|355:175|310:155,1,107.999996704102,8|0,0:0|0:0,0:0:0:0:
430,54,30644,1,8,0:0:0:0:
129,89,31106,6,0,P|125:148|151:193,1,107.999996704102,8|0,0:0|0:0,0:0:0:0:
243,72,31567,1,8,0:0:0:0:
127,143,32029,1,8,0:0:0:0:
400,271,32490,2,0,P|383:211|414:175,1,107.999996704102,8|0,0:0|0:0,0:0:0:0:
455,322,32952,2,0,P|411:348|299:331,1,161.999995056153,8|0,0:0|0:0,0:0:0:0:
359,283,33413,6,0,P|306:266|290:266,1,53.9999983520508
232,270,33644,1,0,0:0:0:0:
156,274,33759,1,0,0:0:0:0:
80,279,33875,2,0,P|58:227|70:179,1,107.999996704102,8|0,0:0|0:0,0:0:0:0:
219,156,34336,5,8,0:0:0:0:
370,148,34567,1,0,0:0:0:0:
268,36,34798,1,0,0:0:0:0:
268,36,35029,1,0,0:0:0:0:
118,53,35259,2,0,P|101:115|101:123,1,53.9999983520508,8|0,0:0|0:0,0:0:0:0:
171,133,35490,1,0,0:0:0:0:
246,135,35606,1,0,0:0:0:0:
320,142,35721,2,0,P|331:193|327:204,1,53.9999983520508
261,222,35952,2,0,P|349:272|355:269,1,107.999996704102
410,141,36413,1,0,0:0:0:0:
258,134,36644,1,0,0:0:0:0:
410,141,36875,1,0,0:0:0:0:
275,209,37106,6,0,P|220:197|164:207,1,107.999996704102
95,220,37452,2,0,P|81:176|84:162,1,53.9999983520508
232,149,37798,1,0,0:0:0:0:
98,76,38029,2,0,P|140:55|208:52,2,107.999996704102
214,172,38721,1,0,0:0:0:0:
332,266,38952,2,0,P|362:239|391:177,1,107.999996704102
325,138,39298,2,0,P|317:97|327:82,1,53.9999983520508
447,171,39644,6,0,P|395:194|168:74,1,323.999990112305
72,197,40798,6,0,L|66:338,1,135.000005149842,4|0,0:0|0:0,0:0:0:0:
154,339,41144,2,0,L|156:191,1,135.000005149842,4|0,0:0|0:0,0:0:0:0:
243,200,41490,2,0,L|242:345,1,135.000005149842,4|0,0:0|0:0,0:0:0:0:
330,331,41836,5,0,0:0:0:0:
337,243,41952,1,4,0:0:0:0:
346,156,42067,1,0,0:0:0:0:
359,69,42182,2,0,L|275:59,1,67.5000025749208,4|0,0:0|0:0,0:0:0:0:
265,145,42413,1,0,0:0:0:0:
253,232,42529,1,4,0:0:0:0:
247,319,42644,2,0,L|91:318,1,135.000005149842,4|0,0:0|0:0,0:0:0:0:
131,232,42990,2,0,L|51:246,1,67.5000025749208,4|0,0:0|0:0,0:0:0:0:
54,68,43336,6,0,L|203:52,1,135.000005149842,4|0,0:0|0:0,0:0:0:0:
357,104,43798,2,0,L|284:103,1,67.5000025749208,4|0,0:0|0:0,0:0:0:0:
236,173,44029,2,0,L|312:186,1,67.5000025749208,4|0,0:0|0:0,0:0:0:0:
371,238,44259,2,0,L|296:257,1,67.5000025749208,4|0,0:0|0:0,0:0:0:0:
217,262,44490,2,0,L|315:358,1,135.000005149842,4|0,0:0|0:0,0:0:0:0:
398,201,44952,6,0,L|321:183,1,67.5000025749208
358,102,45182,2,0,L|220:119,1,135.000005149842,4|0,0:0|0:0,0:0:0:0:
127,266,45644,6,0,L|112:194,1,67.5000025749208,4|0,0:0|0:0,0:0:0:0:
156,123,45875,2,0,L|81:145,1,67.5000025749208,4|0,0:0|0:0,0:0:0:0:
37,72,46106,2,0,L|29:150,1,67.5000025749208,4|0,0:0|0:0,0:0:0:0:
31,226,46336,2,0,L|166:213,1,135.000005149842,4|0,0:0|0:0,0:0:0:0:
332,156,46798,6,0,L|262:131,1,67.5000025749208,4|0,0:0|0:0,0:0:0:0:
267,45,47029,2,0,L|126:74,1,135.000005149842,4|0,0:0|0:0,0:0:0:0:
202,234,47490,6,0,L|268:265,1,67.5000025749208
289,178,47721,2,0,L|325:247,1,67.5000025749208
387,180,47952,2,0,L|386:262,1,67.5000025749208
456,299,48182,2,0,L|319:322,1,135.000005149842
255,262,48529,6,0,L|325:236,1,67.5000025749208
281,66,48875,2,0,L|152:121,1,135.000005149842
90,281,49336,6,0,L|150:252,1,67.5000025749208
235,275,49567,2,0,L|177:318,1,67.5000025749208
254,363,49798,2,0,L|318:326,1,67.5000025749208
397,354,50029,1,0,0:0:0:0:
410,54,50490,1,0,0:0:0:0:
234,45,50721,6,0,L|223:187,1,135.000005149842
391,231,51182,2,0,L|311:232,1,67.5000025749208
355,149,51413,2,0,L|291:176,1,67.5000025749208
233,109,51644,2,0,L|199:175,1,67.5000025749208
260,234,51875,2,0,L|121:264,1,135.000005149842
93,90,52336,6,0,L|164:96,1,67.5000025749208
222,157,52567,2,0,L|81:142,1,135.000005149842
62,227,52913,1,0,0:0:0:0:
37,311,53029,2,0,L|112:334,1,67.5000025749208
165,271,53259,2,0,L|200:335,1,67.5000025749208
267,276,53490,2,0,L|256:356,1,67.5000025749208
345,354,53721,6,0,L|376:216,1,135.000005149842
441,59,54182,6,0,L|355:98,1,67.5000025749208
293,65,54413,2,0,L|312:207,1,135.000005149842
134,200,54875,6,0,L|123:124,1,67.5000025749208
38,155,55106,2,0,L|36:228,1,67.5000025749208
116,256,55336,2,0,L|189:254,1,67.5000025749208
234,182,55567,6,0,P|304:142|402:205,1,202.500007724762
316,228,56029,2,0,P|336:270|364:288,1,67.5000025749208,4|0,0:0|0:0,0:0:0:0:
420,228,56259,2,0,P|437:283|381:340,1,135.000005149842
219,296,56721,5,4,0:0:0:0:
75,194,56952,1,0,0:0:0:0:
249,191,57182,1,0,0:0:0:0:
93,271,57413,1,4,0:0:0:0:
267,295,57644,6,0,P|315:270|322:249,1,67.5000025749208
336,173,57875,2,0,P|375:186|436:265,2,135.000005149842,4|0|0,0:0|0:0|0:0,0:0:0:0:
161,190,58567,5,0,0:0:0:0:
305,89,58798,2,0,P|383:77|384:74,1,67.5000025749208,4|0,0:0|0:0,0:0:0:0:
336,16,59029,2,0,P|286:26|261:46,1,67.5000025749208
252,119,59259,2,0,P|279:163|354:204,1,135.000005149842
380,119,59606,1,0,0:0:0:0:
399,33,59721,2,0,P|343:34|318:34,1,67.5000025749208,4|0,0:0|0:0,0:0:0:0:
243,41,59952,2,0,P|202:65|156:147,1,135.000005149842
174,313,60413,6,0,P|180:263|188:243,1,67.5000025749208
271,269,60644,2,0,P|325:253|352:241,1,67.5000025749208,4|4,0:0|0:0,0:0:0:0:
269,189,60875,1,0,0:0:0:0:
269,189,61106,2,0,P|210:157|144:145,1,135.000005149842
94,218,61452,1,0,0:0:0:0:
28,276,61567,2,0,P|58:302|85:321,1,67.5000025749208,4|0,0:0|0:0,0:0:0:0:
157,274,61798,2,0,P|161:313|97:388,1,135.000005149842,4|0,0:0|0:0,0:0:0:0:
57,216,62259,5,0,0:0:0:0:
184,94,62490,1,4,0:0:0:0:
158,267,62721,2,0,P|209:283|234:283,1,67.5000025749208
250,199,62952,2,0,P|307:220|370:267,1,135.000005149842
287,303,63298,1,0,0:0:0:0:
204,331,63413,2,4,P|153:270|152:262,1,67.5000025749208
220,223,63644,2,0,P|150:212|76:229,1,135.000005149842
243,140,64106,6,0,B|273:122|311:115|318:113,1,67.5000025749208
320,202,64336,2,0,P|316:237|300:275,1,67.5000025749208,4|0,0:0|0:0,0:0:0:0:
217,251,64567,1,0,0:0:0:0:
42,229,64798,6,0,P|55:146|90:103,1,135.000005149842
173,108,65144,1,0,0:0:0:0:
256,82,65259,2,0,P|222:54|193:41,1,67.5000025749208,4|0,0:0|0:0,0:0:0:0:
113,51,65490,2,0,P|83:110|88:205,1,135.000005149842
238,256,65952,6,0,P|291:269|312:269,1,67.5000025749208
350,195,66182,2,0,P|384:213|461:279,1,135.000005149842
374,307,66529,5,0,0:0:0:0:
374,307,66644,2,0,P|313:309|151:334,1,202.500007724762
124,255,67106,2,0,P|134:196|146:182,1,67.5000025749208
222,169,67336,2,0,P|197:128|51:115,1,202.500007724762
111,180,67798,6,0,P|97:219|82:246,1,67.5000025749208
38,316,68029,1,0,0:0:0:0:
212,313,68259,1,0,0:0:0:0:
120,162,68490,6,0,P|190:110|300:133,1,202.500007724762
235,193,68952,2,0,P|221:245|230:268,1,67.5000025749208
311,259,69182,2,0,B|346:264|340:283|301:300|286:227|298:216|288:178,1,135.000005149842
463,153,69644,5,0,0:0:0:0:
369,301,69875,1,0,0:0:0:0:
287,145,70106,1,0,0:0:0:0:
82,232,71259,6,0,P|71:207|71:181,3,53.9999983520508
141,176,71721,2,0,P|186:145|187:140,1,53.9999983520508
210,84,71952,2,0,P|252:109|288:160,1,107.999996704102
242,295,72644,6,0,P|200:244|220:154,1,161.999995056153
280,189,73106,6,0,B|326:204|346:190|357:201|332:241|285:241|329:260,1,107.999996704102
175,267,73567,2,0,B|206:232|180:202|145:193|106:221|89:204|121:161,1,161.999995056153
184,141,74029,2,0,P|161:102|94:84,1,107.999996704102
69,219,74490,2,0,P|115:270|257:295,1,215.999993408203
430,75,75413,6,0,B|450:138|433:166|391:177|381:224,1,161.999995056153
311,223,75875,2,0,B|318:185|331:157|370:126,1,107.999996704102
224,111,76336,6,0,B|186:130|220:152|233:159|147:248,1,161.999995056153
86,214,76798,2,0,B|124:177|145:143|145:143|135:91|173:62,1,161.999995056153
217,113,77259,2,0,P|237:154|235:178,1,53.9999983520508
307,168,77490,2,0,P|287:206|268:225,1,53.9999983520508
210,226,77721,2,0,P|223:258|293:283,1,107.999996704102
340,237,78067,2,0,P|353:270|350:294,1,53.9999983520508
72,258,78644,6,0,P|80:216|92:205,1,53.9999983520508
144,249,78875,2,0,P|148:195|127:141,1,107.999996704102
65,270,79336,1,0,0:0:0:0:
203,292,79567,2,0,P|217:270|328:298,1,161.999995056153
405,309,80029,2,0,B|409:267|365:242|418:220|448:215|404:194|347:183,1,161.999995056153
324,245,80490,2,0,B|291:241|271:227|329:51,1,215.999993408203
424,155,81182,5,0,0:0:0:0:
414,295,81413,1,0,0:0:0:0:
414,295,81875,1,0,0:0:0:0:
134,314,82336,6,0,P|143:280|136:250,1,53.9999983520508
74,236,82567,1,0,0:0:0:0:
46,171,82682,2,0,P|70:133|98:133,1,53.9999983520508
210,172,83029,2,0,P|258:167|271:162,1,53.9999983520508
331,181,83259,2,0,P|322:136|272:92,1,107.999996704102
142,133,83721,6,0,P|107:127|85:116,1,53.9999983520508
135,65,83952,2,0,P|173:53|192:51,1,53.9999983520508
212,116,84182,2,0,P|224:182|204:235,2,107.999996704102
116,220,84875,2,0,B|114:150|94:146|61:149|53:157|38:177|34:202|33:225|35:241|61:269|80:286|109:308|142:310|162:299|187:290|201:286|207:264|210:234|209:202|200:168,1,431.999986816407
334,132,86029,6,0,B|366:139|362:170|321:178|313:191|303:202|378:207|413:207,1,161.999995056153
430,140,86490,2,0,B|403:122|425:108|460:102|390:53,1,107.999996704102
273,130,86952,6,0,B|239:158|293:188|311:197|187:226,1,161.999995056153
185,155,87413,2,0,B|202:112|161:91|171:78|226:67|282:55,1,161.999995056153
260,127,87875,2,0,B|281:170|306:187|257:207|222:216|213:263,1,161.999995056153
144,264,88336,2,0,P|133:299|135:327,1,53.9999983520508
203,320,88567,2,0,P|255:331|313:322,1,107.999996704102
241,199,89029,6,0,P|247:171|268:147,1,53.9999983520508
310,202,89259,2,0,P|378:185|403:150,1,107.999996704102
335,127,89606,1,0,0:0:0:0:
265,116,89721,2,0,P|250:160|233:225,1,107.999996704102
298,247,90067,1,0,0:0:0:0:
342,301,90182,2,0,P|301:327|176:309,1,161.999995056153
207,250,90644,2,0,P|150:232|62:289,1,161.999995056153
122,324,91106,6,0,P|165:344|282:337,1,161.999995056153
239,279,91567,2,0,P|251:242|316:213,1,107.999996704102
441,263,92029,6,0,P|450:225|450:198,1,53.9999983520508
486,150,92259,2,0,P|438:127|331:151,1,161.999995056153
380,201,92721,2,0,P|378:239|370:263,1,53.9999983520508
303,252,92952,1,0,0:0:0:0:
163,249,93182,1,0,0:0:0:0:
152,108,93413,5,0,0:0:0:0:
152,108,93759,2,0,L|216:102,1,53.9999983520508
202,244,94106,1,0,0:0:0:0:
303,148,94336,1,0,0:0:0:0:
165,175,94567,1,0,0:0:0:0:
149,314,94798,2,0,L|225:311,1,53.9999983520508
238,250,95029,1,0,0:0:0:0:
300,125,95259,2,0,P|346:117|405:151,1,107.999996704102
361,204,95606,1,0,0:0:0:0:
328,265,95721,2,0,P|351:308|360:313,1,53.9999983520508
412,270,95952,2,0,P|450:175|388:88,1,215.999993408203
263,150,96644,6,0,P|186:125|151:105,1,107.999996704102
296,69,97106,1,0,0:0:0:0:
296,69,97452,1,0,0:0:0:0:
299,138,97567,2,0,L|298:199,1,53.9999983520508
227,193,97798,1,0,0:0:0:0:
157,197,97913,1,0,0:0:0:0:
99,237,98029,2,0,P|81:275|88:288,1,53.9999983520508
153,272,98259,2,0,P|209:270|266:294,2,107.999996704102
98,141,98952,6,0,L|161:122,2,53.9999983520508
129,204,99298,1,0,0:0:0:0:
138,273,99413,2,0,L|183:306,1,53.9999983520508
226,250,99644,2,0,P|291:222|396:244,1,161.999995056153
341,294,100106,5,0,0:0:0:0:
217,359,100336,1,0,0:0:0:0:
137,242,100567,6,0,B|112:207|121:190|128:186,1,53.9999983520508
210,194,100798,2,0,B|251:157|243:108|212:91|168:86|106:106,1,202.500007724762
102,189,101259,2,0,P|102:228|103:259,1,67.5000025749208
192,259,101490,2,0,P|227:248|266:257,1,67.5000025749208
345,250,101721,6,0,P|343:184|240:109,1,202.500007724762
157,138,102182,6,0,L|145:208,2,67.5000025749208
68,144,102529,1,0,0:0:0:0:
22,218,102644,2,0,P|70:286|116:312,1,135.000005149842
187,262,102990,1,0,0:0:0:0:
251,322,103106,2,0,P|310:284|355:223,1,135.000005149842
275,185,103452,2,0,P|319:159|343:162,1,67.5000025749208
367,240,103682,5,0,0:0:0:0:
328,319,103798,1,0,0:0:0:0:
241,306,103913,1,0,0:0:0:0:
152,310,104029,2,0,L|138:244,1,67.5000025749208
51,232,104259,2,0,L|105:188,1,67.5000025749208
49,119,104490,2,0,L|195:117,1,135.000005149842
226,194,104836,2,0,L|292:207,2,67.5000025749208
271,118,105182,2,0,L|343:103,3,67.5000025749208
368,186,105644,2,0,L|445:215,1,67.5000025749208
462,127,105875,6,0,L|403:84,1,67.5000025749208
324,116,106106,2,0,L|256:155,1,67.5000025749208
261,62,106336,2,0,L|125:63,1,135.000005149842
110,149,106682,6,0,L|191:180,1,67.5000025749208
130,250,106913,1,0,0:0:0:0:
57,300,107029,2,0,L|24:167,1,135.000005149842
108,140,107375,1,0,0:0:0:0:
192,117,107490,1,0,0:0:0:0:
276,91,107606,1,0,0:0:0:0:
359,66,107721,1,0,0:0:0:0:
444,45,107836,5,0,0:0:0:0:
439,133,107952,2,0,L|437:218,1,67.5000025749208
351,177,108182,2,0,L|351:315,1,135.000005149842
220,333,108586,2,0,L|136:317,1,67.5000025749208
0,283,108875,6,0,L|74:248,1,67.5000025749208
7,183,109106,2,0,L|129:116,1,135.000005149842
298,144,109567,5,0,0:0:0:0:
127,184,109798,1,0,0:0:0:0:
280,269,110029,2,0,P|348:253|408:223,1,135.000005149842
328,182,110375,2,0,P|264:173|195:126,1,135.000005149842
290,114,110721,2,0,P|350:101|370:102,1,67.5000025749208
408,171,110952,2,0,P|411:239|381:298,1,135.000005149842
207,275,111413,2,0,P|247:311|264:328,2,67.5000025749208
71,237,111875,6,0,P|47:172|91:139,1,107.999996704102
137,137,112221,1,0,0:0:0:0:
205,122,112336,1,0,0:0:0:0:
340,160,112567,2,0,P|356:116|316:71,1,107.999996704102
225,177,113029,6,0,P|212:240|214:246,1,53.9999983520508
279,234,113259,2,0,P|288:276|288:294,2,53.9999983520508
140,260,113721,5,0,0:0:0:0:
281,103,114067,1,0,0:0:0:0:
104,217,114413,1,0,0:0:0:0:
383,185,114875,5,0,0:0:0:0:
246,151,115106,1,0,0:0:0:0:
141,243,115336,5,0,0:0:0:0:
113,177,115452,1,0,0:0:0:0:
68,238,115567,6,0,P|67:289|104:351,1,116.999994644165
162,303,115913,2,0,P|207:292|241:292,1,58.4999973220826
362,342,116259,2,0,P|356:252|345:201,1,116.999994644165
240,119,116721,5,0,0:0:0:0:
110,198,116952,1,0,0:0:0:0:
223,298,117182,1,0,0:0:0:0:
372,271,117413,6,0,P|364:192|347:149,1,116.999994644165
275,146,117759,2,0,P|185:139|148:146,1,116.999994644165
198,209,118106,2,0,P|124:196|76:108,1,175.499991966248
151,103,118567,1,0,0:0:0:0:
302,92,118798,1,0,0:0:0:0:
376,224,119029,5,0,0:0:0:0:
339,290,119144,1,0,0:0:0:0:
309,220,119259,1,0,0:0:0:0:
309,220,119375,2,0,L|246:219,2,58.4999973220826
266,283,119721,2,0,P|213:295|189:292,1,58.4999973220826
187,221,119952,2,0,P|127:252|159:357,1,175.499991966248
203,303,120413,6,0,P|251:276|267:278,1,58.4999973220826
328,280,120644,2,0,P|330:238|313:217,1,58.4999973220826
246,210,120875,2,0,P|197:212|175:221,1,58.4999973220826
113,228,121106,2,0,P|132:161|180:135,1,116.999994644165
245,130,121452,5,0,0:0:0:0:
245,130,121567,2,0,P|241:94|231:67,1,58.4999973220826
157,65,121798,2,0,P|74:81|25:168,1,175.499991966248
101,162,122259,6,0,L|91:237,1,58.4999973220826
169,225,122490,2,0,L|174:158,1,58.4999973220826
249,161,122721,1,0,0:0:0:0:
249,199,122779,1,0,0:0:0:0:
249,236,122836,1,0,0:0:0:0:
325,238,122952,2,0,L|324:114,1,116.999994644165
400,118,123298,5,0,0:0:0:0:
400,118,123413,2,0,L|401:187,1,58.4999973220826
403,214,123586,1,0,0:0:0:0:
407,251,123644,2,0,P|454:284|539:209,1,175.499991966248
500,157,124106,5,0,0:0:0:0:
359,99,124336,1,0,0:0:0:0:
210,131,124567,1,0,0:0:0:0:
210,131,124798,2,0,P|145:138|86:127,1,116.999994644165
103,53,125144,1,0,0:0:0:0:
103,53,125259,2,0,P|148:54|180:58,1,58.4999973220826
237,60,125490,1,0,0:0:0:0:
97,330,125952,5,0,0:0:0:0:
248,323,126182,1,0,0:0:0:0:
97,346,126413,1,0,0:0:0:0:
134,341,126471,1,0,0:0:0:0:
158,311,126529,1,0,0:0:0:0:
92,273,126644,2,0,P|95:228|145:173,1,116.999994644165
211,203,126990,1,0,0:0:0:0:
287,205,127106,2,0,P|298:151|295:139,1,58.4999973220826
223,130,127336,2,0,P|231:82|346:98,1,175.499991966248
364,150,127798,6,0,P|373:186|381:215,1,58.4999973220826
450,231,128029,1,0,0:0:0:0:
330,323,128259,1,0,0:0:0:0:
235,203,128490,2,0,P|231:142|206:65,1,116.999994644165
139,84,128836,1,0,0:0:0:0:
104,99,128894,1,0,0:0:0:0:
72,121,128952,1,0,0:0:0:0:
169,237,129182,6,0,B|184:278|170:321|68:328|62:326|36:312,1,175.499991966248
52,242,129644,2,0,P|52:202|74:187,1,58.4999973220826
136,168,129875,2,0,P|194:155|206:153,2,58.4999973220826
114,52,130336,5,0,0:0:0:0:
205,74,130682,1,0,0:0:0:0:
129,131,131029,1,0,0:0:0:0:
283,222,131490,5,0,0:0:0:0:
366,188,131721,1,0,0:0:0:0:
296,131,131952,1,0,0:0:0:0:
210,156,132182,2,0,P|181:207|211:282,2,135
385,197,133336,6,0,P|380:155|373:137,1,45
322,166,133567,1,0,0:0:0:0:
291,53,133798,1,0,0:0:0:0:
322,166,134029,2,0,P|321:217|312:261,1,90
262,283,134375,1,0,0:0:0:0:
204,289,134490,1,0,0:0:0:0:
90,259,134721,2,0,P|81:214|121:133,1,135
173,150,135182,5,0,0:0:0:0:
165,266,135413,1,0,0:0:0:0:
174,149,135644,2,0,P|214:119|221:118,1,45
257,152,135875,2,0,P|327:141|383:105,2,135
23,133,137029,5,0,0:0:0:0:
139,143,137259,1,0,0:0:0:0:
114,196,137375,2,0,L|110:220,2,22.5
142,201,137548,1,0,0:0:0:0:
170,207,137606,1,0,0:0:0:0:
226,221,137721,2,0,P|284:234|326:253,1,90
447,209,138182,5,0,0:0:0:0:
175,137,138644,1,0,0:0:0:0:
448,201,139106,1,0,0:0:0:0:
168,224,139567,1,0,0:0:0:0:
444,174,140029,6,0,P|401:140|348:121,1,107.999996704102
227,188,140490,1,0,0:0:0:0:
108,264,140721,1,0,0:0:0:0:
143,128,140952,2,0,P|202:104|299:101,1,161.999995056153
299,171,141413,1,0,0:0:0:0:
40,280,141875,6,0,P|73:197|143:169,1,161.999995056153
142,239,142336,2,0,P|164:258|189:267,1,53.9999983520508
394,227,142798,6,0,P|322:217|250:155,1,161.999995056153
318,134,143259,2,0,P|347:107|351:85,1,53.9999983520508
209,93,143606,5,0,0:0:0:0:
139,101,143721,2,0,P|118:134|130:207,1,107.999996704102
265,204,144182,1,0,0:0:0:0:
384,277,144413,1,0,0:0:0:0:
249,319,144644,1,0,0:0:0:0:
132,240,144875,2,0,P|100:224|65:219,1,53.9999983520508
90,149,145106,2,0,P|111:122|189:109,1,107.999996704102
318,81,145567,5,0,0:0:0:0:
103,262,146029,1,0,0:0:0:0:
381,229,146490,1,0,0:0:0:0:
433,181,146606,1,0,0:0:0:0:
366,160,146721,1,0,0:0:0:0:
251,241,146952,6,0,P|186:248|104:188,1,161.999995056153
150,139,147413,1,0,0:0:0:0:
259,50,147644,6,0,P|314:49|369:83,1,107.999996704102
252,164,148106,1,0,0:0:0:0:
129,231,148336,2,0,P|208:241|256:241,1,107.999996704102
153,126,148798,1,0,0:0:0:0:
153,126,148913,2,0,P|188:113|317:121,1,161.999995056153
318,188,149375,5,0,0:0:0:0:
313,257,149490,1,0,0:0:0:0:
249,286,149606,1,0,0:0:0:0:
184,311,149721,2,0,B|175:281|185:264|176:242,1,53.9999983520508
120,219,149952,1,0,0:0:0:0:
73,167,150067,1,0,0:0:0:0:
26,114,150182,2,0,P|62:98|133:94,1,107.999996704102
189,221,150644,5,0,0:0:0:0:
189,221,150759,2,0,P|236:225|308:209,1,107.999996704102
289,142,151106,2,0,P|356:148|387:192,1,107.999996704102
450,188,151452,2,0,P|439:146|293:69,1,215.999993408203
230,87,152029,5,0,0:0:0:0:
93,116,152259,1,0,0:0:0:0:
230,87,152490,1,0,0:0:0:0:
230,87,152836,1,0,0:0:0:0:
275,140,152952,1,0,0:0:0:0:
168,231,153182,1,0,0:0:0:0:
168,231,153413,5,0,0:0:0:0:
304,265,153644,1,0,0:0:0:0:
234,142,153875,1,0,0:0:0:0:
234,142,154106,1,0,0:0:0:0:
229,281,154336,2,0,P|171:290|108:278,1,107.999996704102
107,214,154682,1,0,0:0:0:0:
63,158,154798,2,0,P|6:182|9:243,1,107.999996704102
129,275,155259,5,0,0:0:0:0:
268,294,155490,1,0,0:0:0:0:
355,183,155721,1,0,0:0:0:0:
286,60,155952,1,0,0:0:0:0:
150,87,156182,1,0,0:0:0:0:
150,87,156529,5,0,0:0:0:0:
149,156,156644,2,0,P|133:197|135:222,1,53.9999983520508
203,206,157106,2,0,P|262:194|318:202,1,107.999996704102
231,316,157567,6,0,P|184:287|220:255,1,107.999996704102
172,119,158029,1,0,0:0:0:0:
78,307,158375,2,0,P|115:337|138:329,1,53.9999983520508
235,260,158721,5,0,0:0:0:0:
235,260,159182,6,0,P|269:246|286:223,1,53.9999983520508
221,193,159413,1,0,0:0:0:0:
80,185,159644,1,0,0:0:0:0:
163,71,159875,2,0,P|235:63|337:75,1,161.999995056153
295,136,160336,2,0,P|290:180|292:201,1,53.9999983520508
360,181,160567,2,0,P|350:229|295:262,1,107.999996704102
79,192,161029,1,0,0:0:0:0:
170,297,161259,1,0,0:0:0:0:
218,165,161490,2,0,P|200:114|192:101,1,53.9999983520508
131,130,161721,2,0,P|105:169|107:184,2,53.9999983520508
154,63,162067,6,0,P|178:43|203:40,1,53.9999983520508
263,165,162413,2,0,P|282:269|363:358,1,215.999993408203
401,218,163106,1,0,0:0:0:0:
307,114,163336,5,0,0:0:0:0:
166,111,163567,1,0,0:0:0:0:
363,183,163913,1,0,0:0:0:0:
363,183,164029,1,0,0:0:0:0:
249,264,164259,2,0,P|211:262|178:258,1,53.9999983520508
215,192,164490,2,0,P|147:202|128:241,1,107.999996704102
257,290,164952,5,0,0:0:0:0:
299,156,165182,1,0,0:0:0:0:
158,147,165413,2,0,P|112:159|69:200,1,107.999996704102
84,268,165759,1,0,0:0:0:0:
100,336,165875,1,0,0:0:0:0:
232,288,166106,6,0,B|197:228|225:191|281:182|306:171|214:103,1,215.999993408203
90,153,166798,5,0,0:0:0:0:
73,220,166913,1,0,0:0:0:0:
142,230,167029,1,0,0:0:0:0:
164,163,167144,1,0,0:0:0:0:
165,69,167259,6,0,P|233:69|388:113,1,216
303,167,167721,2,0,P|282:247|284:258,1,72
375,231,167952,2,0,P|427:224|460:212,1,72
404,134,168182,2,0,P|347:86|266:62,1,144
152,200,168644,6,0,P|105:185|98:167,1,72
178,118,168875,1,0,0:0:0:0:
280,274,169106,1,0,0:0:0:0:
93,269,169336,2,0,P|85:200|89:122,1,144
265,188,169798,2,0,B|302:185|335:243|234:309|229:316|335:332,1,216
370,246,170259,2,0,P|377:175|376:157,1,72
307,111,170490,1,0,0:0:0:0:
121,134,170721,1,0,0:0:0:0:
307,111,170952,5,0,0:0:0:0:
52,228,171298,5,0,0:0:0:0:
35,319,171413,2,0,P|91:323|116:316,1,72
135,230,171644,2,0,P|207:211|353:236,1,216
337,326,172106,2,0,P|405:321|430:300,1,72
419,227,172336,1,0,0:0:0:0:
433,40,172567,1,0,0:0:0:0:
422,227,172798,6,0,P|364:262|330:264,1,72
267,276,173029,1,0,0:0:0:0:
173,270,173144,2,0,P|106:236|85:215,1,72
290,192,173490,2,0,P|397:147|423:53,1,216
329,59,173952,2,0,P|305:88|253:95,1,72
215,24,174182,2,0,P|185:56|159:227,1,216
246,193,174644,2,0,P|249:259|176:312,1,144
157,222,174990,2,0,P|164:116|187:78,1,144
272,110,175336,2,0,P|326:107|477:173,1,216
412,241,175798,5,0,0:0:0:0:
235,303,176029,1,0,0:0:0:0:
415,348,176259,1,0,0:0:0:0:
284,213,176490,1,0,0:0:0:0:
27,327,176836,6,0,P|23:265|26:239,1,72
211,248,177182,6,0,P|224:163|164:52,1,216
70,57,177644,1,0,0:0:0:0:
70,244,177875,1,0,0:0:0:0:
257,241,178106,1,0,0:0:0:0:
350,241,178221,1,0,0:0:0:0:
443,243,178336,2,0,P|491:201|458:134,1,144
373,167,178682,2,0,P|318:167|207:186,1,144
287,255,179029,2,0,P|214:265|126:247,1,144
293,139,179490,6,0,P|343:117|369:115,1,72
356,209,179721,1,0,0:0:0:0:
169,231,179952,1,0,0:0:0:0:
141,46,180182,2,0,P|242:57|286:67,1,144
254,156,180529,1,0,0:0:0:0:
161,147,180644,2,0,P|112:179|98:208,1,72
11,179,180875,2,0,P|11:243|129:319,1,216
198,259,181336,2,0,P|245:251|285:262,1,72
313,187,181567,5,0,0:0:0:0:
239,135,181798,2,0,P|177:127|163:134,1,58.4999973220826
192,201,182029,2,0,P|134:217|117:114,1,175.499991966248
179,124,182490,1,0,0:0:0:0:
322,174,182721,6,0,P|376:172|394:163,1,58.4999973220826
373,94,182952,2,0,P|429:122|455:233,1,175.499991966248
383,240,183413,1,0,0:0:0:0:
239,289,183644,6,0,P|191:272|160:269,1,58.4999973220826
234,213,183875,2,0,P|193:156|142:143,1,116.999994644165
119,213,184221,1,0,0:0:0:0:
61,261,184336,2,0,P|40:217|67:134,1,116.999994644165
202,123,184798,5,0,0:0:0:0:
265,261,185029,1,0,0:0:0:0:
128,327,185259,1,0,0:0:0:0:
128,327,185490,6,0,P|182:338|205:339,1,58.4999973220826
193,262,185721,2,0,P|211:201|246:158,1,116.999994644165
320,159,186067,1,0,0:0:0:0:
394,147,186182,2,0,P|416:102|414:84,1,58.4999973220826
339,86,186413,2,0,P|249:72|150:71,1,175.499991966248
135,140,186875,5,0,0:0:0:0:
72,278,187106,1,0,0:0:0:0:
123,135,187336,1,0,0:0:0:0:
163,281,187567,6,0,P|233:289|291:283,1,116.999994644165
283,208,187913,1,0,0:0:0:0:
286,169,187971,1,0,0:0:0:0:
296,132,188029,2,0,P|336:120|362:129,1,58.4999973220826
374,195,188259,2,0,P|426:150|387:52,1,175.499991966248
321,56,188721,2,0,P|270:55|239:57,1,58.4999973220826
239,128,188952,1,0,0:0:0:0:
99,187,189182,6,0,P|86:246|87:250,1,58.4999973220826
161,232,189413,2,0,P|170:284|60:321,1,175.499991966248
58,295,189817,1,0,0:0:0:0:
40,261,189875,1,0,0:0:0:0:
109,125,190106,6,0,P|149:107|174:108,1,58.4999973220826
220,156,190336,2,0,P|223:84|190:42,1,116.999994644165
118,179,190798,1,0,0:0:0:0:
249,255,191029,6,0,P|293:269|327:286,1,58.4999973220826
358,327,191259,2,0,P|370:209|369:183,1,116.999994644165
294,195,191606,1,0,0:0:0:0:
220,176,191721,2,0,P|224:113|231:99,1,58.4999973220826
297,103,191952,1,0,0:0:0:0:
411,201,192182,5,0,0:0:0:0:
330,330,192413,2,0,P|298:309|277:283,1,58.4999973220826
321,226,192644,2,0,P|362:248|381:270,2,58.4999973220826
175,274,193106,6,0,P|92:231|85:196,1,116.999994644165
157,185,193452,1,0,0:0:0:0:
226,155,193567,1,0,0:0:0:0:
74,142,193798,2,0,P|159:107|257:73,1,175.499991966248
230,154,194259,1,0,0:0:0:0:
92,219,194490,1,0,0:0:0:0:
232,276,194721,1,0,0:0:0:0:
223,159,194952,6,0,B|246:115|276:137|291:163|319:158|341:117,2,135
70,254,196106,5,0,0:0:0:0:
146,207,196336,1,0,0:0:0:0:
69,255,196567,1,0,0:0:0:0:
110,109,211567,6,0,B|93:129|121:167|144:189|115:243,1,135
185,240,212029,1,0,0:0:0:0:
274,246,212259,1,0,0:0:0:0:
328,174,212490,1,0,0:0:0:0:
238,161,212721,1,0,0:0:0:0:
295,91,212952,5,0,0:0:0:0:
384,100,213182,1,0,0:0:0:0:
430,177,213413,1,0,0:0:0:0:
416,265,213644,1,0,0:0:0:0:
371,272,213759,1,0,0:0:0:0:
326,281,213875,1,0,0:0:0:0:
285,200,214106,5,0,0:0:0:0:
250,282,214336,1,0,0:0:0:0:
159,283,214567,1,0,0:0:0:0:
68,285,214798,1,0,0:0:0:0:
64,194,215029,1,0,0:0:0:0:
152,205,215259,2,0,P|172:169|162:120,1,90
118,118,215606,2,0,P|114:88|119:66,1,45
205,57,215952,5,0,0:0:0:0:
281,103,216182,1,0,0:0:0:0:
261,191,216413,1,0,0:0:0:0:
351,191,216644,1,0,0:0:0:0:
378,105,216875,1,0,0:0:0:0:
462,73,217106,6,0,P|465:121|465:173,1,90
420,169,217452,1,0,0:0:0:0:
375,169,217567,1,0,0:0:0:0:
285,182,217798,1,0,0:0:0:0:
289,271,218029,1,0,0:0:0:0:
199,274,218259,5,0,0:0:0:0:
171,188,218490,1,0,0:0:0:0:
119,262,218721,1,0,0:0:0:0:
95,223,218836,1,0,0:0:0:0:
58,195,218952,2,0,P|39:247|36:289,1,90
76,300,219298,2,0,P|88:342|85:350,1,45
177,351,219644,5,0,0:0:0:0:
178,260,219875,1,0,0:0:0:0:
254,307,220106,5,0,0:0:0:0:
259,217,220336,1,0,0:0:0:0:
338,258,220567,1,0,0:0:0:0:
428,255,220798,2,0,P|436:212|417:171,2,90
339,238,221490,1,0,0:0:0:0:
249,232,221721,5,0,0:0:0:0:
226,144,221952,1,0,0:0:0:0:
245,231,222182,1,0,0:0:0:0:
167,276,222413,1,0,0:0:0:0:
108,207,222644,2,0,P|84:171|79:114,1,90
121,116,222990,1,0,0:0:0:0:
137,73,223106,2,0,P|193:62|238:70,1,90
247,105,223452,1,0,0:0:0:0:
264,146,223567,5,0,0:0:0:0:
348,178,223798,1,0,0:0:0:0:
272,226,224029,1,0,0:0:0:0:
200,279,224259,5,0,0:0:0:0:
190,189,224490,1,0,0:0:0:0:
201,278,224721,1,0,0:0:0:0:
125,228,224952,2,0,P|81:186|77:153,1,90
163,135,225413,1,0,0:0:0:0:
115,58,225644,1,0,0:0:0:0:
27,79,225875,1,0,0:0:0:0:
23,123,225990,1,0,0:0:0:0:
24,168,226106,1,0,0:0:0:0:
26,212,226221,1,0,0:0:0:0:
406,67,228182,6,0,P|409:113|403:145,1,58.4999973220826
348,127,228413,1,0,0:0:0:0:
289,129,228529,1,0,0:0:0:0:
228,128,228644,2,0,P|222:174|225:197,1,58.4999973220826
294,212,228875,2,0,P|234:267|191:265,1,116.999994644165
111,145,229336,5,0,0:0:0:0:
87,295,229567,1,0,0:0:0:0:
196,189,229798,1,0,0:0:0:0:
43,188,230029,2,0,P|18:226|21:252,1,58.4999973220826
244,265,230490,6,0,P|287:258|310:263,1,58.4999973220826
276,332,230721,1,0,0:0:0:0:
257,180,230952,2,0,P|252:124|272:58,1,116.999994644165
342,82,231298,1,0,0:0:0:0:
417,86,231413,2,0,P|408:124|396:147,1,58.4999973220826
323,150,231644,1,0,0:0:0:0:
171,138,231875,5,0,0:0:0:0:
268,255,232106,1,0,0:0:0:0:
116,250,232336,1,0,0:0:0:0:
57,109,232567,6,0,P|121:58|227:55,1,175.499991966248
180,120,233029,2,0,P|165:160|163:183,1,58.4999973220826
238,171,233259,2,0,P|292:177|301:173,1,58.4999973220826
273,102,233490,1,0,0:0:0:0:
216,50,233606,1,0,0:0:0:0:
140,50,233721,2,0,P|92:103|73:159,1,116.999994644165
147,169,234067,2,0,P|158:215|143:287,1,116.999994644165
70,300,234413,2,0,P|99:346|166:357,1,116.999994644165
208,302,234759,2,0,P|231:243|231:239,1,58.4999973220826
104,162,235106,5,0,0:0:0:0:
254,143,235336,1,0,0:0:0:0:
101,147,235567,2,0,P|87:213|98:287,1,116.999994644165
167,256,235913,2,0,P|195:250|233:258,1,58.4999973220826
365,198,236259,6,0,B|381:133|336:81|213:47,1,233.999989288331
202,123,236836,2,0,P|169:97|160:73,1,58.4999973220826
308,39,237182,1,0,0:0:0:0:
343,106,237298,1,0,0:0:0:0:
313,175,237413,2,0,P|292:215|297:298,1,116.999994644165
365,263,237759,2,0,P|356:312|286:371,1,116.999994644165
238,335,238106,2,0,P|206:339|117:380,1,116.999994644165
51,240,238567,6,0,P|56:200|66:176,1,58.4999973220826
131,215,238798,2,0,P|138:151|111:101,1,116.999994644165
62,248,239259,6,0,P|106:322|249:347,1,233.999989288331
244,272,239836,1,0,0:0:0:0:
252,196,239952,2,0,P|299:150|446:191,1,233.999989288331
412,259,240529,1,0,0:0:0:0:
336,262,240644,1,0,0:0:0:0:
362,112,240875,5,0,0:0:0:0:
296,150,240990,1,0,0:0:0:0:
365,181,241106,2,0,P|421:183|487:201,1,116.999994644165
412,259,241452,2,0,P|396:292|391:323,1,58.4999973220826
244,275,241798,6,0,P|215:191|231:149,1,116.999994644165
371,191,242259,2,0,P|399:174|412:151,1,58.4999973220826
340,124,242490,2,0,P|295:87|281:27,1,116.999994644165
425,79,242952,2,0,P|464:109|469:127,1,58.4999973220826
400,152,243182,2,0,P|381:185|384:213,1,58.4999973220826
457,208,243413,1,0,0:0:0:0:
457,208,243644,2,0,P|437:272|275:272,1,233.999989288331
307,213,244221,6,0,P|269:167|261:165,1,58.4999973220826
197,160,244452,1,0,0:0:0:0:
121,163,244567,2,0,P|107:116|113:100,1,58.4999973220826
177,74,244798,2,0,P|150:40|126:36,2,58.4999973220826
253,76,245144,2,0,P|295:61|304:52,1,58.4999973220826
410,160,245490,6,0,P|391:226|341:275,1,116.999994644165
223,194,245952,2,0,P|205:162|206:130,1,58.4999973220826
279,144,246182,1,0,0:0:0:0:
126,146,246413,1,0,0:0:0:0:
236,41,246644,2,0,P|296:41|363:50,1,116.999994644165
360,123,246990,2,0,P|367:167|372:183,1,58.4999973220826
292,310,247336,2,0,P|258:256|246:122,1,175.499991966248
318,145,247798,5,0,0:0:0:0:
400,273,248029,1,0,0:0:0:0:
454,131,248259,5,0,0:0:0:0:
454,131,248375,1,0,0:0:0:0:
454,131,248490,2,0,P|396:91|352:75,1,116.999994644165
318,145,248836,2,0,P|275:117|255:95,1,58.4999973220826
296,40,249067,1,0,0:0:0:0:
222,59,249182,2,0,P|158:124|157:262,1,233.999989288331
230,243,249759,6,0,P|291:226|296:227,1,58.4999973220826
282,301,249990,2,0,P|197:320|167:310,1,116.999994644165
158,236,250336,2,0,P|176:148|189:121,1,116.999994644165
262,139,250682,2,0,P|257:108|267:78,1,58.4999973220826
392,165,251029,6,0,P|371:236|276:283,1,175.499991966248
240,222,251490,6,0,L|237:152,1,58.4999973220826
164,141,251721,1,0,0:0:0:0:
164,141,251836,1,0,0:0:0:0:
164,141,251952,2,0,P|199:108|220:98,1,58.4999973220826
173,35,252182,2,0,P|270:53|344:97,1,175.499991966248
296,156,252644,2,0,P|283:217|278:279,1,116.999994644165
208,240,252990,6,0,B|168:174|217:117|151:75,1,175.499991966248
88,113,253452,1,0,0:0:0:0:
40,172,253567,2,0,P|11:230|11:243,2,58.4999973220826
91,115,253913,1,0,0:0:0:0:
166,100,254029,2,0,P|246:93|292:73,1,116.999994644165
266,4,254375,2,0,P|301:11|324:21,1,58.4999973220826
410,143,254721,6,0,P|306:211|240:209,1,175.499991966248
227,143,255182,2,0,P|270:135|296:132,1,58.4999973220826
251,64,255413,2,0,P|187:49|126:55,1,116.999994644165
127,119,255875,5,0,0:0:0:0:
111,219,256221,1,0,0:0:0:0:
196,164,256567,1,0,0:0:0:0:
275,272,257029,5,0,0:0:0:0:
313,217,257259,1,0,0:0:0:0:
246,206,257490,1,0,0:0:0:0:
284,150,257721,1,0,0:0:0:0:
185,128,258067,5,0,0:0:0:0:
102,187,258413,1,0,0:0:0:0:
233,219,258875,5,0,0:0:0:0:
294,246,259106,1,0,0:0:0:0:
323,185,259336,2,0,P|342:150|348:144,1,33.7500012874604
357,127,259567,2,0,B|404:96|416:133|445:152,2,101.250003862381
222,135,260721,5,0,0:0:0:0:
158,158,260952,1,0,0:0:0:0:
197,212,261182,1,0,0:0:0:0:
129,218,261413,1,0,0:0:0:0:
184,302,261759,5,0,0:0:0:0:
285,305,262106,1,0,0:0:0:0:
285,305,262567,5,0,0:0:0:0:
309,242,262798,1,0,0:0:0:0:
246,215,263029,1,0,0:0:0:0:
182,193,263259,2,0,P|176:149|204:91,2,101.250003862381
313,160,264413,5,0,0:0:0:0:
291,223,264644,1,0,0:0:0:0:
313,160,264875,1,0,0:0:0:0:
288,223,265106,2,0,P|214:214|188:193,2,101.250003862381
174,149,266259,5,0,0:0:0:0:
240,161,266490,1,0,0:0:0:0:
225,227,266721,1,0,0:0:0:0:
287,253,266952,2,0,P|373:265|397:261,2,101.250003862381
205,145,268106,5,0,0:0:0:0:
271,133,268337,1,0,0:0:0:0:
256,67,268568,1,0,0:0:0:0:
318,41,268799,2,0,P|404:29|428:33,2,101.250003862381
338,235,269951,5,0,0:0:0:0:
272,223,270182,1,0,0:0:0:0:
287,157,270413,1,0,0:0:0:0:
225,131,270644,2,0,P|139:119|115:123,2,101.250003862381
360,134,271798,5,0,0:0:0:0:
338,197,272029,1,0,0:0:0:0:
360,134,272259,1,0,0:0:0:0:
338,197,272490,2,0,L|310:205,2,16.8750006437302
290,148,272836,5,0,0:0:0:0:
189,158,273182,1,0,0:0:0:0:
260,272,273644,1,0,0:0:0:0:
192,264,273875,1,0,0:0:0:0:
237,214,274106,1,0,0:0:0:0:
