osu file format v14

[General]
AudioFilename: audio.mp3
AudioLeadIn: 0
PreviewTime: 173541
Countdown: 0
SampleSet: Soft
StackLeniency: 0.7
Mode: 3
LetterboxInBreaks: 0
SpecialStyle: 0
WidescreenStoryboard: 0

[Editor]
DistanceSpacing: 0.8
BeatDivisor: 4
GridSize: 8
TimelineZoom: 2.999999

[Metadata]
Title:Kuusou Ressha
TitleUnicode:空奏列車
Artist:Orangestar
ArtistUnicode:Orangestar
Creator:dakemoto
Version:Insane
Source:未完成エイトビーツ
Tags:VOCALOID,IA,Miku
BeatmapID:1029607
BeatmapSetID:482507

[Difficulty]
HPDrainRate:8
CircleSize:4
OverallDifficulty:8
ApproachRate:5
SliderMultiplier:1.4
SliderTickRate:1

[Events]
//Background and Video events
0,0,"Kuusou Ressha bg.jpg",0,0
//Break Periods
//Storyboard Layer 0 (Background)
//Storyboard Layer 1 (Fail)
//Storyboard Layer 2 (Pass)
//Storyboard Layer 3 (Foreground)
//Storyboard Sound Samples

[TimingPoints]
3058,342.857142857143,4,2,0,30,1,0

[HitObjects]
448,192,3057,5,0,0:0:0:0:
320,192,3229,1,0,0:0:0:0:
64,192,3400,1,0,0:0:0:0:
192,192,3400,1,0,0:0:0:0:
448,192,3572,1,0,0:0:0:0:
64,192,3743,1,0,0:0:0:0:
192,192,3915,1,0,0:0:0:0:
448,192,3915,1,0,0:0:0:0:
320,192,4086,1,0,0:0:0:0:
192,192,4258,1,0,0:0:0:0:
64,192,4429,1,0,0:0:0:0:
320,192,4429,1,0,0:0:0:0:
448,192,4600,1,0,0:0:0:0:
192,192,4772,1,0,0:0:0:0:
320,192,4943,1,0,0:0:0:0:
64,192,4943,1,0,0:0:0:0:
448,192,5115,1,0,0:0:0:0:
320,192,5286,1,0,0:0:0:0:
192,192,5458,1,0,0:0:0:0:
64,192,5458,1,0,0:0:0:0:
448,192,5629,1,0,0:0:0:0:
64,192,5800,1,0,0:0:0:0:
192,192,5972,1,0,0:0:0:0:
448,192,5972,1,0,0:0:0:0:
320,192,6143,1,0,0:0:0:0:
192,192,6315,1,0,0:0:0:0:
320,192,6486,1,0,0:0:0:0:
64,192,6486,1,0,0:0:0:0:
448,192,6658,1,0,0:0:0:0:
192,192,6829,1,0,0:0:0:0:
320,192,7000,1,0,0:0:0:0:
64,192,7000,1,0,0:0:0:0:
192,192,7172,1,0,0:0:0:0:
448,192,7172,1,0,0:0:0:70:finish1.wav
64,192,7172,1,0,0:0:0:70:kick1.wav
320,192,7343,1,0,0:0:0:0:
320,192,7515,1,0,0:0:0:0:
64,192,7515,1,0,0:0:0:70:kick1.wav
448,192,7515,1,0,0:0:0:0:
192,192,7686,1,0,0:0:0:0:
320,192,7858,1,0,0:0:0:0:
64,192,7858,1,0,0:0:0:70:kick1.wav
448,192,8029,1,0,0:0:0:0:
192,192,8200,1,0,0:0:0:0:
64,192,8200,1,0,0:0:0:70:kick1.wav
320,192,8372,1,0,0:0:0:70:hithat2.wav
448,192,8372,1,0,0:0:0:0:
192,192,8543,1,0,0:0:0:0:
64,192,8543,1,0,0:0:0:70:kick1.wav
448,192,8715,1,0,0:0:0:70:hithat1.wav
320,192,8886,1,0,0:0:0:0:
64,192,8886,1,0,0:0:0:70:kick1.wav
192,192,9058,1,0,0:0:0:70:hithat1.wav
320,192,9229,1,0,0:0:0:70:hithat2.wav
64,192,9229,1,0,0:0:0:70:kick1.wav
448,192,9229,1,0,0:0:0:0:
192,192,9400,1,0,0:0:0:0:
64,192,9572,1,0,0:0:0:70:kick1.wav
448,192,9572,1,0,0:0:0:0:
320,192,9743,1,0,0:0:0:0:
192,192,9915,1,0,0:0:0:0:
64,192,9915,1,0,0:0:0:70:kick1.wav
448,192,10086,1,0,0:0:0:0:
320,192,10258,1,0,0:0:0:0:
64,192,10258,1,0,0:0:0:70:kick1.wav
192,192,10429,1,0,0:0:0:0:
448,192,10429,1,0,0:0:0:70:hithat2.wav
320,192,10600,1,0,0:0:0:0:
64,192,10600,1,0,0:0:0:70:kick1.wav
448,192,10772,1,0,0:0:0:70:hithat1.wav
192,192,10943,1,0,0:0:0:0:
64,192,10943,1,0,0:0:0:70:kick1.wav
320,192,11115,1,0,0:0:0:70:hithat1.wav
448,192,11286,1,0,0:0:0:70:finish1.wav
64,192,11286,1,0,0:0:0:70:kick1.wav
192,192,11286,1,0,0:0:0:0:
320,192,11372,1,0,0:0:0:0:
64,192,11458,1,0,0:0:0:0:
192,192,11543,1,0,0:0:0:0:
320,192,11629,1,0,0:0:0:0:
448,192,11629,1,0,0:0:0:70:snare2.wav
64,192,11629,1,0,0:0:0:0:
192,192,11715,1,0,0:0:0:0:
448,192,11800,1,0,0:0:0:0:
320,192,11886,1,0,0:0:0:0:
448,192,11972,1,0,0:0:0:70:kick1.wav
192,192,11972,1,0,0:0:0:0:
64,192,12058,1,0,0:0:0:0:
192,192,12143,1,0,0:0:0:0:
320,192,12229,1,0,0:0:0:0:
192,192,12315,1,0,0:0:0:0:
448,192,12315,1,0,0:0:0:0:
64,192,12315,1,0,0:0:0:70:snare2.wav
320,192,12400,1,0,0:0:0:0:
64,192,12486,1,0,0:0:0:0:
192,192,12572,1,0,0:0:0:0:
448,192,12658,1,0,0:0:0:70:kick1.wav
320,192,12658,1,0,0:0:0:0:
64,192,12743,1,0,0:0:0:0:
320,192,12829,1,0,0:0:0:0:
192,192,12915,1,0,0:0:0:0:
448,192,13000,1,0,0:0:0:70:snare1.wav
64,192,13000,1,0,0:0:0:0:
192,192,13086,1,0,0:0:0:0:
320,192,13086,1,0,0:0:0:70:snare1.wav
64,192,13172,1,0,0:0:0:0:
448,192,13172,1,0,0:0:0:70:snare1.wav
320,192,13343,1,0,0:0:0:0:
448,192,13343,1,0,0:0:0:70:finish1.wav
64,192,13343,1,0,0:0:0:70:kick1.wav
192,192,13429,1,0,0:0:0:0:
320,192,13515,1,0,0:0:0:0:
64,192,13600,1,0,0:0:0:0:
192,192,13686,1,0,0:0:0:0:
448,192,13686,1,0,0:0:0:70:snare2.wav
320,192,13686,1,0,0:0:0:0:
64,192,13772,1,0,0:0:0:0:
320,192,13858,1,0,0:0:0:0:
192,192,13943,1,0,0:0:0:0:
64,192,14029,1,0,0:0:0:70:kick1.wav
448,192,14029,1,0,0:0:0:0:
320,192,14115,1,0,0:0:0:0:
192,192,14200,1,0,0:0:0:0:
448,192,14286,1,0,0:0:0:0:
64,192,14372,1,0,0:0:0:70:snare2.wav
192,192,14372,1,0,0:0:0:0:
320,192,14372,1,0,0:0:0:0:
448,192,14458,1,0,0:0:0:0:
64,192,14543,1,0,0:0:0:0:
192,192,14629,1,0,0:0:0:0:
320,192,14715,1,0,0:0:0:0:
448,192,14715,1,0,0:0:0:70:kick1.wav
64,192,14800,1,0,0:0:0:0:
192,192,14886,1,0,0:0:0:0:
320,192,14972,1,0,0:0:0:0:
64,192,15058,1,0,0:0:0:0:
448,192,15058,1,0,0:0:0:70:snare1.wav
320,192,15143,1,0,0:0:0:70:snare1.wav
192,192,15143,1,0,0:0:0:0:
448,192,15229,1,0,0:0:0:70:snare1.wav
64,192,15229,1,0,0:0:0:0:
192,192,15315,1,0,0:0:0:0:
320,192,15315,1,0,0:0:0:70:snare1.wav
64,192,15400,1,0,0:0:0:70:finish1.wav
448,192,15400,1,0,0:0:0:70:snare1.wav
320,192,15572,1,0,0:0:0:0:
192,192,15743,1,0,0:0:0:70:snare1.wav
448,192,15743,1,0,0:0:0:0:
320,192,15829,1,0,0:0:0:70:snare1.wav
64,192,15915,1,0,0:0:0:0:
448,192,15915,1,0,0:0:0:70:snare1.wav
192,192,16000,1,0,0:0:0:70:snare1.wav
320,192,16086,1,0,0:0:0:70:snare1.wav
64,192,16086,1,0,0:0:0:0:
448,192,16172,1,0,0:0:0:70:snare1.wav
192,192,16258,1,0,0:0:0:70:snare1.wav
64,192,16258,1,0,0:0:0:0:
320,192,16343,1,0,0:0:0:70:snare1.wav
448,192,16429,1,0,0:0:0:70:snare1.wav
192,192,16429,1,0,0:0:0:0:
320,192,16515,1,0,0:0:0:70:snare1.wav
192,192,16600,1,0,0:0:0:70:snare1.wav
64,192,16600,1,0,0:0:0:0:
448,192,16686,1,0,0:0:0:70:snare1.wav
192,192,16772,1,0,0:0:0:0:
320,192,16772,1,0,0:0:0:70:snare1.wav
64,192,16858,1,0,0:0:0:70:snare1.wav
448,192,16943,1,0,0:0:0:0:
320,192,16943,1,0,0:0:0:70:snare1.wav
64,192,17029,1,0,0:0:0:70:snare1.wav
192,192,17115,1,0,0:0:0:70:snare1.wav
448,192,17115,1,0,0:0:0:0:
320,192,17200,1,0,0:0:0:70:snare1.wav
448,192,17286,1,0,0:0:0:0:
192,192,17286,1,0,0:0:0:70:snare1.wav
64,192,17372,1,0,0:0:0:70:snare1.wav
320,192,17458,1,0,0:0:0:70:snare1.wav
448,192,17458,1,0,0:0:0:0:
192,192,17543,1,0,0:0:0:70:snare1.wav
448,192,17629,1,0,0:0:0:0:
64,192,17629,1,0,0:0:0:70:snare1.wav
192,192,17715,1,0,0:0:0:70:snare1.wav
320,192,17800,1,0,0:0:0:70:snare1.wav
448,192,17800,1,0,0:0:0:0:
64,192,17886,1,0,0:0:0:70:snare1.wav
448,192,17972,1,0,0:0:0:0:
192,192,17972,1,0,0:0:0:70:snare1.wav
64,192,18058,1,0,0:0:0:70:snare1.wav
320,192,18143,1,0,0:0:0:70:snare1.wav
448,192,18143,1,0,0:0:0:0:
192,192,18229,1,0,0:0:0:70:snare1.wav
64,192,18229,1,0,0:0:0:0:
320,192,18315,1,0,0:0:0:70:snare2.wav
448,192,18315,1,0,0:0:0:0:
64,192,18400,1,0,0:0:0:0:
192,192,18400,1,0,0:0:0:70:snare2.wav
320,192,18486,1,0,0:0:0:70:snare2.wav
448,192,18486,1,0,0:0:0:0:
192,192,18572,1,0,0:0:0:70:snare2.wav
64,192,18572,1,0,0:0:0:0:
320,192,18658,1,0,0:0:0:70:snare2.wav
448,192,18658,1,0,0:0:0:0:
192,192,18743,1,0,0:0:0:70:snare2.wav
64,192,18743,1,0,0:0:0:0:
320,192,18829,1,0,0:0:0:0:
448,192,19000,1,0,0:0:0:0:
64,192,19172,1,0,0:0:0:0:
192,192,19343,1,0,0:0:0:0:
64,192,19515,1,0,0:0:0:0:
320,192,19515,1,0,0:0:0:0:
192,192,19686,1,0,0:0:0:0:
448,192,19686,1,0,0:0:0:0:
320,192,19858,1,0,0:0:0:0:
64,192,19858,1,0,0:0:0:0:
64,192,20029,1,0,0:0:0:0:
192,192,20029,1,0,0:0:0:0:
192,192,20200,1,0,0:0:0:70:kick1.wav
448,192,20200,1,0,0:0:0:70:finish1.wav
64,192,20200,128,0,20372:0:0:0:0:
192,192,20372,128,0,20543:0:0:0:0:
448,192,20543,128,0,20715:0:0:0:0:
320,192,20543,1,0,0:0:0:0:
64,192,20543,1,0,0:0:0:70:snare1.wav
64,192,20715,128,0,20886:0:0:0:0:
192,192,20886,128,0,21058:0:0:0:0:
448,192,20886,1,0,0:0:0:70:kick1.wav
320,192,21058,128,0,21229:0:0:0:0:
64,192,21229,128,0,21400:0:0:0:0:
192,192,21229,1,0,0:0:0:0:
448,192,21229,1,0,0:0:0:70:snare1.wav
448,192,21400,128,0,21572:0:0:0:0:
192,192,21400,1,0,0:0:0:70:finish1.wav
320,192,21400,1,0,0:0:0:0:
320,192,21572,128,0,21743:0:0:0:0:
64,192,21572,1,0,0:0:0:70:kick1.wav
64,192,21743,128,0,21915:0:0:0:0:
192,192,21915,128,0,22086:0:0:0:0:
320,192,21915,1,0,0:0:0:0:
448,192,21915,1,0,0:0:0:70:snare1.wav
320,192,22086,128,0,22258:0:0:0:0:
448,192,22258,128,0,22429:0:0:0:0:
64,192,22258,1,0,0:0:0:70:kick1.wav
320,192,22429,128,0,22600:0:0:0:0:
192,192,22600,128,0,22772:0:0:0:0:
64,192,22600,1,0,0:0:0:0:
448,192,22600,1,0,0:0:0:70:snare1.wav
64,192,22772,128,0,22943:0:0:0:0:
320,192,22943,128,0,23115:0:0:0:0:
192,192,22943,1,0,0:0:0:70:kick1.wav
448,192,22943,1,0,0:0:0:70:finish1.wav
192,192,23115,128,0,23286:0:0:0:0:
448,192,23286,128,0,23458:0:0:0:0:
320,192,23286,1,0,0:0:0:0:
64,192,23286,1,0,0:0:0:70:snare1.wav
64,192,23458,128,0,23629:0:0:0:0:
320,192,23629,128,0,23800:0:0:0:0:
448,192,23629,1,0,0:0:0:70:kick1.wav
192,192,23800,128,0,23972:0:0:0:0:
448,192,23972,128,0,24143:0:0:0:0:
64,192,23972,1,0,0:0:0:70:snare1.wav
320,192,23972,1,0,0:0:0:0:
64,192,24143,128,0,24315:0:0:0:0:
192,192,24143,1,0,0:0:0:70:finish1.wav
320,192,24143,1,0,0:0:0:0:
192,192,24315,128,0,24486:0:0:0:0:
448,192,24315,1,0,0:0:0:70:kick1.wav
448,192,24486,128,0,24658:0:0:0:0:
320,192,24658,128,0,24829:0:0:0:0:
64,192,24658,1,0,0:0:0:70:snare1.wav
192,192,24658,1,0,0:0:0:0:
192,192,24829,128,0,25000:0:0:0:0:
64,192,25000,128,0,25172:0:0:0:0:
448,192,25000,1,0,0:0:0:70:kick1.wav
192,192,25172,128,0,25343:0:0:0:0:
320,192,25343,128,0,25515:0:0:0:0:
64,192,25343,1,0,0:0:0:0:
448,192,25343,1,0,0:0:0:70:snare1.wav
448,192,25515,128,0,25686:0:0:0:0:
192,192,25686,1,0,0:0:0:70:finish1.wav
64,192,25686,128,0,25858:0:0:0:0:
320,192,25686,1,0,0:0:0:70:kick1.wav
192,192,25858,128,0,26029:0:0:0:0:
448,192,26029,128,0,26200:0:0:0:0:
320,192,26029,1,0,0:0:0:0:
64,192,26029,1,0,0:0:0:70:snare1.wav
64,192,26200,128,0,26372:0:0:0:0:
192,192,26372,128,0,26543:0:0:0:0:
448,192,26372,1,0,0:0:0:70:kick1.wav
320,192,26543,128,0,26715:0:0:0:0:
64,192,26715,128,0,26886:0:0:0:0:
192,192,26715,1,0,0:0:0:0:
448,192,26715,1,0,0:0:0:70:snare1.wav
448,192,26886,128,0,27058:0:0:0:0:
320,192,26886,1,0,0:0:0:0:
192,192,26886,1,0,0:0:0:70:finish1.wav
320,192,27058,128,0,27229:0:0:0:0:
64,192,27058,1,0,0:0:0:70:kick1.wav
64,192,27229,128,0,27400:0:0:0:0:
192,192,27400,128,0,27572:0:0:0:0:
448,192,27400,1,0,0:0:0:70:snare1.wav
320,192,27400,1,0,0:0:0:0:
320,192,27572,128,0,27743:0:0:0:0:
448,192,27743,128,0,27915:0:0:0:0:
64,192,27743,1,0,0:0:0:70:kick1.wav
192,192,27743,1,0,0:0:0:0:
320,192,27915,128,0,28086:0:0:0:0:
192,192,28086,128,0,28258:0:0:0:0:
448,192,28086,1,0,0:0:0:70:snare1.wav
64,192,28086,1,0,0:0:0:0:
64,192,28258,128,0,28429:0:0:0:0:
320,192,28429,128,0,28600:0:0:0:0:
192,192,28429,1,0,0:0:0:70:finish1.wav
448,192,28429,1,0,0:0:0:70:kick1.wav
192,192,28600,128,0,28772:0:0:0:0:
448,192,28772,128,0,28943:0:0:0:0:
64,192,28772,1,0,0:0:0:70:snare1.wav
320,192,28772,1,0,0:0:0:0:
64,192,28943,128,0,29115:0:0:0:0:
320,192,29115,128,0,29286:0:0:0:0:
192,192,29115,1,0,0:0:0:70:kick1.wav
192,192,29286,128,0,29458:0:0:0:0:
448,192,29458,128,0,29629:0:0:0:0:
64,192,29458,1,0,0:0:0:70:snare1.wav
320,192,29458,1,0,0:0:0:0:
64,192,29629,128,0,29800:0:0:0:0:
192,192,29629,1,0,0:0:0:70:finish1.wav
320,192,29629,1,0,0:0:0:0:
192,192,29800,128,0,29972:0:0:0:0:
448,192,29800,1,0,0:0:0:70:kick1.wav
448,192,29972,128,0,30143:0:0:0:0:
320,192,30143,128,0,30315:0:0:0:0:
64,192,30143,1,0,0:0:0:70:snare1.wav
192,192,30143,1,0,0:0:0:0:
192,192,30315,128,0,30486:0:0:0:0:
64,192,30486,128,0,30658:0:0:0:0:
448,192,30486,1,0,0:0:0:70:kick1.wav
192,192,30658,128,0,30829:0:0:0:0:
320,192,30829,128,0,31000:0:0:0:0:
64,192,30829,1,0,0:0:0:70:snare1.wav
192,192,30915,1,0,0:0:0:70:snare1.wav
64,192,31000,1,0,0:0:0:70:snare1.wav
448,192,31000,128,0,31172:0:0:0:0:
192,192,31172,1,0,0:0:0:70:kick1.wav
320,192,31172,1,0,0:0:0:70:finish1.wav
64,192,31172,128,0,31343:0:0:0:0:
192,192,31343,128,0,31515:0:0:0:0:
448,192,31515,128,0,31686:0:0:0:0:
320,192,31515,1,0,0:0:0:0:
64,192,31515,1,0,0:0:0:70:snare1.wav
64,192,31686,128,0,31858:0:0:0:0:
192,192,31858,128,0,32029:0:0:0:0:
448,192,31858,1,0,0:0:0:70:kick1.wav
320,192,32029,128,0,32200:0:0:0:0:
64,192,32200,128,0,32372:0:0:0:0:
192,192,32200,1,0,0:0:0:0:
448,192,32200,1,0,0:0:0:70:snare1.wav
448,192,32372,128,0,32543:0:0:0:0:
192,192,32372,1,0,0:0:0:70:finish1.wav
320,192,32372,1,0,0:0:0:0:
320,192,32543,128,0,32715:0:0:0:0:
64,192,32543,1,0,0:0:0:70:kick1.wav
64,192,32715,128,0,32886:0:0:0:0:
192,192,32886,128,0,33058:0:0:0:0:
320,192,32886,1,0,0:0:0:0:
448,192,32886,1,0,0:0:0:70:snare1.wav
320,192,33058,128,0,33229:0:0:0:0:
448,192,33229,128,0,33400:0:0:0:0:
64,192,33229,1,0,0:0:0:70:kick1.wav
320,192,33400,128,0,33572:0:0:0:0:
192,192,33572,128,0,33743:0:0:0:0:
64,192,33572,1,0,0:0:0:0:
448,192,33572,1,0,0:0:0:70:snare1.wav
64,192,33743,128,0,33915:0:0:0:0:
320,192,33915,128,0,34086:0:0:0:0:
192,192,33915,1,0,0:0:0:70:kick1.wav
448,192,33915,1,0,0:0:0:70:finish1.wav
192,192,34086,128,0,34258:0:0:0:0:
448,192,34258,128,0,34429:0:0:0:0:
320,192,34258,1,0,0:0:0:0:
64,192,34258,1,0,0:0:0:70:snare1.wav
64,192,34429,128,0,34600:0:0:0:0:
320,192,34600,128,0,34772:0:0:0:0:
448,192,34600,1,0,0:0:0:70:kick1.wav
192,192,34772,128,0,34943:0:0:0:0:
448,192,34943,128,0,35115:0:0:0:0:
64,192,34943,1,0,0:0:0:70:snare1.wav
320,192,34943,1,0,0:0:0:0:
64,192,35115,128,0,35286:0:0:0:0:
192,192,35115,1,0,0:0:0:70:finish1.wav
320,192,35115,1,0,0:0:0:0:
192,192,35286,128,0,35458:0:0:0:0:
448,192,35286,1,0,0:0:0:70:kick1.wav
448,192,35458,128,0,35629:0:0:0:0:
320,192,35629,128,0,35800:0:0:0:0:
64,192,35629,1,0,0:0:0:70:snare1.wav
192,192,35629,1,0,0:0:0:0:
192,192,35800,128,0,35972:0:0:0:0:
64,192,35972,128,0,36143:0:0:0:0:
448,192,35972,1,0,0:0:0:70:kick1.wav
192,192,36143,128,0,36315:0:0:0:0:
320,192,36315,128,0,36486:0:0:0:0:
64,192,36315,1,0,0:0:0:0:
448,192,36315,1,0,0:0:0:70:snare1.wav
448,192,36486,128,0,36658:0:0:0:0:
192,192,36658,1,0,0:0:0:70:finish1.wav
64,192,36658,128,0,36829:0:0:0:0:
320,192,36658,1,0,0:0:0:70:kick1.wav
192,192,36829,128,0,37000:0:0:0:0:
448,192,37000,128,0,37172:0:0:0:0:
320,192,37000,1,0,0:0:0:0:
64,192,37000,1,0,0:0:0:70:snare1.wav
64,192,37172,128,0,37343:0:0:0:0:
192,192,37343,128,0,37515:0:0:0:0:
448,192,37343,1,0,0:0:0:70:kick1.wav
320,192,37515,128,0,37686:0:0:0:0:
64,192,37686,128,0,37858:0:0:0:0:
192,192,37686,1,0,0:0:0:0:
448,192,37686,1,0,0:0:0:70:snare1.wav
448,192,37858,128,0,38029:0:0:0:0:
320,192,37858,1,0,0:0:0:0:
192,192,37858,1,0,0:0:0:70:finish1.wav
320,192,38029,128,0,38200:0:0:0:0:
64,192,38029,1,0,0:0:0:70:kick1.wav
64,192,38200,128,0,38372:0:0:0:0:
192,192,38372,128,0,38543:0:0:0:0:
448,192,38372,1,0,0:0:0:70:snare1.wav
320,192,38372,1,0,0:0:0:0:
320,192,38543,128,0,38715:0:0:0:0:
448,192,38715,128,0,38886:0:0:0:0:
64,192,38715,1,0,0:0:0:70:kick1.wav
192,192,38715,1,0,0:0:0:0:
320,192,38886,128,0,39058:0:0:0:0:
192,192,39058,128,0,39229:0:0:0:0:
448,192,39058,1,0,0:0:0:70:snare1.wav
64,192,39058,1,0,0:0:0:0:
64,192,39229,128,0,39400:0:0:0:0:
320,192,39400,128,0,39572:0:0:0:0:
192,192,39400,1,0,0:0:0:70:finish1.wav
448,192,39400,1,0,0:0:0:70:kick1.wav
192,192,39572,128,0,39743:0:0:0:0:
448,192,39743,128,0,39915:0:0:0:0:
64,192,39743,1,0,0:0:0:70:snare1.wav
320,192,39743,1,0,0:0:0:0:
64,192,39915,128,0,40086:0:0:0:0:
320,192,40086,128,0,40258:0:0:0:0:
192,192,40086,1,0,0:0:0:70:kick1.wav
192,192,40258,128,0,40429:0:0:0:0:
448,192,40429,128,0,40600:0:0:0:0:
64,192,40429,1,0,0:0:0:70:snare1.wav
320,192,40429,1,0,0:0:0:0:
64,192,40600,128,0,40772:0:0:0:0:
192,192,40600,1,0,0:0:0:70:finish1.wav
320,192,40600,1,0,0:0:0:0:
192,192,40772,128,0,40943:0:0:0:0:
448,192,40772,1,0,0:0:0:70:kick1.wav
448,192,40943,128,0,41115:0:0:0:0:
320,192,41115,128,0,41286:0:0:0:0:
64,192,41115,1,0,0:0:0:70:snare1.wav
192,192,41115,1,0,0:0:0:0:
192,192,41286,128,0,41458:0:0:0:0:
64,192,41458,128,0,41629:0:0:0:0:
448,192,41458,1,0,0:0:0:70:kick1.wav
192,192,41629,128,0,41800:0:0:0:0:
320,192,41800,128,0,41972:0:0:0:0:
64,192,41800,1,0,0:0:0:70:snare1.wav
192,192,41886,1,0,0:0:0:70:snare1.wav
64,192,41972,1,0,0:0:0:70:snare1.wav
448,192,41972,128,0,42143:0:0:0:0:
192,192,42058,1,0,0:0:0:70:snare1.wav
64,192,42143,1,0,0:0:0:70:finish1.wav
320,192,42143,1,0,0:0:0:70:kick1.wav
192,192,42315,1,0,0:0:0:0:
64,192,42486,1,0,0:0:0:70:kick1.wav
448,192,42658,1,0,0:0:0:0:
320,192,42829,1,0,0:0:0:70:kick1.wav
192,192,43000,1,0,0:0:0:0:
448,192,43172,1,0,0:0:0:70:kick1.wav
320,192,43343,1,0,0:0:0:0:
64,192,43515,1,0,0:0:0:70:kick1.wav
448,192,43686,1,0,0:0:0:0:
320,192,43858,1,0,0:0:0:70:kick1.wav
192,192,44029,1,0,0:0:0:0:
448,192,44200,1,0,0:0:0:70:kick1.wav
64,192,44372,1,0,0:0:0:0:
192,192,44543,1,0,0:0:0:70:kick1.wav
320,192,44715,1,0,0:0:0:70:rides.wav
448,192,44715,1,0,0:0:0:0:
320,192,44886,1,0,0:0:0:70:rides.wav
448,192,44886,1,0,0:0:0:70:kick1.wav
192,192,45058,1,0,0:0:0:0:
64,192,45229,1,0,0:0:0:70:kick1.wav
448,192,45400,1,0,0:0:0:0:
320,192,45572,1,0,0:0:0:70:kick1.wav
192,192,45743,1,0,0:0:0:0:
448,192,45915,1,0,0:0:0:70:kick1.wav
320,192,46086,1,0,0:0:0:0:
64,192,46258,1,0,0:0:0:70:kick1.wav
448,192,46429,1,0,0:0:0:0:
320,192,46600,1,0,0:0:0:70:kick1.wav
192,192,46772,1,0,0:0:0:0:
448,192,46943,1,0,0:0:0:70:kick1.wav
64,192,47115,1,0,0:0:0:0:
192,192,47286,1,0,0:0:0:70:kick1.wav
320,192,47458,1,0,0:0:0:70:rides.wav
64,192,47458,1,0,0:0:0:0:
448,192,47543,1,0,0:0:0:70:rides.wav
320,192,47629,1,0,0:0:0:70:rides.wav
64,192,47629,1,0,0:0:0:70:kick1.wav
192,192,47629,1,0,0:0:0:70:finish1.wav
448,192,47800,1,0,0:0:0:0:
64,192,47972,1,0,0:0:0:70:kick1.wav
448,192,48143,1,0,0:0:0:0:
320,192,48315,1,0,0:0:0:70:kick1.wav
192,192,48486,1,0,0:0:0:0:
448,192,48658,1,0,0:0:0:70:kick1.wav
320,192,48829,1,0,0:0:0:0:
64,192,49000,1,0,0:0:0:70:kick1.wav
448,192,49172,1,0,0:0:0:0:
320,192,49343,1,0,0:0:0:70:kick1.wav
192,192,49515,1,0,0:0:0:0:
448,192,49686,1,0,0:0:0:70:kick1.wav
64,192,49858,1,0,0:0:0:0:
192,192,50029,1,0,0:0:0:70:kick1.wav
320,192,50200,1,0,0:0:0:70:rides.wav
448,192,50200,1,0,0:0:0:0:
320,192,50372,1,0,0:0:0:70:rides.wav
448,192,50372,1,0,0:0:0:70:kick1.wav
192,192,50543,1,0,0:0:0:0:
64,192,50715,1,0,0:0:0:70:kick1.wav
448,192,50886,1,0,0:0:0:0:
320,192,51058,1,0,0:0:0:70:kick1.wav
192,192,51229,1,0,0:0:0:0:
448,192,51400,1,0,0:0:0:70:kick1.wav
320,192,51572,1,0,0:0:0:0:
64,192,51743,1,0,0:0:0:70:kick1.wav
448,192,51915,1,0,0:0:0:0:
320,192,52086,1,0,0:0:0:70:kick1.wav
192,192,52258,1,0,0:0:0:0:
448,192,52429,1,0,0:0:0:70:kick1.wav
192,192,53115,1,0,0:0:0:70:kick1.wav
320,192,53115,1,0,0:0:0:70:finish1.wav
448,192,53115,1,0,0:0:0:0:
64,192,53286,1,0,0:0:0:0:
320,192,53458,1,0,0:0:0:0:
448,192,53458,1,0,0:0:0:70:snare1.wav
64,192,53629,1,0,0:0:0:0:
192,192,53800,1,0,0:0:0:70:kick1.wav
448,192,53800,1,0,0:0:0:0:
320,192,53972,1,0,0:0:0:0:
64,192,53972,1,0,0:0:0:70:kick1.wav
64,192,54143,1,0,0:0:0:0:
448,192,54143,1,0,0:0:0:70:snare1.wav
192,192,54143,1,0,0:0:0:0:
320,192,54315,1,0,0:0:0:0:
64,192,54486,1,0,0:0:0:70:kick1.wav
448,192,54486,1,0,0:0:0:0:
192,192,54658,1,0,0:0:0:0:
64,192,54829,1,0,0:0:0:0:
448,192,54829,1,0,0:0:0:70:snare1.wav
320,192,54829,1,0,0:0:0:0:
192,192,55000,1,0,0:0:0:0:
320,192,55172,1,0,0:0:0:70:kick1.wav
448,192,55172,1,0,0:0:0:0:
64,192,55343,1,0,0:0:0:0:
192,192,55343,1,0,0:0:0:70:kick1.wav
320,192,55515,1,0,0:0:0:0:
448,192,55515,1,0,0:0:0:70:snare1.wav
64,192,55515,1,0,0:0:0:0:
192,192,55686,1,0,0:0:0:0:
64,192,55858,1,0,0:0:0:70:kick1.wav
448,192,55858,1,0,0:0:0:0:
320,192,56029,1,0,0:0:0:0:
64,192,56200,1,0,0:0:0:0:
192,192,56200,1,0,0:0:0:0:
448,192,56200,1,0,0:0:0:70:snare1.wav
320,192,56372,1,0,0:0:0:0:
192,192,56543,1,0,0:0:0:70:kick1.wav
448,192,56543,1,0,0:0:0:0:
64,192,56715,1,0,0:0:0:70:kick1.wav
320,192,56715,1,0,0:0:0:0:
320,192,56886,1,0,0:0:0:0:
448,192,56886,1,0,0:0:0:70:snare1.wav
192,192,56886,1,0,0:0:0:0:
64,192,57058,1,0,0:0:0:0:
448,192,57229,1,0,0:0:0:70:kick1.wav
192,192,57229,1,0,0:0:0:0:
320,192,57400,1,0,0:0:0:0:
64,192,57572,1,0,0:0:0:0:
448,192,57572,1,0,0:0:0:70:snare1.wav
192,192,57572,1,0,0:0:0:0:
320,192,57743,1,0,0:0:0:0:
64,192,57915,1,0,0:0:0:70:kick1.wav
448,192,57915,1,0,0:0:0:0:
192,192,58086,1,0,0:0:0:0:
320,192,58086,1,0,0:0:0:70:kick1.wav
64,192,58258,1,0,0:0:0:0:
192,192,58258,1,0,0:0:0:0:
448,192,58258,1,0,0:0:0:70:snare1.wav
192,192,58429,1,0,0:0:0:0:
64,192,58600,1,0,0:0:0:70:kick1.wav
448,192,58600,1,0,0:0:0:0:
320,192,58600,1,0,0:0:0:70:finish1.wav
192,192,58772,1,0,0:0:0:0:
64,192,58943,1,0,0:0:0:0:
320,192,58943,1,0,0:0:0:0:
448,192,58943,1,0,0:0:0:70:snare1.wav
448,192,59115,1,0,0:0:0:0:
64,192,59286,1,0,0:0:0:70:kick1.wav
320,192,59286,1,0,0:0:0:0:
192,192,59458,1,0,0:0:0:70:kick1.wav
448,192,59458,1,0,0:0:0:0:
320,192,59629,1,0,0:0:0:0:
448,192,59629,1,0,0:0:0:70:snare1.wav
64,192,59629,1,0,0:0:0:0:
192,192,59800,1,0,0:0:0:0:
320,192,59972,1,0,0:0:0:0:
448,192,59972,1,0,0:0:0:70:kick1.wav
192,192,60143,1,0,0:0:0:0:
320,192,60315,1,0,0:0:0:0:
448,192,60315,1,0,0:0:0:70:snare1.wav
64,192,60315,1,0,0:0:0:0:
192,192,60486,1,0,0:0:0:0:
64,192,60658,1,0,0:0:0:0:
448,192,60658,1,0,0:0:0:70:kick1.wav
192,192,60829,1,0,0:0:0:0:
320,192,60829,1,0,0:0:0:70:kick1.wav
64,192,61000,1,0,0:0:0:0:
448,192,61000,1,0,0:0:0:70:snare1.wav
320,192,61000,1,0,0:0:0:0:
192,192,61172,1,0,0:0:0:0:
64,192,61343,1,0,0:0:0:70:kick1.wav
448,192,61343,1,0,0:0:0:0:
320,192,61515,1,0,0:0:0:0:
64,192,61686,1,0,0:0:0:0:
192,192,61686,1,0,0:0:0:0:
448,192,61686,1,0,0:0:0:70:snare1.wav
320,192,61858,1,0,0:0:0:0:
64,192,62029,1,0,0:0:0:70:kick1.wav
192,192,62029,1,0,0:0:0:0:
320,192,62200,1,0,0:0:0:70:kick1.wav
448,192,62200,1,0,0:0:0:0:
64,192,62372,1,0,0:0:0:0:
448,192,62372,1,0,0:0:0:70:snare1.wav
192,192,62372,1,0,0:0:0:0:
320,192,62543,1,0,0:0:0:0:
192,192,62715,1,0,0:0:0:0:
448,192,62715,1,0,0:0:0:70:kick1.wav
64,192,62886,5,0,0:0:0:0:
320,192,62886,1,0,0:0:0:70:kick1.wav
192,192,63058,1,0,0:0:0:0:
320,192,63058,1,0,0:0:0:0:
448,192,63058,1,0,0:0:0:70:snare1.wav
64,192,63229,1,0,0:0:0:0:
320,192,63400,1,0,0:0:0:0:
448,192,63400,1,0,0:0:0:0:
192,192,63400,1,0,0:0:0:70:snare1.wav
192,192,63915,1,0,0:0:0:0:
320,192,64086,1,0,0:0:0:70:finish1.wav
64,192,64086,1,0,0:0:0:70:kick1.wav
448,192,64086,128,0,64429:0:0:0:0:
192,192,64258,1,0,0:0:0:0:
64,192,64429,1,0,0:0:0:70:snare1.wav
320,192,64429,1,0,0:0:0:0:
192,192,64429,1,0,0:0:0:0:
320,192,64600,128,0,64943:0:0:0:0:
448,192,64600,1,0,0:0:0:0:
64,192,64772,1,0,0:0:0:70:kick1.wav
448,192,64943,1,0,0:0:0:0:
192,192,64943,1,0,0:0:0:0:
192,192,65115,128,0,65458:0:0:0:0:
64,192,65115,1,0,0:0:0:70:snare1.wav
320,192,65115,1,0,0:0:0:0:
448,192,65286,1,0,0:0:0:0:
320,192,65286,1,0,0:0:0:70:finish1.wav
64,192,65458,1,0,0:0:0:70:kick1.wav
448,192,65458,1,0,0:0:0:0:
64,192,65629,128,0,65972:0:0:0:0:
192,192,65629,1,0,0:0:0:0:
448,192,65800,1,0,0:0:0:70:snare1.wav
320,192,65800,1,0,0:0:0:0:
192,192,65972,1,0,0:0:0:0:
192,192,66143,128,0,66315:0:0:0:0:
64,192,66143,1,0,0:0:0:70:kick1.wav
320,192,66315,1,0,0:0:0:0:
320,192,66486,128,0,66658:0:0:0:0:
64,192,66486,1,0,0:0:0:0:
448,192,66486,1,0,0:0:0:70:snare1.wav
192,192,66658,1,0,0:0:0:0:
64,192,66829,128,0,67172:0:0:0:0:
192,192,66829,1,0,0:0:0:70:finish1.wav
448,192,66829,1,0,0:0:0:70:kick1.wav
320,192,67000,1,0,0:0:0:0:
192,192,67172,1,0,0:0:0:0:
448,192,67172,1,0,0:0:0:70:snare1.wav
320,192,67343,128,0,67686:0:0:0:0:
448,192,67343,1,0,0:0:0:0:
64,192,67515,1,0,0:0:0:70:kick1.wav
192,192,67686,1,0,0:0:0:0:
448,192,67858,1,0,0:0:0:0:
64,192,67858,1,0,0:0:0:70:snare1.wav
320,192,67858,1,0,0:0:0:0:
320,192,68029,128,0,68372:0:0:0:0:
64,192,68029,1,0,0:0:0:0:
192,192,68029,1,0,0:0:0:70:finish1.wav
448,192,68200,1,0,0:0:0:70:kick1.wav
64,192,68372,1,0,0:0:0:0:
448,192,68543,1,0,0:0:0:70:snare1.wav
192,192,68543,1,0,0:0:0:0:
320,192,68543,1,0,0:0:0:0:
192,192,68715,128,0,69058:0:0:0:0:
64,192,68715,1,0,0:0:0:0:
448,192,68886,1,0,0:0:0:70:kick1.wav
320,192,69058,1,0,0:0:0:0:
320,192,69229,1,0,0:0:0:0:
64,192,69229,1,0,0:0:0:0:
448,192,69229,1,0,0:0:0:70:snare1.wav
64,192,69400,128,0,69743:0:0:0:0:
192,192,69400,1,0,0:0:0:0:
448,192,69572,1,0,0:0:0:70:kick1.wav
320,192,69572,1,0,0:0:0:70:finish1.wav
192,192,69743,1,0,0:0:0:0:
320,192,69915,1,0,0:0:0:0:
448,192,69915,1,0,0:0:0:0:
64,192,69915,1,0,0:0:0:70:snare1.wav
192,192,70086,1,0,0:0:0:0:
64,192,70258,1,0,0:0:0:70:kick1.wav
448,192,70258,1,0,0:0:0:0:
320,192,70429,1,0,0:0:0:0:
448,192,70600,1,0,0:0:0:70:snare1.wav
64,192,70600,1,0,0:0:0:0:
192,192,70600,1,0,0:0:0:0:
448,192,70772,128,0,72315:0:0:0:0:
64,192,70772,128,0,70943:0:0:0:0:
192,192,70772,1,0,0:0:0:70:finish1.wav
320,192,70772,1,0,0:0:0:0:
320,192,70943,1,0,0:0:0:70:kick1.wav
192,192,71115,128,0,71286:0:0:0:0:
64,192,71115,1,0,0:0:0:0:
64,192,71286,1,0,0:0:0:70:snare1.wav
320,192,71286,1,0,0:0:0:0:
320,192,71458,128,0,71629:0:0:0:0:
192,192,71458,1,0,0:0:0:0:
64,192,71629,1,0,0:0:0:70:kick1.wav
192,192,71800,1,0,0:0:0:0:
320,192,71972,1,0,0:0:0:70:snare1.wav
64,192,71972,1,0,0:0:0:0:
192,192,72143,128,0,72486:0:0:0:0:
320,192,72143,1,0,0:0:0:0:
64,192,72315,128,0,73515:0:0:0:70:kick1.wav
320,192,72315,1,0,0:0:0:70:finish1.wav
448,192,72486,1,0,0:0:0:0:
320,192,72658,1,0,0:0:0:0:
192,192,72658,1,0,0:0:0:70:snare1.wav
320,192,72829,128,0,73172:0:0:0:0:
448,192,72829,1,0,0:0:0:0:
192,192,73000,1,0,0:0:0:70:kick1.wav
448,192,73172,1,0,0:0:0:0:
448,192,73343,1,0,0:0:0:70:snare1.wav
192,192,73343,1,0,0:0:0:0:
448,192,73515,128,0,74372:0:0:0:0:
320,192,73515,128,0,74029:0:0:0:0:
192,192,73515,1,0,0:0:0:70:finish1.wav
64,192,73686,1,0,0:0:0:70:kick1.wav
192,192,73858,1,0,0:0:0:0:
64,192,74029,1,0,0:0:0:70:snare1.wav
192,192,74029,1,0,0:0:0:0:
64,192,74200,128,0,74543:0:0:0:0:
320,192,74200,1,0,0:0:0:0:
192,192,74372,1,0,0:0:0:70:kick1.wav
448,192,74543,1,0,0:0:0:0:
320,192,74715,1,0,0:0:0:70:snare1.wav
64,192,74715,1,0,0:0:0:0:
448,192,74800,1,0,0:0:0:0:
192,192,74800,1,0,0:0:0:70:snare1.wav
64,192,74886,1,0,0:0:0:0:
320,192,74886,1,0,0:0:0:70:snare1.wav
192,192,74972,1,0,0:0:0:70:snare1.wav
448,192,74972,1,0,0:0:0:0:
320,192,75058,1,0,0:0:0:70:finish1.wav
64,192,75058,1,0,0:0:0:70:kick1.wav
448,192,75058,128,0,75400:0:0:0:0:
192,192,75229,1,0,0:0:0:0:
64,192,75400,1,0,0:0:0:70:snare1.wav
192,192,75400,1,0,0:0:0:0:
320,192,75400,1,0,0:0:0:0:
320,192,75572,128,0,75915:0:0:0:0:
448,192,75572,1,0,0:0:0:0:
192,192,75743,1,0,0:0:0:70:kick1.wav
64,192,75915,1,0,0:0:0:0:
192,192,76086,128,0,76429:0:0:0:0:
320,192,76086,1,0,0:0:0:0:
448,192,76086,1,0,0:0:0:70:snare1.wav
64,192,76258,1,0,0:0:0:0:
448,192,76258,1,0,0:0:0:70:finish1.wav
320,192,76429,1,0,0:0:0:70:kick1.wav
64,192,76600,128,0,76943:0:0:0:0:
192,192,76600,1,0,0:0:0:0:
320,192,76772,1,0,0:0:0:0:
448,192,76772,1,0,0:0:0:70:snare1.wav
192,192,76943,1,0,0:0:0:0:
192,192,77115,128,0,77286:0:0:0:0:
448,192,77115,1,0,0:0:0:70:kick1.wav
320,192,77286,1,0,0:0:0:0:
320,192,77458,1,0,0:0:0:0:
64,192,77458,1,0,0:0:0:70:snare1.wav
448,192,77458,1,0,0:0:0:0:
192,192,77629,1,0,0:0:0:0:
64,192,77800,128,0,78143:0:0:0:0:
320,192,77800,1,0,0:0:0:70:finish1.wav
448,192,77800,1,0,0:0:0:70:kick1.wav
192,192,77972,1,0,0:0:0:0:
320,192,78143,1,0,0:0:0:0:
448,192,78143,1,0,0:0:0:70:snare1.wav
320,192,78315,128,0,78658:0:0:0:0:
64,192,78315,1,0,0:0:0:0:
448,192,78486,1,0,0:0:0:70:kick1.wav
192,192,78658,1,0,0:0:0:0:
448,192,78829,1,0,0:0:0:0:
64,192,78829,1,0,0:0:0:70:snare1.wav
320,192,78829,1,0,0:0:0:0:
320,192,79000,128,0,79343:0:0:0:0:
64,192,79000,1,0,0:0:0:0:
192,192,79000,1,0,0:0:0:70:finish1.wav
448,192,79172,1,0,0:0:0:70:kick1.wav
64,192,79343,1,0,0:0:0:0:
448,192,79515,1,0,0:0:0:70:snare1.wav
320,192,79515,1,0,0:0:0:0:
192,192,79515,1,0,0:0:0:0:
192,192,79686,128,0,80029:0:0:0:0:
64,192,79686,1,0,0:0:0:0:
448,192,79858,1,0,0:0:0:70:kick1.wav
320,192,80029,1,0,0:0:0:0:
448,192,80200,1,0,0:0:0:0:
64,192,80200,1,0,0:0:0:70:snare1.wav
192,192,80200,1,0,0:0:0:0:
448,192,80372,128,0,80715:0:0:0:0:
320,192,80372,1,0,0:0:0:0:
64,192,80543,1,0,0:0:0:70:kick1.wav
192,192,80543,1,0,0:0:0:70:finish1.wav
320,192,80715,1,0,0:0:0:0:
64,192,80886,1,0,0:0:0:70:snare1.wav
448,192,80886,1,0,0:0:0:0:
192,192,80886,1,0,0:0:0:0:
320,192,81058,1,0,0:0:0:0:
192,192,81229,1,0,0:0:0:0:
448,192,81229,1,0,0:0:0:70:kick1.wav
64,192,81400,1,0,0:0:0:0:
448,192,81572,1,0,0:0:0:70:snare1.wav
64,192,81572,1,0,0:0:0:0:
320,192,81572,1,0,0:0:0:0:
448,192,81743,128,0,83286:0:0:0:0:
64,192,81743,128,0,81915:0:0:0:0:
192,192,81743,1,0,0:0:0:0:
320,192,81743,1,0,0:0:0:70:finish1.wav
192,192,81915,1,0,0:0:0:70:kick1.wav
320,192,82086,1,0,0:0:0:0:
192,192,82258,1,0,0:0:0:0:
64,192,82258,1,0,0:0:0:70:snare1.wav
320,192,82429,128,0,82600:0:0:0:0:
64,192,82429,1,0,0:0:0:0:
64,192,82600,1,0,0:0:0:70:kick1.wav
192,192,82772,1,0,0:0:0:0:
320,192,82943,1,0,0:0:0:70:snare1.wav
64,192,82943,1,0,0:0:0:0:
192,192,83115,128,0,83458:0:0:0:0:
320,192,83115,1,0,0:0:0:0:
64,192,83286,128,0,84486:0:0:0:70:kick1.wav
320,192,83286,1,0,0:0:0:70:finish1.wav
448,192,83458,1,0,0:0:0:0:
448,192,83629,1,0,0:0:0:70:snare1.wav
192,192,83629,1,0,0:0:0:0:
320,192,83800,128,0,84143:0:0:0:0:
192,192,83800,1,0,0:0:0:0:
448,192,83972,1,0,0:0:0:70:kick1.wav
192,192,84143,1,0,0:0:0:0:
448,192,84315,1,0,0:0:0:70:snare1.wav
320,192,84315,1,0,0:0:0:0:
320,192,84486,128,0,84829:0:0:0:0:
448,192,84486,128,0,85343:0:0:0:0:
192,192,84486,1,0,0:0:0:70:finish1.wav
64,192,84658,1,0,0:0:0:70:kick1.wav
192,192,84829,1,0,0:0:0:0:
64,192,85000,1,0,0:0:0:70:snare1.wav
192,192,85000,1,0,0:0:0:0:
64,192,85172,128,0,85515:0:0:0:0:
320,192,85172,1,0,0:0:0:0:
320,192,85343,1,0,0:0:0:70:snare1.wav
192,192,85429,1,0,0:0:0:70:snare1.wav
448,192,85515,1,0,0:0:0:70:snare1.wav
192,192,85600,1,0,0:0:0:70:snare1.wav
320,192,85686,1,0,0:0:0:70:snare1.wav
448,192,85686,1,0,0:0:0:0:
192,192,85772,1,0,0:0:0:70:snare1.wav
64,192,85772,1,0,0:0:0:0:
320,192,85858,1,0,0:0:0:70:snare1.wav
448,192,85858,1,0,0:0:0:0:
192,192,85943,1,0,0:0:0:70:snare1.wav
64,192,85943,1,0,0:0:0:0:
448,192,86029,1,0,0:0:0:70:snare1.wav
320,192,86029,1,0,0:0:0:70:finish1.wav
64,192,86372,1,0,0:0:0:70:kick1.wav
320,192,86543,1,0,0:0:0:0:
448,192,86543,1,0,0:0:0:70:snare2.wav
64,192,86886,1,0,0:0:0:70:kick1.wav
320,192,87058,1,0,0:0:0:0:
448,192,87058,1,0,0:0:0:70:snare2.wav
64,192,87400,1,0,0:0:0:70:kick1.wav
64,192,87572,1,0,0:0:0:70:kick1.wav
320,192,87743,1,0,0:0:0:0:
448,192,87743,1,0,0:0:0:70:snare2.wav
192,192,87915,1,0,0:0:0:70:kick1.wav
64,192,88086,1,0,0:0:0:70:kick1.wav
64,192,88258,1,0,0:0:0:70:kick1.wav
320,192,88429,1,0,0:0:0:0:
448,192,88429,1,0,0:0:0:70:snare2.wav
64,192,88772,1,0,0:0:0:70:kick1.wav
64,192,89115,1,0,0:0:0:70:kick1.wav
320,192,89286,1,0,0:0:0:0:
448,192,89286,1,0,0:0:0:70:snare2.wav
64,192,89629,1,0,0:0:0:70:kick1.wav
320,192,89800,1,0,0:0:0:0:
448,192,89800,1,0,0:0:0:70:snare2.wav
64,192,89972,1,0,0:0:0:70:kick1.wav
448,192,90143,1,0,0:0:0:70:snare2.wav
320,192,90165,1,0,0:0:0:0:
64,192,90315,1,0,0:0:0:0:
320,192,90486,1,0,0:0:0:70:finish2.wav
448,192,90486,1,0,0:0:0:70:snare2.wav
64,192,90658,1,0,0:0:0:0:
192,192,90808,1,0,0:0:0:0:
448,192,90808,1,0,0:0:0:70:kick1.wav
192,192,90979,1,0,0:0:0:0:
448,192,90979,1,0,0:0:0:70:kick1.wav
64,192,91150,1,0,0:0:0:70:snare2.wav
320,192,91150,1,0,0:0:0:0:
64,192,91515,1,0,0:0:0:70:kick1.wav
320,192,91515,1,0,0:0:0:70:finish1.wav
448,192,91515,1,0,0:0:0:0:
64,192,91858,1,0,0:0:0:70:kick1.wav
320,192,92029,1,0,0:0:0:0:
448,192,92029,1,0,0:0:0:70:snare2.wav
64,192,92372,1,0,0:0:0:70:kick1.wav
320,192,92543,1,0,0:0:0:0:
448,192,92543,1,0,0:0:0:70:snare2.wav
192,192,92715,1,0,0:0:0:70:kick1.wav
64,192,92886,1,0,0:0:0:70:kick1.wav
320,192,92886,1,0,0:0:0:0:
192,192,93229,1,0,0:0:0:0:
448,192,93229,1,0,0:0:0:70:snare2.wav
64,192,93572,1,0,0:0:0:70:kick1.wav
64,192,93743,1,0,0:0:0:70:kick1.wav
192,192,93915,1,0,0:0:0:0:
448,192,93915,1,0,0:0:0:70:snare2.wav
64,192,94258,1,0,0:0:0:70:kick1.wav
64,192,94600,1,0,0:0:0:70:kick1.wav
448,192,94772,1,0,0:0:0:70:snare1.wav
64,192,95115,1,0,0:0:0:70:kick1.wav
448,192,95286,1,0,0:0:0:70:snare1.wav
64,192,95458,1,0,0:0:0:70:kick1.wav
192,192,95629,1,0,0:0:0:70:snare1.wav
448,192,95629,1,0,0:0:0:0:
64,192,95800,1,0,0:0:0:70:kick1.wav
448,192,95972,1,0,0:0:0:0:
320,192,95993,1,0,0:0:0:70:snare1.wav
64,192,96143,1,0,0:0:0:70:kick1.wav
448,192,96315,1,0,0:0:0:0:
320,192,96315,1,0,0:0:0:70:snare1.wav
64,192,97000,1,0,0:0:0:70:kick1.wav
320,192,97000,1,0,0:0:0:70:finish1.wav
448,192,97000,1,0,0:0:0:0:
192,192,97172,1,0,0:0:0:0:
320,192,97343,1,0,0:0:0:0:
448,192,97343,1,0,0:0:0:70:snare2.wav
64,192,97343,1,0,0:0:0:0:
64,192,97515,1,0,0:0:0:0:
320,192,97686,1,0,0:0:0:0:
448,192,97686,1,0,0:0:0:70:kick1.wav
192,192,97858,1,0,0:0:0:0:
64,192,97858,1,0,0:0:0:70:kick1.wav
64,192,98029,1,0,0:0:0:0:
448,192,98029,1,0,0:0:0:70:snare2.wav
320,192,98029,1,0,0:0:0:0:
192,192,98200,1,0,0:0:0:0:
320,192,98372,1,0,0:0:0:0:
64,192,98372,1,0,0:0:0:70:kick1.wav
448,192,98543,1,0,0:0:0:0:
64,192,98715,1,0,0:0:0:70:snare2.wav
320,192,98715,1,0,0:0:0:0:
192,192,98715,1,0,0:0:0:0:
448,192,98886,1,0,0:0:0:0:
64,192,99058,1,0,0:0:0:70:kick1.wav
192,192,99058,1,0,0:0:0:0:
448,192,99229,1,0,0:0:0:70:kick1.wav
320,192,99229,1,0,0:0:0:0:
192,192,99400,1,0,0:0:0:0:
448,192,99400,1,0,0:0:0:0:
64,192,99400,1,0,0:0:0:70:snare2.wav
320,192,99572,1,0,0:0:0:0:
64,192,99743,1,0,0:0:0:70:kick1.wav
448,192,99743,1,0,0:0:0:0:
320,192,99915,1,0,0:0:0:0:
64,192,100086,1,0,0:0:0:70:snare2.wav
192,192,100086,1,0,0:0:0:0:
448,192,100086,1,0,0:0:0:0:
320,192,100258,1,0,0:0:0:0:
64,192,100429,1,0,0:0:0:0:
448,192,100429,1,0,0:0:0:70:kick1.wav
192,192,100600,1,0,0:0:0:0:
320,192,100600,1,0,0:0:0:70:kick1.wav
64,192,100772,1,0,0:0:0:70:snare2.wav
448,192,100772,1,0,0:0:0:0:
192,192,100772,1,0,0:0:0:0:
320,192,100943,1,0,0:0:0:0:
64,192,101115,1,0,0:0:0:70:kick1.wav
192,192,101115,1,0,0:0:0:0:
320,192,101286,1,0,0:0:0:0:
64,192,101458,1,0,0:0:0:0:
448,192,101458,1,0,0:0:0:70:snare2.wav
192,192,101629,1,0,0:0:0:0:
320,192,101800,1,0,0:0:0:0:
448,192,101800,1,0,0:0:0:70:kick1.wav
192,192,101972,1,0,0:0:0:0:
64,192,101972,1,0,0:0:0:70:kick1.wav
64,192,102143,1,0,0:0:0:0:
320,192,102143,1,0,0:0:0:0:
448,192,102143,1,0,0:0:0:70:snare2.wav
320,192,102315,1,0,0:0:0:0:
192,192,102486,1,0,0:0:0:70:finish1.wav
448,192,102486,1,0,0:0:0:0:
64,192,102486,1,0,0:0:0:70:kick1.wav
320,192,102658,1,0,0:0:0:0:
64,192,102829,1,0,0:0:0:0:
192,192,102829,1,0,0:0:0:0:
448,192,102829,1,0,0:0:0:70:snare2.wav
448,192,103000,1,0,0:0:0:0:
64,192,103172,1,0,0:0:0:70:kick1.wav
192,192,103172,1,0,0:0:0:0:
448,192,103343,1,0,0:0:0:70:kick1.wav
320,192,103343,1,0,0:0:0:0:
192,192,103515,1,0,0:0:0:0:
448,192,103515,1,0,0:0:0:0:
64,192,103515,1,0,0:0:0:70:snare2.wav
320,192,103686,1,0,0:0:0:0:
64,192,103858,1,0,0:0:0:70:kick1.wav
448,192,103858,1,0,0:0:0:0:
192,192,104029,1,0,0:0:0:0:
64,192,104200,1,0,0:0:0:0:
448,192,104200,1,0,0:0:0:70:snare2.wav
320,192,104200,1,0,0:0:0:0:
192,192,104372,1,0,0:0:0:0:
64,192,104543,1,0,0:0:0:70:kick1.wav
448,192,104543,1,0,0:0:0:0:
192,192,104715,1,0,0:0:0:70:kick1.wav
320,192,104715,1,0,0:0:0:0:
64,192,104886,1,0,0:0:0:0:
448,192,104886,1,0,0:0:0:70:snare2.wav
320,192,104886,1,0,0:0:0:0:
192,192,105058,1,0,0:0:0:0:
320,192,105229,1,0,0:0:0:0:
448,192,105229,1,0,0:0:0:70:kick1.wav
192,192,105400,1,0,0:0:0:0:
64,192,105572,1,0,0:0:0:70:snare2.wav
320,192,105572,1,0,0:0:0:0:
448,192,105572,1,0,0:0:0:0:
192,192,105743,1,0,0:0:0:0:
64,192,105893,1,0,0:0:0:70:kick1.wav
320,192,105893,1,0,0:0:0:0:
192,192,106065,1,0,0:0:0:0:
448,192,106065,1,0,0:0:0:70:kick1.wav
64,192,106236,1,0,0:0:0:70:snare2.wav
448,192,106236,1,0,0:0:0:0:
320,192,106236,1,0,0:0:0:0:
192,192,106408,1,0,0:0:0:0:
320,192,106600,1,0,0:0:0:0:
448,192,106600,1,0,0:0:0:70:snare1.wav
64,192,106600,1,0,0:0:0:0:
64,192,106750,5,0,0:0:0:0:
192,192,106750,1,0,0:0:0:70:snare1.wav
320,192,106922,5,0,0:0:0:0:
448,192,106922,1,0,0:0:0:70:snare1.wav
64,192,107072,1,0,0:0:0:0:
448,192,107243,1,0,0:0:0:70:snare1.wav
320,192,107243,1,0,0:0:0:0:
192,192,107243,1,0,0:0:0:0:
320,192,107972,5,0,0:0:0:70:finish1.wav
64,192,107972,1,0,0:0:0:70:kick1.wav
448,192,107972,128,0,108315:0:0:0:0:
192,192,108143,1,0,0:0:0:0:
64,192,108315,1,0,0:0:0:70:snare2.wav
320,192,108315,1,0,0:0:0:0:
192,192,108315,1,0,0:0:0:0:
320,192,108486,128,0,108829:0:0:0:0:
448,192,108486,1,0,0:0:0:0:
64,192,108658,1,0,0:0:0:70:kick1.wav
448,192,108829,1,0,0:0:0:0:
192,192,108829,1,0,0:0:0:0:
192,192,109000,128,0,109343:0:0:0:0:
64,192,109000,1,0,0:0:0:70:snare2.wav
320,192,109000,1,0,0:0:0:0:
448,192,109172,1,0,0:0:0:0:
320,192,109172,1,0,0:0:0:70:finish1.wav
64,192,109343,1,0,0:0:0:0:
448,192,109343,1,0,0:0:0:70:kick1.wav
64,192,109515,128,0,109858:0:0:0:0:
192,192,109515,1,0,0:0:0:0:
448,192,109686,1,0,0:0:0:70:snare2.wav
320,192,109686,1,0,0:0:0:0:
192,192,109858,1,0,0:0:0:0:
320,192,110029,128,0,110200:0:0:0:0:
64,192,110029,1,0,0:0:0:70:kick1.wav
192,192,110200,1,0,0:0:0:0:
448,192,110372,128,0,110543:0:0:0:0:
64,192,110372,1,0,0:0:0:70:snare2.wav
320,192,110372,1,0,0:0:0:0:
192,192,110543,1,0,0:0:0:0:
320,192,110715,128,0,111058:0:0:0:0:
64,192,110715,1,0,0:0:0:70:kick1.wav
448,192,110715,1,0,0:0:0:70:finish1.wav
192,192,110886,1,0,0:0:0:0:
64,192,111058,1,0,0:0:0:0:
448,192,111058,1,0,0:0:0:70:snare2.wav
64,192,111229,128,0,111572:0:0:0:0:
320,192,111229,1,0,0:0:0:0:
192,192,111400,1,0,0:0:0:70:kick1.wav
448,192,111572,1,0,0:0:0:0:
448,192,111743,1,0,0:0:0:70:snare2.wav
64,192,111743,1,0,0:0:0:0:
320,192,111743,1,0,0:0:0:0:
320,192,111915,128,0,112258:0:0:0:0:
64,192,111915,1,0,0:0:0:0:
192,192,111915,1,0,0:0:0:70:finish1.wav
448,192,112086,1,0,0:0:0:70:kick1.wav
64,192,112258,1,0,0:0:0:0:
320,192,112429,1,0,0:0:0:0:
64,192,112429,1,0,0:0:0:70:snare2.wav
448,192,112429,128,0,112600:0:0:0:0:
192,192,112600,1,0,0:0:0:0:
320,192,112772,1,0,0:0:0:0:
448,192,112772,1,0,0:0:0:70:kick1.wav
192,192,112943,1,0,0:0:0:0:
320,192,113115,1,0,0:0:0:0:
64,192,113115,1,0,0:0:0:0:
448,192,113115,1,0,0:0:0:70:snare2.wav
192,192,113286,128,0,113629:0:0:0:0:
64,192,113286,1,0,0:0:0:0:
448,192,113458,1,0,0:0:0:70:kick1.wav
320,192,113458,1,0,0:0:0:70:finish1.wav
64,192,113629,1,0,0:0:0:0:
192,192,113800,1,0,0:0:0:0:
448,192,113800,1,0,0:0:0:0:
64,192,113800,1,0,0:0:0:70:snare2.wav
320,192,113972,1,0,0:0:0:0:
192,192,114143,1,0,0:0:0:0:
64,192,114143,1,0,0:0:0:70:kick1.wav
320,192,114315,1,0,0:0:0:0:
448,192,114486,1,0,0:0:0:70:snare2.wav
64,192,114486,1,0,0:0:0:0:
192,192,114486,1,0,0:0:0:0:
192,192,114658,1,0,0:0:0:70:finish1.wav
448,192,114658,128,0,116200:0:0:0:0:
320,192,114658,128,0,114829:0:0:0:0:
64,192,114658,1,0,0:0:0:0:
64,192,114829,1,0,0:0:0:70:kick1.wav
192,192,115000,1,0,0:0:0:0:
64,192,115172,1,0,0:0:0:70:snare2.wav
320,192,115172,1,0,0:0:0:0:
64,192,115343,128,0,115686:0:0:0:0:
192,192,115343,1,0,0:0:0:0:
320,192,115515,1,0,0:0:0:70:kick1.wav
192,192,115686,1,0,0:0:0:0:
320,192,115858,1,0,0:0:0:70:snare2.wav
64,192,115858,1,0,0:0:0:0:
320,192,116029,128,0,116372:0:0:0:0:
192,192,116029,1,0,0:0:0:0:
64,192,116200,128,0,117400:0:0:0:70:kick1.wav
192,192,116200,1,0,0:0:0:70:finish1.wav
448,192,116372,1,0,0:0:0:0:
320,192,116543,1,0,0:0:0:70:snare2.wav
192,192,116543,1,0,0:0:0:0:
192,192,116715,128,0,117058:0:0:0:0:
448,192,116715,1,0,0:0:0:0:
320,192,116886,1,0,0:0:0:70:kick1.wav
448,192,117058,1,0,0:0:0:0:
448,192,117229,1,0,0:0:0:70:snare2.wav
192,192,117229,1,0,0:0:0:0:
448,192,117400,128,0,118258:0:0:0:0:
320,192,117400,128,0,117915:0:0:0:0:
192,192,117400,1,0,0:0:0:70:finish1.wav
64,192,117572,1,0,0:0:0:70:kick1.wav
192,192,117743,1,0,0:0:0:0:
64,192,117915,1,0,0:0:0:70:snare2.wav
192,192,117915,1,0,0:0:0:0:
192,192,118086,128,0,118429:0:0:0:0:
320,192,118086,1,0,0:0:0:0:
64,192,118258,1,0,0:0:0:70:kick1.wav
448,192,118429,1,0,0:0:0:0:
320,192,118600,1,0,0:0:0:70:snare1.wav
64,192,118600,1,0,0:0:0:0:
448,192,118686,1,0,0:0:0:0:
192,192,118686,1,0,0:0:0:70:snare1.wav
64,192,118772,1,0,0:0:0:0:
320,192,118772,1,0,0:0:0:70:snare1.wav
192,192,118858,1,0,0:0:0:70:snare1.wav
448,192,118858,1,0,0:0:0:0:
320,192,118943,1,0,0:0:0:70:finish1.wav
64,192,118943,1,0,0:0:0:70:kick1.wav
448,192,118943,128,0,119286:0:0:0:0:
192,192,119115,1,0,0:0:0:0:
64,192,119286,1,0,0:0:0:70:snare2.wav
320,192,119286,1,0,0:0:0:0:
192,192,119286,1,0,0:0:0:0:
320,192,119458,128,0,119800:0:0:0:0:
192,192,119458,1,0,0:0:0:0:
448,192,119629,1,0,0:0:0:70:kick1.wav
64,192,119800,1,0,0:0:0:0:
192,192,119972,128,0,120315:0:0:0:0:
320,192,119972,1,0,0:0:0:0:
448,192,119972,1,0,0:0:0:70:snare2.wav
320,192,120143,1,0,0:0:0:70:finish1.wav
448,192,120143,1,0,0:0:0:0:
64,192,120315,1,0,0:0:0:70:kick1.wav
64,192,120486,128,0,120829:0:0:0:0:
320,192,120486,1,0,0:0:0:0:
192,192,120658,1,0,0:0:0:0:
448,192,120658,1,0,0:0:0:70:snare2.wav
320,192,120829,1,0,0:0:0:0:
320,192,121000,128,0,121172:0:0:0:0:
448,192,121000,1,0,0:0:0:70:kick1.wav
192,192,121172,1,0,0:0:0:0:
320,192,121343,1,0,0:0:0:0:
64,192,121343,1,0,0:0:0:70:snare2.wav
448,192,121343,1,0,0:0:0:0:
192,192,121515,1,0,0:0:0:0:
448,192,121686,128,0,122029:0:0:0:0:
320,192,121686,1,0,0:0:0:70:finish1.wav
64,192,121686,1,0,0:0:0:70:kick1.wav
64,192,121858,1,0,0:0:0:0:
192,192,122029,1,0,0:0:0:0:
320,192,122029,1,0,0:0:0:70:snare2.wav
64,192,122200,128,0,122372:0:0:0:0:
192,192,122200,1,0,0:0:0:0:
320,192,122372,1,0,0:0:0:0:
448,192,122372,1,0,0:0:0:70:kick1.wav
192,192,122543,1,0,0:0:0:0:
448,192,122715,1,0,0:0:0:0:
64,192,122715,1,0,0:0:0:70:snare2.wav
320,192,122715,1,0,0:0:0:0:
320,192,122886,128,0,123229:0:0:0:0:
64,192,122886,1,0,0:0:0:0:
192,192,122886,1,0,0:0:0:70:finish1.wav
448,192,123058,1,0,0:0:0:70:kick1.wav
64,192,123229,1,0,0:0:0:0:
448,192,123400,1,0,0:0:0:70:snare2.wav
192,192,123400,1,0,0:0:0:0:
320,192,123400,1,0,0:0:0:0:
192,192,123572,128,0,123915:0:0:0:0:
320,192,123572,1,0,0:0:0:0:
64,192,123743,1,0,0:0:0:70:kick1.wav
448,192,123915,1,0,0:0:0:0:
192,192,124086,1,0,0:0:0:0:
64,192,124086,1,0,0:0:0:70:snare2.wav
448,192,124086,1,0,0:0:0:0:
64,192,124258,128,0,124600:0:0:0:0:
320,192,124258,1,0,0:0:0:0:
192,192,124429,1,0,0:0:0:70:finish1.wav
448,192,124429,1,0,0:0:0:70:kick1.wav
320,192,124600,1,0,0:0:0:0:
448,192,124772,1,0,0:0:0:70:snare2.wav
64,192,124772,1,0,0:0:0:0:
192,192,124772,1,0,0:0:0:0:
320,192,124943,1,0,0:0:0:0:
320,192,125115,1,0,0:0:0:0:
64,192,125115,1,0,0:0:0:70:kick1.wav
192,192,125286,1,0,0:0:0:0:
448,192,125458,1,0,0:0:0:70:snare2.wav
64,192,125458,1,0,0:0:0:0:
320,192,125458,1,0,0:0:0:0:
448,192,125629,128,0,127172:0:0:0:0:
64,192,125629,1,0,0:0:0:0:
320,192,125629,1,0,0:0:0:70:finish1.wav
192,192,125629,128,0,125800:0:0:0:0:
64,192,125800,1,0,0:0:0:70:kick1.wav
320,192,125972,1,0,0:0:0:0:
192,192,126143,1,0,0:0:0:0:
64,192,126143,1,0,0:0:0:70:snare2.wav
320,192,126315,128,0,126486:0:0:0:0:
64,192,126315,1,0,0:0:0:0:
64,192,126486,1,0,0:0:0:70:kick1.wav
192,192,126658,1,0,0:0:0:0:
320,192,126829,1,0,0:0:0:70:snare2.wav
64,192,126829,1,0,0:0:0:0:
192,192,127000,128,0,127343:0:0:0:0:
320,192,127000,1,0,0:0:0:0:
64,192,127172,128,0,128372:0:0:0:70:kick1.wav
320,192,127172,1,0,0:0:0:70:finish1.wav
320,192,127343,1,0,0:0:0:0:
448,192,127515,1,0,0:0:0:70:snare2.wav
192,192,127515,1,0,0:0:0:0:
448,192,127686,128,0,128029:0:0:0:0:
192,192,127686,1,0,0:0:0:0:
320,192,127858,1,0,0:0:0:70:kick1.wav
192,192,128029,1,0,0:0:0:0:
448,192,128200,1,0,0:0:0:70:snare2.wav
192,192,128200,1,0,0:0:0:0:
320,192,128372,1,0,0:0:0:70:finish1.wav
192,192,128372,128,0,128715:0:0:0:0:
448,192,128372,128,0,129229:0:0:0:0:
64,192,128543,1,0,0:0:0:70:kick1.wav
320,192,128715,1,0,0:0:0:0:
64,192,128886,1,0,0:0:0:70:snare2.wav
320,192,128886,1,0,0:0:0:0:
64,192,129058,128,0,129400:0:0:0:0:
192,192,129058,1,0,0:0:0:0:
320,192,129229,1,0,0:0:0:70:snare2.wav
192,192,129315,1,0,0:0:0:70:snare2.wav
448,192,129400,1,0,0:0:0:70:snare1.wav
320,192,129486,1,0,0:0:0:70:snare1.wav
448,192,129572,1,0,0:0:0:0:
192,192,129572,1,0,0:0:0:70:snare2.wav
64,192,129658,1,0,0:0:0:0:
320,192,129658,1,0,0:0:0:70:snare2.wav
448,192,129743,1,0,0:0:0:0:
192,192,129743,1,0,0:0:0:70:snare2.wav
320,192,129829,1,0,0:0:0:70:snare2.wav
64,192,129829,1,0,0:0:0:0:
64,192,129915,1,0,0:0:0:70:kick1.wav
192,192,129915,1,0,0:0:0:70:finish1.wav
448,192,129915,128,0,130429:0:0:0:0:
320,192,130086,1,0,0:0:0:0:
64,192,130258,1,0,0:0:0:70:snare2.wav
192,192,130258,1,0,0:0:0:0:
320,192,130429,128,0,130772:0:0:0:0:
192,192,130429,1,0,0:0:0:0:
448,192,130600,1,0,0:0:0:70:kick1.wav
64,192,130772,1,0,0:0:0:0:
192,192,130943,128,0,131629:0:0:0:0:
320,192,130943,1,0,0:0:0:0:
448,192,130943,1,0,0:0:0:70:snare2.wav
64,192,131115,1,0,0:0:0:0:
320,192,131115,1,0,0:0:0:70:finish1.wav
448,192,131286,1,0,0:0:0:70:kick1.wav
64,192,131458,1,0,0:0:0:0:
320,192,131629,128,0,131972:0:0:0:0:
64,192,131629,1,0,0:0:0:70:snare2.wav
448,192,131629,1,0,0:0:0:0:
192,192,131800,1,0,0:0:0:0:
64,192,131972,128,0,132143:0:0:0:0:
448,192,131972,1,0,0:0:0:70:kick1.wav
320,192,132143,128,0,132315:0:0:0:0:
192,192,132143,1,0,0:0:0:0:
448,192,132315,1,0,0:0:0:70:snare2.wav
64,192,132315,1,0,0:0:0:0:
192,192,132486,128,0,132658:0:0:0:0:
320,192,132486,1,0,0:0:0:0:
320,192,132658,128,0,132829:0:0:0:0:
448,192,132658,1,0,0:0:0:70:kick1.wav
64,192,132658,1,0,0:0:0:70:finish1.wav
64,192,132829,128,0,133000:0:0:0:0:
448,192,132829,1,0,0:0:0:0:
448,192,133000,128,0,133343:0:0:0:0:
320,192,133000,1,0,0:0:0:70:snare2.wav
192,192,133000,1,0,0:0:0:0:
192,192,133172,1,0,0:0:0:0:
320,192,133343,1,0,0:0:0:0:
64,192,133343,1,0,0:0:0:70:kick1.wav
192,192,133429,1,0,0:0:0:0:
64,192,133515,1,0,0:0:0:0:
320,192,133600,1,0,0:0:0:0:
192,192,133686,1,0,0:0:0:0:
64,192,133686,1,0,0:0:0:70:snare2.wav
448,192,133686,1,0,0:0:0:0:
320,192,133772,1,0,0:0:0:0:
448,192,133858,1,0,0:0:0:0:
192,192,133858,1,0,0:0:0:70:finish1.wav
64,192,133943,128,0,134029:0:0:0:0:
448,192,134029,1,0,0:0:0:70:kick1.wav
320,192,134029,1,0,0:0:0:0:
192,192,134115,1,0,0:0:0:0:
448,192,134200,1,0,0:0:0:0:
320,192,134286,1,0,0:0:0:0:
64,192,134372,1,0,0:0:0:0:
192,192,134372,1,0,0:0:0:0:
448,192,134372,1,0,0:0:0:70:snare2.wav
320,192,134458,1,0,0:0:0:0:
448,192,134543,1,0,0:0:0:0:
192,192,134629,128,0,135229:0:0:0:0:
64,192,134715,1,0,0:0:0:70:kick1.wav
320,192,134886,1,0,0:0:0:0:
448,192,135058,1,0,0:0:0:70:snare2.wav
64,192,135058,1,0,0:0:0:0:
320,192,135229,1,0,0:0:0:0:
448,192,135400,1,0,0:0:0:70:kick1.wav
64,192,135400,1,0,0:0:0:0:
192,192,135400,1,0,0:0:0:70:finish1.wav
320,192,135486,1,0,0:0:0:0:
64,192,135572,1,0,0:0:0:0:
192,192,135658,1,0,0:0:0:0:
448,192,135743,1,0,0:0:0:70:snare2.wav
320,192,135743,1,0,0:0:0:0:
64,192,135743,1,0,0:0:0:0:
192,192,135829,1,0,0:0:0:0:
320,192,135915,1,0,0:0:0:0:
64,192,136000,1,0,0:0:0:0:
192,192,136086,1,0,0:0:0:0:
448,192,136086,1,0,0:0:0:70:kick1.wav
64,192,136172,1,0,0:0:0:0:
320,192,136258,1,0,0:0:0:0:
192,192,136343,1,0,0:0:0:0:
320,192,136429,1,0,0:0:0:0:
448,192,136429,1,0,0:0:0:0:
64,192,136429,1,0,0:0:0:70:snare2.wav
192,192,136515,1,0,0:0:0:0:
448,192,136600,1,0,0:0:0:70:finish1.wav
64,192,136600,1,0,0:0:0:0:
192,192,136686,1,0,0:0:0:0:
320,192,136772,1,0,0:0:0:0:
448,192,136772,1,0,0:0:0:70:kick1.wav
64,192,136858,1,0,0:0:0:0:
320,192,136943,1,0,0:0:0:0:
192,192,137029,1,0,0:0:0:0:
64,192,137115,1,0,0:0:0:70:snare2.wav
448,192,137115,1,0,0:0:0:0:
320,192,137115,1,0,0:0:0:0:
192,192,137200,1,0,0:0:0:0:
320,192,137286,1,0,0:0:0:0:
64,192,137372,1,0,0:0:0:0:
448,192,137458,1,0,0:0:0:70:kick1.wav
192,192,137458,1,0,0:0:0:0:
64,192,137543,1,0,0:0:0:0:
320,192,137629,1,0,0:0:0:0:
192,192,137715,1,0,0:0:0:0:
320,192,137800,1,0,0:0:0:0:
64,192,137800,1,0,0:0:0:0:
448,192,137800,1,0,0:0:0:70:snare2.wav
192,192,137886,1,0,0:0:0:0:
448,192,137972,1,0,0:0:0:0:
320,192,138058,1,0,0:0:0:0:
192,192,138143,1,0,0:0:0:70:finish1.wav
64,192,138143,1,0,0:0:0:70:kick1.wav
448,192,138143,1,0,0:0:0:0:
320,192,138229,1,0,0:0:0:0:
64,192,138315,128,0,138486:0:0:0:0:
448,192,138315,1,0,0:0:0:0:
320,192,138486,1,0,0:0:0:0:
192,192,138486,1,0,0:0:0:0:
448,192,138486,1,0,0:0:0:70:snare2.wav
64,192,138572,1,0,0:0:0:0:
192,192,138658,1,0,0:0:0:0:
448,192,138743,1,0,0:0:0:0:
320,192,138829,1,0,0:0:0:0:
192,192,138829,1,0,0:0:0:70:kick1.wav
64,192,138915,1,0,0:0:0:0:
320,192,139000,1,0,0:0:0:0:
192,192,139086,1,0,0:0:0:0:
320,192,139172,1,0,0:0:0:0:
64,192,139172,1,0,0:0:0:0:
448,192,139172,1,0,0:0:0:70:snare2.wav
192,192,139258,1,0,0:0:0:0:
64,192,139343,1,0,0:0:0:0:
320,192,139343,1,0,0:0:0:70:finish1.wav
448,192,139429,1,0,0:0:0:0:
192,192,139515,1,0,0:0:0:0:
64,192,139515,1,0,0:0:0:70:kick1.wav
320,192,139600,1,0,0:0:0:0:
448,192,139686,1,0,0:0:0:0:
192,192,139772,1,0,0:0:0:0:
320,192,139858,1,0,0:0:0:0:
64,192,139858,1,0,0:0:0:70:snare2.wav
448,192,139858,1,0,0:0:0:0:
192,192,139943,1,0,0:0:0:0:
448,192,140029,1,0,0:0:0:0:
64,192,140115,1,0,0:0:0:0:
320,192,140200,128,0,140543:0:0:0:0:
448,192,140200,1,0,0:0:0:70:kick1.wav
192,192,140372,1,0,0:0:0:0:
448,192,140543,1,0,0:0:0:70:snare1.wav
64,192,140543,128,0,140886:0:0:0:0:
192,192,140543,1,0,0:0:0:0:
320,192,140629,1,0,0:0:0:70:snare1.wav
448,192,140715,1,0,0:0:0:70:snare1.wav
192,192,140715,1,0,0:0:0:0:
448,192,140886,1,0,0:0:0:70:kick1.wav
192,192,140886,1,0,0:0:0:0:
320,192,140886,1,0,0:0:0:70:finish1.wav
64,192,140972,1,0,0:0:0:0:
320,192,141058,1,0,0:0:0:0:
192,192,141143,1,0,0:0:0:0:
320,192,141229,1,0,0:0:0:0:
448,192,141229,1,0,0:0:0:0:
64,192,141229,1,0,0:0:0:70:snare2.wav
192,192,141315,1,0,0:0:0:0:
64,192,141400,1,0,0:0:0:0:
320,192,141486,1,0,0:0:0:0:
448,192,141572,1,0,0:0:0:0:
64,192,141572,1,0,0:0:0:70:kick1.wav
192,192,141658,1,0,0:0:0:0:
320,192,141743,1,0,0:0:0:0:
192,192,141829,1,0,0:0:0:0:
64,192,141915,1,0,0:0:0:0:
448,192,141915,1,0,0:0:0:70:snare2.wav
320,192,141915,1,0,0:0:0:0:
192,192,142000,1,0,0:0:0:0:
64,192,142086,1,0,0:0:0:0:
320,192,142086,1,0,0:0:0:70:finish1.wav
448,192,142172,1,0,0:0:0:0:
320,192,142258,1,0,0:0:0:0:
192,192,142258,1,0,0:0:0:70:kick1.wav
64,192,142343,1,0,0:0:0:0:
448,192,142429,1,0,0:0:0:0:
192,192,142515,1,0,0:0:0:0:
448,192,142600,1,0,0:0:0:70:snare2.wav
64,192,142600,1,0,0:0:0:0:
320,192,142600,1,0,0:0:0:0:
192,192,142686,1,0,0:0:0:0:
320,192,142772,1,0,0:0:0:0:
448,192,142858,1,0,0:0:0:0:
192,192,142943,1,0,0:0:0:0:
64,192,142943,1,0,0:0:0:70:kick1.wav
320,192,143029,1,0,0:0:0:0:
448,192,143115,1,0,0:0:0:0:
192,192,143200,1,0,0:0:0:0:
320,192,143286,1,0,0:0:0:0:
448,192,143286,1,0,0:0:0:70:snare2.wav
64,192,143286,1,0,0:0:0:0:
192,192,143372,1,0,0:0:0:0:
320,192,143458,1,0,0:0:0:0:
192,192,143543,1,0,0:0:0:0:
448,192,143629,1,0,0:0:0:70:kick1.wav
64,192,143629,1,0,0:0:0:0:
320,192,143629,1,0,0:0:0:70:finish1.wav
192,192,143715,1,0,0:0:0:0:
64,192,143800,1,0,0:0:0:0:
320,192,143886,1,0,0:0:0:0:
64,192,143972,1,0,0:0:0:70:snare2.wav
192,192,143972,1,0,0:0:0:0:
448,192,143972,1,0,0:0:0:0:
320,192,144058,1,0,0:0:0:0:
448,192,144143,1,0,0:0:0:0:
192,192,144229,1,0,0:0:0:0:
448,192,144315,1,0,0:0:0:70:kick1.wav
320,192,144315,1,0,0:0:0:0:
64,192,144400,1,0,0:0:0:0:
320,192,144486,1,0,0:0:0:0:
64,192,144572,1,0,0:0:0:0:
192,192,144658,1,0,0:0:0:0:
448,192,144658,1,0,0:0:0:70:snare2.wav
320,192,144658,1,0,0:0:0:0:
64,192,144743,1,0,0:0:0:0:
192,192,144829,1,0,0:0:0:70:finish1.wav
320,192,144829,1,0,0:0:0:0:
448,192,144915,1,0,0:0:0:0:
320,192,145000,1,0,0:0:0:0:
64,192,145000,1,0,0:0:0:70:kick1.wav
448,192,145086,1,0,0:0:0:0:
192,192,145172,1,0,0:0:0:0:
320,192,145258,1,0,0:0:0:0:
448,192,145343,1,0,0:0:0:0:
64,192,145343,1,0,0:0:0:70:snare2.wav
192,192,145343,1,0,0:0:0:0:
320,192,145429,1,0,0:0:0:0:
192,192,145515,128,0,145858:0:0:0:0:
64,192,145515,1,0,0:0:0:0:
448,192,145686,1,0,0:0:0:70:kick1.wav
448,192,145858,128,0,146029:0:0:0:0:
64,192,145858,1,0,0:0:0:0:
320,192,146029,128,0,146200:0:0:0:0:
64,192,146029,1,0,0:0:0:70:snare2.wav
192,192,146029,1,0,0:0:0:0:
192,192,146200,128,0,146372:0:0:0:0:
448,192,146200,1,0,0:0:0:0:
64,192,146372,128,0,146715:0:0:0:0:
320,192,146372,1,0,0:0:0:70:finish1.wav
448,192,146372,1,0,0:0:0:70:kick1.wav
320,192,146543,1,0,0:0:0:0:
320,192,146715,1,0,0:0:0:0:
448,192,146715,1,0,0:0:0:70:snare2.wav
192,192,146715,1,0,0:0:0:0:
64,192,146886,1,0,0:0:0:0:
448,192,146972,1,0,0:0:0:0:
320,192,147058,128,0,147229:0:0:0:0:
192,192,147058,1,0,0:0:0:70:kick1.wav
448,192,147229,128,0,147400:0:0:0:0:
64,192,147229,1,0,0:0:0:0:
320,192,147400,128,0,147572:0:0:0:0:
64,192,147400,1,0,0:0:0:70:snare2.wav
192,192,147400,1,0,0:0:0:0:
192,192,147572,128,0,147915:0:0:0:0:
448,192,147572,1,0,0:0:0:70:finish1.wav
64,192,147572,1,0,0:0:0:0:
320,192,147743,1,0,0:0:0:70:kick1.wav
448,192,147915,128,0,148086:0:0:0:0:
64,192,147915,1,0,0:0:0:0:
64,192,148086,128,0,148258:0:0:0:0:
320,192,148086,1,0,0:0:0:0:
192,192,148086,1,0,0:0:0:70:snare2.wav
320,192,148258,128,0,148429:0:0:0:0:
448,192,148258,1,0,0:0:0:0:
192,192,148429,1,0,0:0:0:0:
448,192,148429,1,0,0:0:0:70:kick1.wav
64,192,148515,1,0,0:0:0:0:
448,192,148600,1,0,0:0:0:0:
320,192,148686,1,0,0:0:0:0:
448,192,148772,1,0,0:0:0:0:
64,192,148772,1,0,0:0:0:70:snare2.wav
192,192,148772,1,0,0:0:0:0:
320,192,148858,1,0,0:0:0:0:
192,192,148943,128,0,149286:0:0:0:0:
64,192,148943,1,0,0:0:0:0:
448,192,149115,1,0,0:0:0:70:finish1.wav
64,192,149115,1,0,0:0:0:70:kick1.wav
320,192,149286,1,0,0:0:0:0:
192,192,149372,1,0,0:0:0:0:
64,192,149458,1,0,0:0:0:0:
320,192,149458,1,0,0:0:0:0:
448,192,149458,1,0,0:0:0:70:snare2.wav
192,192,149543,1,0,0:0:0:0:
320,192,149629,128,0,149800:0:0:0:0:
448,192,149629,1,0,0:0:0:0:
64,192,149800,1,0,0:0:0:70:kick1.wav
192,192,149800,1,0,0:0:0:0:
192,192,149972,1,0,0:0:0:0:
320,192,150058,1,0,0:0:0:0:
192,192,150143,1,0,0:0:0:0:
448,192,150143,1,0,0:0:0:0:
64,192,150143,1,0,0:0:0:70:snare2.wav
320,192,150229,1,0,0:0:0:0:
448,192,150315,128,0,150658:0:0:0:0:
192,192,150315,1,0,0:0:0:70:finish1.wav
64,192,150315,1,0,0:0:0:0:
320,192,150486,1,0,0:0:0:0:
64,192,150486,1,0,0:0:0:70:kick1.wav
320,192,150658,128,0,150829:0:0:0:0:
192,192,150658,1,0,0:0:0:0:
192,192,150829,128,0,151000:0:0:0:0:
64,192,150829,1,0,0:0:0:0:
448,192,150829,1,0,0:0:0:70:snare2.wav
448,192,151000,128,0,151686:0:0:0:0:
320,192,151000,1,0,0:0:0:0:
64,192,151172,1,0,0:0:0:70:snare1.wav
320,192,151172,1,0,0:0:0:0:
64,192,151343,1,0,0:0:0:70:snare1.wav
320,192,151343,1,0,0:0:0:0:
64,192,151515,1,0,0:0:0:70:snare1.wav
320,192,151515,1,0,0:0:0:0:
64,192,151686,1,0,0:0:0:70:snare1.wav
320,192,151686,1,0,0:0:0:0:
64,192,151858,1,0,0:0:0:0:
192,192,151858,1,0,0:0:0:0:
448,192,151858,1,0,0:0:0:0:
320,192,152200,1,0,0:0:0:0:
448,192,152543,1,0,0:0:0:0:
64,192,152886,1,0,0:0:0:0:
192,192,153058,1,0,0:0:0:0:
64,192,153572,1,0,0:0:0:0:
448,192,153915,1,0,0:0:0:0:
192,192,154258,1,0,0:0:0:0:
448,192,154600,1,0,0:0:0:0:
64,192,154943,1,0,0:0:0:0:
448,192,155286,1,0,0:0:0:0:
192,192,155629,1,0,0:0:0:0:
320,192,155800,1,0,0:0:0:0:
192,192,156315,1,0,0:0:0:0:
448,192,156658,1,0,0:0:0:0:
64,192,157000,1,0,0:0:0:0:
320,192,157343,1,0,0:0:0:0:
192,192,157686,1,0,0:0:0:0:
448,192,158029,1,0,0:0:0:0:
64,192,158372,1,0,0:0:0:0:
192,192,158543,1,0,0:0:0:0:
64,192,159058,1,0,0:0:0:0:
448,192,159400,1,0,0:0:0:0:
320,192,159743,1,0,0:0:0:0:
192,192,160086,1,0,0:0:0:0:
64,192,160429,1,0,0:0:0:0:
448,192,160772,1,0,0:0:0:0:
64,192,161115,1,0,0:0:0:0:
192,192,161286,1,0,0:0:0:0:
64,192,161629,1,0,0:0:0:0:
320,192,161800,1,0,0:0:0:0:
192,192,161800,1,0,0:0:0:0:
64,192,161972,1,0,0:0:0:0:
448,192,162143,1,0,0:0:0:0:
320,192,162143,1,0,0:0:0:0:
192,192,162315,1,0,0:0:0:0:
64,192,162486,1,0,0:0:0:0:
448,192,162486,1,0,0:0:0:0:
192,192,162658,1,0,0:0:0:0:
64,192,162829,1,0,0:0:0:70:kick1.wav
320,192,162829,1,0,0:0:0:70:finish1.wav
448,192,162829,1,0,0:0:0:0:
64,192,163000,1,0,0:0:0:0:
192,192,163172,1,0,0:0:0:0:
320,192,163172,1,0,0:0:0:0:
448,192,163172,1,0,0:0:0:70:snare2.wav
192,192,163343,1,0,0:0:0:0:
448,192,163515,1,0,0:0:0:0:
64,192,163515,1,0,0:0:0:70:kick1.wav
448,192,163686,1,0,0:0:0:0:
64,192,163858,1,0,0:0:0:0:
448,192,163858,1,0,0:0:0:70:snare2.wav
320,192,163858,1,0,0:0:0:0:
320,192,164029,1,0,0:0:0:0:
64,192,164200,1,0,0:0:0:0:
448,192,164200,1,0,0:0:0:70:kick1.wav
320,192,164372,1,0,0:0:0:0:
64,192,164543,1,0,0:0:0:70:snare2.wav
192,192,164543,1,0,0:0:0:0:
448,192,164543,1,0,0:0:0:0:
320,192,164715,1,0,0:0:0:0:
448,192,164886,1,0,0:0:0:70:kick1.wav
192,192,164886,1,0,0:0:0:0:
64,192,165058,1,0,0:0:0:0:
192,192,165229,1,0,0:0:0:0:
448,192,165229,1,0,0:0:0:70:snare2.wav
320,192,165229,1,0,0:0:0:0:
64,192,165400,1,0,0:0:0:0:
320,192,165572,1,0,0:0:0:0:
448,192,165572,1,0,0:0:0:70:kick1.wav
320,192,165743,1,0,0:0:0:0:
192,192,165915,1,0,0:0:0:0:
64,192,165915,1,0,0:0:0:70:snare2.wav
448,192,165915,1,0,0:0:0:0:
192,192,166086,1,0,0:0:0:0:
448,192,166258,1,0,0:0:0:0:
64,192,166258,1,0,0:0:0:70:kick1.wav
448,192,166429,1,0,0:0:0:0:
64,192,166600,1,0,0:0:0:0:
320,192,166600,1,0,0:0:0:0:
448,192,166600,1,0,0:0:0:70:snare2.wav
64,192,166772,1,0,0:0:0:0:
448,192,166943,1,0,0:0:0:70:kick1.wav
320,192,166943,1,0,0:0:0:0:
192,192,167115,1,0,0:0:0:0:
64,192,167286,1,0,0:0:0:70:snare2.wav
320,192,167286,1,0,0:0:0:0:
448,192,167286,1,0,0:0:0:0:
192,192,167458,1,0,0:0:0:0:
448,192,167629,1,0,0:0:0:0:
64,192,167629,1,0,0:0:0:70:kick1.wav
192,192,167800,1,0,0:0:0:0:
320,192,167972,1,0,0:0:0:0:
448,192,167972,1,0,0:0:0:70:snare2.wav
64,192,167972,1,0,0:0:0:0:
320,192,168143,1,0,0:0:0:0:
64,192,168315,1,0,0:0:0:70:kick1.wav
192,192,168315,1,0,0:0:0:70:finish1.wav
448,192,168315,1,0,0:0:0:0:
448,192,168486,1,0,0:0:0:0:
192,192,168658,1,0,0:0:0:0:
64,192,168658,1,0,0:0:0:70:snare2.wav
320,192,168658,1,0,0:0:0:0:
64,192,168829,1,0,0:0:0:0:
448,192,169000,1,0,0:0:0:70:kick1.wav
192,192,169000,1,0,0:0:0:0:
192,192,169172,1,0,0:0:0:0:
64,192,169343,1,0,0:0:0:0:
320,192,169343,1,0,0:0:0:0:
448,192,169343,1,0,0:0:0:70:snare2.wav
320,192,169515,1,0,0:0:0:0:
448,192,169686,1,0,0:0:0:0:
64,192,169686,1,0,0:0:0:70:kick1.wav
192,192,169858,1,0,0:0:0:0:
320,192,170029,1,0,0:0:0:0:
448,192,170029,1,0,0:0:0:70:snare2.wav
64,192,170029,1,0,0:0:0:0:
192,192,170200,1,0,0:0:0:0:
64,192,170372,1,0,0:0:0:0:
448,192,170372,1,0,0:0:0:70:kick1.wav
320,192,170543,1,0,0:0:0:0:
64,192,170715,1,0,0:0:0:70:snare2.wav
192,192,170715,1,0,0:0:0:0:
448,192,170715,1,0,0:0:0:0:
320,192,170886,1,0,0:0:0:0:
448,192,171058,1,0,0:0:0:70:kick1.wav
192,192,171058,1,0,0:0:0:0:
448,192,171229,5,0,0:0:0:0:
64,192,171400,5,0,0:0:0:70:snare2.wav
192,192,171400,1,0,0:0:0:0:
448,192,171400,1,0,0:0:0:0:
64,192,171572,1,0,0:0:0:0:
448,192,171743,1,0,0:0:0:70:kick1.wav
192,192,171743,1,0,0:0:0:0:
192,192,171915,1,0,0:0:0:0:
64,192,172086,1,0,0:0:0:0:
448,192,172086,1,0,0:0:0:70:snare2.wav
320,192,172086,1,0,0:0:0:0:
64,192,172258,128,0,173800:0:0:0:0:
448,192,172258,1,0,0:0:0:0:
320,192,172429,128,0,172600:0:0:0:0:
192,192,172600,128,0,172772:0:0:0:0:
320,192,172772,128,0,172943:0:0:0:0:
448,192,172943,128,0,173115:0:0:0:0:
192,192,173115,128,0,173286:0:0:0:0:
448,192,173286,128,0,173458:0:0:0:0:
320,192,173458,128,0,173629:0:0:0:0:
192,192,173458,1,0,0:0:0:70:snare1.wav
192,192,173629,128,0,173800:0:0:0:0:
448,192,173800,128,0,174143:0:0:0:70:kick1.wav
320,192,173800,1,0,0:0:0:70:finish1.wav
192,192,173972,1,0,0:0:0:0:
320,192,174143,1,0,0:0:0:0:
64,192,174143,1,0,0:0:0:70:snare2.wav
192,192,174143,1,0,0:0:0:0:
448,192,174315,1,0,0:0:0:0:
320,192,174315,128,0,174658:0:0:0:0:
64,192,174486,1,0,0:0:0:70:kick1.wav
192,192,174658,1,0,0:0:0:0:
448,192,174658,1,0,0:0:0:0:
320,192,174829,1,0,0:0:0:0:
64,192,174829,1,0,0:0:0:70:snare2.wav
192,192,174829,128,0,175172:0:0:0:0:
320,192,175000,1,0,0:0:0:70:finish1.wav
448,192,175000,1,0,0:0:0:0:
64,192,175172,1,0,0:0:0:0:
448,192,175172,1,0,0:0:0:70:kick1.wav
192,192,175343,1,0,0:0:0:0:
64,192,175343,128,0,175686:0:0:0:0:
320,192,175515,1,0,0:0:0:0:
448,192,175515,1,0,0:0:0:70:snare2.wav
192,192,175686,1,0,0:0:0:0:
64,192,175858,1,0,0:0:0:70:kick1.wav
192,192,175858,128,0,176029:0:0:0:0:
320,192,176029,1,0,0:0:0:0:
448,192,176200,1,0,0:0:0:70:snare2.wav
64,192,176200,1,0,0:0:0:0:
320,192,176200,128,0,176372:0:0:0:0:
192,192,176372,1,0,0:0:0:0:
448,192,176543,1,0,0:0:0:70:kick1.wav
192,192,176543,1,0,0:0:0:70:finish1.wav
64,192,176543,128,0,176886:0:0:0:0:
320,192,176715,1,0,0:0:0:0:
448,192,176886,1,0,0:0:0:70:snare2.wav
192,192,176886,128,0,177058:0:0:0:0:
320,192,176886,1,0,0:0:0:0:
448,192,177058,1,0,0:0:0:0:
320,192,177058,128,0,177400:0:0:0:0:
64,192,177229,1,0,0:0:0:70:kick1.wav
64,192,177400,128,0,177572:0:0:0:0:
448,192,177400,1,0,0:0:0:0:
320,192,177572,1,0,0:0:0:70:snare2.wav
448,192,177572,128,0,177743:0:0:0:0:
192,192,177572,1,0,0:0:0:0:
192,192,177743,1,0,0:0:0:70:finish1.wav
64,192,177743,1,0,0:0:0:0:
320,192,177743,128,0,178086:0:0:0:0:
448,192,177915,1,0,0:0:0:70:kick1.wav
192,192,178086,1,0,0:0:0:0:
64,192,178086,128,0,178258:0:0:0:0:
192,192,178258,1,0,0:0:0:0:
448,192,178258,128,0,178429:0:0:0:0:
320,192,178258,1,0,0:0:0:70:snare2.wav
320,192,178429,1,0,0:0:0:0:
192,192,178429,128,0,178772:0:0:0:0:
64,192,178600,1,0,0:0:0:70:kick1.wav
448,192,178600,1,0,0:0:0:0:
448,192,178772,128,0,178943:0:0:0:0:
320,192,178772,1,0,0:0:0:0:
64,192,178943,1,0,0:0:0:70:snare2.wav
320,192,178943,128,0,179115:0:0:0:0:
192,192,178943,1,0,0:0:0:0:
64,192,179115,1,0,0:0:0:0:
192,192,179115,128,0,179458:0:0:0:0:
320,192,179286,1,0,0:0:0:70:finish1.wav
448,192,179286,1,0,0:0:0:70:kick1.wav
64,192,179458,1,0,0:0:0:0:
448,192,179629,1,0,0:0:0:70:snare2.wav
320,192,179629,1,0,0:0:0:0:
64,192,179629,1,0,0:0:0:0:
64,192,179800,128,0,179972:0:0:0:0:
320,192,179800,1,0,0:0:0:0:
192,192,179972,128,0,180143:0:0:0:0:
448,192,179972,1,0,0:0:0:70:kick1.wav
320,192,180143,128,0,180315:0:0:0:0:
64,192,180143,1,0,0:0:0:0:
64,192,180315,1,0,0:0:0:70:snare2.wav
448,192,180315,1,0,0:0:0:0:
192,192,180315,128,0,180486:0:0:0:0:
320,192,180486,1,0,0:0:0:70:finish1.wav
448,192,180486,128,0,182029:0:0:0:0:
64,192,180486,128,0,180658:0:0:0:0:
192,192,180658,1,0,0:0:0:70:kick1.wav
64,192,180829,1,0,0:0:0:0:
192,192,180829,128,0,181000:0:0:0:0:
320,192,181000,1,0,0:0:0:0:
64,192,181000,1,0,0:0:0:70:snare2.wav
192,192,181172,1,0,0:0:0:0:
320,192,181172,128,0,181343:0:0:0:0:
192,192,181343,1,0,0:0:0:70:kick1.wav
64,192,181515,1,0,0:0:0:0:
192,192,181515,128,0,181686:0:0:0:0:
320,192,181686,128,0,181858:0:0:0:0:
64,192,181686,1,0,0:0:0:70:snare2.wav
64,192,181858,1,0,0:0:0:0:
192,192,181858,128,0,182200:0:0:0:0:
320,192,182029,1,0,0:0:0:70:finish1.wav
64,192,182029,128,0,183229:0:0:0:70:kick1.wav
320,192,182200,1,0,0:0:0:0:
192,192,182372,1,0,0:0:0:0:
448,192,182372,128,0,182543:0:0:0:0:
320,192,182372,1,0,0:0:0:70:snare2.wav
192,192,182543,1,0,0:0:0:0:
320,192,182543,128,0,182886:0:0:0:0:
448,192,182715,1,0,0:0:0:70:kick1.wav
448,192,182886,128,0,183058:0:0:0:0:
192,192,182886,1,0,0:0:0:0:
320,192,183058,1,0,0:0:0:70:snare2.wav
192,192,183058,1,0,0:0:0:0:
320,192,183229,128,0,183743:0:0:0:0:
448,192,183229,128,0,184086:0:0:0:0:
192,192,183229,1,0,0:0:0:70:finish1.wav
64,192,183400,1,0,0:0:0:70:kick1.wav
192,192,183572,1,0,0:0:0:0:
192,192,183743,1,0,0:0:0:0:
64,192,183743,1,0,0:0:0:70:snare2.wav
192,192,183915,1,0,0:0:0:0:
64,192,183915,128,0,184258:0:0:0:0:
320,192,184086,1,0,0:0:0:70:kick1.wav
192,192,184086,1,0,0:0:0:0:
448,192,184258,1,0,0:0:0:0:
64,192,184429,1,0,0:0:0:0:
320,192,184429,1,0,0:0:0:70:snare1.wav
192,192,184515,1,0,0:0:0:70:snare1.wav
448,192,184515,1,0,0:0:0:0:
64,192,184600,1,0,0:0:0:0:
320,192,184600,1,0,0:0:0:70:snare1.wav
192,192,184686,1,0,0:0:0:70:snare1.wav
448,192,184686,1,0,0:0:0:0:
320,192,184772,1,0,0:0:0:70:finish1.wav
64,192,184772,1,0,0:0:0:70:kick1.wav
448,192,184772,128,0,185115:0:0:0:0:
192,192,184943,1,0,0:0:0:0:
192,192,185115,1,0,0:0:0:0:
320,192,185115,1,0,0:0:0:70:snare2.wav
64,192,185115,128,0,185286:0:0:0:0:
320,192,185286,128,0,185629:0:0:0:0:
448,192,185286,1,0,0:0:0:0:
192,192,185458,1,0,0:0:0:70:kick1.wav
448,192,185629,1,0,0:0:0:0:
64,192,185629,128,0,185800:0:0:0:0:
192,192,185800,128,0,186143:0:0:0:0:
320,192,185800,1,0,0:0:0:0:
448,192,185800,1,0,0:0:0:70:snare2.wav
320,192,185972,1,0,0:0:0:70:finish1.wav
448,192,185972,1,0,0:0:0:0:
64,192,186143,1,0,0:0:0:70:kick1.wav
448,192,186143,1,0,0:0:0:0:
64,192,186315,128,0,186658:0:0:0:0:
320,192,186315,1,0,0:0:0:0:
192,192,186486,1,0,0:0:0:0:
448,192,186486,1,0,0:0:0:70:snare2.wav
320,192,186658,1,0,0:0:0:0:
192,192,186829,128,0,187000:0:0:0:0:
448,192,186829,1,0,0:0:0:70:kick1.wav
64,192,187000,1,0,0:0:0:0:
64,192,187172,1,0,0:0:0:70:snare2.wav
192,192,187172,1,0,0:0:0:0:
320,192,187172,128,0,187343:0:0:0:0:
448,192,187343,128,0,187515:0:0:0:0:
192,192,187343,1,0,0:0:0:0:
64,192,187515,128,0,187858:0:0:0:0:
192,192,187515,1,0,0:0:0:70:finish1.wav
320,192,187515,1,0,0:0:0:70:kick1.wav
320,192,187686,1,0,0:0:0:0:
448,192,187858,1,0,0:0:0:70:snare2.wav
320,192,187858,1,0,0:0:0:0:
192,192,187858,128,0,188029:0:0:0:0:
320,192,188029,128,0,188200:0:0:0:0:
64,192,188029,1,0,0:0:0:0:
448,192,188200,1,0,0:0:0:0:
64,192,188200,1,0,0:0:0:70:kick1.wav
192,192,188372,128,0,188543:0:0:0:0:
448,192,188372,1,0,0:0:0:0:
64,192,188543,1,0,0:0:0:70:snare2.wav
320,192,188543,1,0,0:0:0:0:
448,192,188543,128,0,188715:0:0:0:0:
320,192,188715,128,0,189058:0:0:0:0:
64,192,188715,1,0,0:0:0:0:
192,192,188715,1,0,0:0:0:70:finish1.wav
448,192,188886,1,0,0:0:0:70:kick1.wav
192,192,189058,1,0,0:0:0:0:
64,192,189058,128,0,189229:0:0:0:0:
320,192,189229,1,0,0:0:0:70:snare2.wav
192,192,189229,1,0,0:0:0:0:
448,192,189229,128,0,189400:0:0:0:0:
192,192,189400,128,0,189743:0:0:0:0:
64,192,189400,1,0,0:0:0:0:
320,192,189572,1,0,0:0:0:70:kick1.wav
448,192,189743,128,0,189915:0:0:0:0:
64,192,189743,1,0,0:0:0:0:
64,192,189915,1,0,0:0:0:70:snare2.wav
192,192,189915,1,0,0:0:0:0:
320,192,189915,128,0,190086:0:0:0:0:
192,192,190086,128,0,190429:0:0:0:0:
448,192,190086,1,0,0:0:0:0:
64,192,190258,1,0,0:0:0:70:kick1.wav
448,192,190258,1,0,0:0:0:70:finish1.wav
320,192,190429,1,0,0:0:0:0:
320,192,190600,1,0,0:0:0:0:
448,192,190600,1,0,0:0:0:0:
64,192,190600,1,0,0:0:0:70:snare2.wav
192,192,190772,1,0,0:0:0:0:
448,192,190943,1,0,0:0:0:70:kick1.wav
192,192,190943,128,0,191115:0:0:0:0:
320,192,191115,128,0,191286:0:0:0:0:
64,192,191115,1,0,0:0:0:0:
448,192,191286,1,0,0:0:0:70:snare2.wav
64,192,191286,1,0,0:0:0:0:
192,192,191286,128,0,191458:0:0:0:0:
448,192,191458,128,0,193000:0:0:0:0:
64,192,191458,128,0,191629:0:0:0:0:
320,192,191458,1,0,0:0:0:70:finish1.wav
192,192,191629,1,0,0:0:0:70:kick1.wav
192,192,191800,128,0,191972:0:0:0:0:
64,192,191800,1,0,0:0:0:0:
64,192,191972,128,0,192143:0:0:0:0:
320,192,191972,1,0,0:0:0:70:snare2.wav
320,192,192143,128,0,192315:0:0:0:0:
192,192,192143,1,0,0:0:0:0:
64,192,192315,1,0,0:0:0:70:kick1.wav
192,192,192486,128,0,192658:0:0:0:0:
64,192,192486,1,0,0:0:0:0:
320,192,192658,1,0,0:0:0:70:snare2.wav
64,192,192658,128,0,192829:0:0:0:0:
192,192,192829,128,0,193172:0:0:0:0:
320,192,192829,1,0,0:0:0:0:
64,192,193000,128,0,194200:0:0:0:70:kick1.wav
320,192,193000,1,0,0:0:0:70:finish1.wav
448,192,193172,1,0,0:0:0:0:
448,192,193343,128,0,193515:0:0:0:0:
192,192,193343,1,0,0:0:0:70:snare2.wav
320,192,193515,128,0,193858:0:0:0:0:
192,192,193515,1,0,0:0:0:0:
448,192,193686,1,0,0:0:0:70:kick1.wav
192,192,193858,128,0,194029:0:0:0:0:
448,192,194029,1,0,0:0:0:70:snare2.wav
320,192,194029,1,0,0:0:0:0:
320,192,194200,128,0,194543:0:0:0:0:
448,192,194200,128,0,195058:0:0:0:0:
192,192,194200,1,0,0:0:0:70:finish1.wav
64,192,194372,1,0,0:0:0:70:kick1.wav
192,192,194543,1,0,0:0:0:0:
64,192,194715,1,0,0:0:0:70:snare2.wav
192,192,194715,1,0,0:0:0:0:
64,192,194886,128,0,195229:0:0:0:0:
320,192,194886,128,0,195058:0:0:0:0:
192,192,195058,1,0,0:0:0:70:snare1.wav
320,192,195143,1,0,0:0:0:70:snare1.wav
448,192,195229,1,0,0:0:0:70:snare1.wav
192,192,195315,1,0,0:0:0:70:snare1.wav
320,192,195400,1,0,0:0:0:70:snare1.wav
64,192,195400,1,0,0:0:0:0:
448,192,195486,1,0,0:0:0:0:
192,192,195486,1,0,0:0:0:70:snare1.wav
64,192,195572,1,0,0:0:0:0:
320,192,195572,1,0,0:0:0:70:snare1.wav
448,192,195743,128,0,200543:0:0:0:0:
320,192,195743,128,0,196943:0:0:0:0:
64,192,195743,1,0,0:0:0:70:kick1.wav
192,192,195743,1,0,0:0:0:70:finish1.wav
64,192,195915,1,0,0:0:0:0:
192,192,196086,1,0,0:0:0:70:snare2.wav
64,192,196258,1,0,0:0:0:0:
192,192,196429,1,0,0:0:0:70:kick1.wav
192,192,196600,1,0,0:0:0:0:
64,192,196772,1,0,0:0:0:70:snare2.wav
64,192,196943,128,0,198486:0:0:0:0:
192,192,196943,1,0,0:0:0:70:finish1.wav
320,192,197115,1,0,0:0:0:70:kick1.wav
192,192,197286,1,0,0:0:0:0:
320,192,197458,1,0,0:0:0:70:snare2.wav
192,192,197629,1,0,0:0:0:0:
320,192,197800,1,0,0:0:0:70:kick1.wav
320,192,197972,1,0,0:0:0:0:
192,192,198143,1,0,0:0:0:70:snare2.wav
192,192,198315,1,0,0:0:0:0:
192,192,198486,128,0,199686:0:0:0:70:kick1.wav
320,192,198486,1,0,0:0:0:70:finish1.wav
320,192,198658,1,0,0:0:0:0:
64,192,198829,1,0,0:0:0:70:snare2.wav
320,192,199000,1,0,0:0:0:0:
320,192,199172,1,0,0:0:0:70:kick1.wav
64,192,199343,1,0,0:0:0:0:
320,192,199515,1,0,0:0:0:70:snare2.wav
320,192,199686,128,0,200543:0:0:0:0:
64,192,199686,1,0,0:0:0:70:finish1.wav
192,192,199858,1,0,0:0:0:70:kick1.wav
64,192,200029,1,0,0:0:0:0:
192,192,200200,1,0,0:0:0:70:snare2.wav
64,192,200372,1,0,0:0:0:0:
192,192,200543,1,0,0:0:0:70:kick1.wav
64,192,200543,1,0,0:0:0:0:
192,192,200715,1,0,0:0:0:0:
320,192,200886,128,0,201229:0:0:0:0:
448,192,200886,1,0,0:0:0:0:
64,192,200886,1,0,0:0:0:70:snare2.wav
448,192,201058,1,0,0:0:0:0:
192,192,201229,128,0,206372:0:0:0:0:
64,192,201229,1,0,0:0:0:70:finish1.wav
448,192,201229,1,0,0:0:0:70:kick1.wav
320,192,201400,1,0,0:0:0:0:
448,192,201572,1,0,0:0:0:70:snare2.wav
64,192,201572,1,0,0:0:0:0:
64,192,201743,1,0,0:0:0:0:
320,192,201915,1,0,0:0:0:70:kick1.wav
448,192,202086,1,0,0:0:0:0:
64,192,202258,1,0,0:0:0:70:snare2.wav
320,192,202258,1,0,0:0:0:0:
448,192,202429,128,0,203972:0:0:0:0:
320,192,202429,1,0,0:0:0:70:finish1.wav
64,192,202600,1,0,0:0:0:70:kick1.wav
320,192,202772,1,0,0:0:0:0:
64,192,202943,1,0,0:0:0:70:snare2.wav
320,192,203115,1,0,0:0:0:0:
320,192,203286,1,0,0:0:0:70:kick1.wav
320,192,203458,1,0,0:0:0:0:
64,192,203629,1,0,0:0:0:70:snare2.wav
320,192,203800,1,0,0:0:0:0:
64,192,203972,128,0,205258:0:0:0:70:kick1.wav
320,192,203972,1,0,0:0:0:70:finish1.wav
320,192,204143,1,0,0:0:0:0:
448,192,204315,1,0,0:0:0:70:snare2.wav
320,192,204486,1,0,0:0:0:0:
448,192,204658,1,0,0:0:0:70:kick1.wav
448,192,204829,1,0,0:0:0:0:
320,192,205000,1,0,0:0:0:70:snare2.wav
320,192,205172,128,0,206372:0:0:0:0:
448,192,205172,1,0,0:0:0:70:finish1.wav
64,192,205343,1,0,0:0:0:70:kick1.wav
448,192,205515,1,0,0:0:0:0:
64,192,205686,1,0,0:0:0:70:snare2.wav
448,192,205858,1,0,0:0:0:0:
64,192,206029,1,0,0:0:0:70:kick1.wav
64,192,206200,1,0,0:0:0:0:
448,192,206372,1,0,0:0:0:70:snare1.wav
64,192,206372,1,0,0:0:0:0:
192,192,206458,1,0,0:0:0:70:snare1.wav
320,192,206543,1,0,0:0:0:70:snare1.wav
448,192,206543,1,0,0:0:0:0:
192,192,206629,1,0,0:0:0:70:snare1.wav
320,192,206715,128,0,206886:0:0:0:0:
448,192,206715,128,0,206886:0:0:0:70:kick1.wav
64,192,206715,1,0,0:0:0:70:finish1.wav
192,192,206886,1,0,0:0:0:0:
64,192,207058,128,0,207229:0:0:0:0:
192,192,207058,128,0,207229:0:0:0:0:
448,192,207058,1,0,0:0:0:70:snare2.wav
320,192,207229,1,0,0:0:0:0:
320,192,207400,128,0,207572:0:0:0:0:
448,192,207400,128,0,207572:0:0:0:0:
192,192,207400,1,0,0:0:0:70:kick1.wav
64,192,207572,1,0,0:0:0:0:
64,192,207743,1,0,0:0:0:0:
192,192,207743,1,0,0:0:0:0:
448,192,207743,1,0,0:0:0:70:snare2.wav
320,192,207915,128,0,208086:0:0:0:0:
64,192,207915,1,0,0:0:0:70:finish1.wav
448,192,207915,128,0,208086:0:0:0:0:
192,192,208086,1,0,0:0:0:70:kick1.wav
192,192,208258,128,0,208429:0:0:0:0:
320,192,208258,128,0,208429:0:0:0:0:
448,192,208258,1,0,0:0:0:0:
64,192,208429,1,0,0:0:0:70:snare2.wav
448,192,208429,1,0,0:0:0:0:
64,192,208600,128,0,208772:0:0:0:0:
192,192,208600,128,0,208772:0:0:0:0:
448,192,208600,1,0,0:0:0:0:
320,192,208772,1,0,0:0:0:70:kick1.wav
320,192,208943,1,0,0:0:0:0:
448,192,208943,1,0,0:0:0:0:
64,192,209115,1,0,0:0:0:0:
320,192,209115,1,0,0:0:0:0:
448,192,209115,1,0,0:0:0:70:snare2.wav
64,192,209286,1,0,0:0:0:0:
192,192,209286,1,0,0:0:0:0:
64,192,209458,128,0,209629:0:0:0:70:kick1.wav
192,192,209458,128,0,209629:0:0:0:0:
448,192,209458,1,0,0:0:0:70:finish1.wav
320,192,209629,1,0,0:0:0:0:
192,192,209800,1,0,0:0:0:70:snare2.wav
320,192,209800,128,0,209972:0:0:0:0:
448,192,209800,128,0,209972:0:0:0:0:
64,192,209972,1,0,0:0:0:0:
320,192,210143,1,0,0:0:0:70:kick1.wav
64,192,210143,128,0,210315:0:0:0:0:
192,192,210143,128,0,210315:0:0:0:0:
448,192,210315,1,0,0:0:0:0:
448,192,210486,1,0,0:0:0:70:snare2.wav
320,192,210486,1,0,0:0:0:0:
64,192,210486,1,0,0:0:0:0:
192,192,210658,128,0,210829:0:0:0:0:
448,192,210658,128,0,210829:0:0:0:0:
320,192,210658,1,0,0:0:0:70:finish1.wav
64,192,210829,1,0,0:0:0:70:kick1.wav
320,192,211000,128,0,211172:0:0:0:0:
64,192,211000,128,0,211172:0:0:0:0:
192,192,211000,1,0,0:0:0:0:
448,192,211172,1,0,0:0:0:70:snare2.wav
192,192,211172,1,0,0:0:0:0:
192,192,211343,128,0,211515:0:0:0:0:
448,192,211343,128,0,211515:0:0:0:0:
64,192,211343,1,0,0:0:0:0:
320,192,211515,1,0,0:0:0:70:kick1.wav
192,192,211686,1,0,0:0:0:0:
320,192,211686,1,0,0:0:0:0:
320,192,211858,1,0,0:0:0:0:
448,192,211858,1,0,0:0:0:70:snare1.wav
64,192,211858,1,0,0:0:0:0:
64,192,212029,1,0,0:0:0:0:
192,192,212029,1,0,0:0:0:0:
320,192,212200,128,0,212372:0:0:0:0:
448,192,212200,128,0,212372:0:0:0:70:kick1.wav
64,192,212200,1,0,0:0:0:70:finish1.wav
192,192,212372,1,0,0:0:0:0:
64,192,212543,128,0,212715:0:0:0:0:
192,192,212543,128,0,212715:0:0:0:0:
448,192,212543,1,0,0:0:0:70:snare2.wav
320,192,212715,1,0,0:0:0:0:
320,192,212886,128,0,213058:0:0:0:0:
448,192,212886,128,0,213058:0:0:0:0:
64,192,212886,1,0,0:0:0:70:kick1.wav
192,192,213058,1,0,0:0:0:0:
64,192,213229,1,0,0:0:0:70:snare2.wav
320,192,213229,1,0,0:0:0:0:
448,192,213229,1,0,0:0:0:0:
192,192,213400,128,0,213572:0:0:0:0:
64,192,213400,128,0,213572:0:0:0:0:
448,192,213400,1,0,0:0:0:70:finish1.wav
320,192,213572,1,0,0:0:0:70:kick1.wav
448,192,213743,128,0,213915:0:0:0:0:
320,192,213743,128,0,213915:0:0:0:0:
192,192,213743,1,0,0:0:0:0:
64,192,213915,1,0,0:0:0:70:snare2.wav
192,192,213915,1,0,0:0:0:0:
192,192,214086,128,0,214258:0:0:0:0:
64,192,214086,128,0,214258:0:0:0:0:
448,192,214086,1,0,0:0:0:0:
320,192,214258,1,0,0:0:0:70:kick1.wav
64,192,214429,1,0,0:0:0:0:
192,192,214429,1,0,0:0:0:0:
320,192,214600,1,0,0:0:0:0:
448,192,214600,1,0,0:0:0:70:snare2.wav
64,192,214600,1,0,0:0:0:0:
192,192,214772,1,0,0:0:0:0:
448,192,214772,1,0,0:0:0:0:
64,192,214943,128,0,215115:0:0:0:70:kick1.wav
448,192,214943,128,0,215115:0:0:0:0:
320,192,214943,1,0,0:0:0:70:finish1.wav
192,192,215115,1,0,0:0:0:0:
320,192,215286,128,0,215458:0:0:0:0:
192,192,215286,128,0,215458:0:0:0:0:
448,192,215286,1,0,0:0:0:70:snare2.wav
64,192,215458,1,0,0:0:0:0:
64,192,215629,128,0,215800:0:0:0:0:
448,192,215629,128,0,215800:0:0:0:0:
192,192,215629,1,0,0:0:0:70:kick1.wav
320,192,215800,1,0,0:0:0:0:
64,192,215972,1,0,0:0:0:70:snare2.wav
192,192,215972,1,0,0:0:0:0:
448,192,215972,1,0,0:0:0:0:
192,192,216143,128,0,216315:0:0:0:0:
448,192,216143,128,0,216315:0:0:0:0:
320,192,216143,1,0,0:0:0:70:finish1.wav
64,192,216315,1,0,0:0:0:70:kick1.wav
64,192,216486,128,0,216658:0:0:0:0:
192,192,216486,128,0,216658:0:0:0:0:
320,192,216486,1,0,0:0:0:0:
448,192,216658,1,0,0:0:0:70:snare2.wav
320,192,216658,1,0,0:0:0:0:
320,192,216829,128,0,217000:0:0:0:0:
448,192,216829,128,0,217000:0:0:0:0:
64,192,216829,1,0,0:0:0:0:
192,192,217000,1,0,0:0:0:70:snare2.wav
64,192,217086,1,0,0:0:0:70:snare2.wav
448,192,217172,1,0,0:0:0:70:snare1.wav
192,192,217258,1,0,0:0:0:70:snare1.wav
448,192,217343,1,0,0:0:0:0:
320,192,217343,1,0,0:0:0:70:snare2.wav
64,192,217429,1,0,0:0:0:0:
192,192,217429,1,0,0:0:0:70:snare2.wav
320,192,217515,1,0,0:0:0:70:snare2.wav
448,192,217515,1,0,0:0:0:0:
64,192,217600,1,0,0:0:0:0:
192,192,217600,1,0,0:0:0:70:snare2.wav
320,192,217686,128,0,217858:0:0:0:0:
448,192,217686,128,0,217858:0:0:0:70:kick1.wav
64,192,217686,1,0,0:0:0:70:finish1.wav
192,192,217858,1,0,0:0:0:0:
64,192,218029,128,0,218200:0:0:0:0:
192,192,218029,128,0,218200:0:0:0:0:
448,192,218029,1,0,0:0:0:70:snare2.wav
320,192,218200,1,0,0:0:0:0:
320,192,218372,128,0,218543:0:0:0:0:
448,192,218372,128,0,218543:0:0:0:0:
192,192,218372,1,0,0:0:0:70:kick1.wav
64,192,218543,1,0,0:0:0:0:
64,192,218715,1,0,0:0:0:0:
192,192,218715,1,0,0:0:0:0:
448,192,218715,1,0,0:0:0:70:snare2.wav
320,192,218886,128,0,219058:0:0:0:0:
64,192,218886,1,0,0:0:0:70:finish1.wav
448,192,218886,128,0,219058:0:0:0:0:
192,192,219058,1,0,0:0:0:70:kick1.wav
192,192,219229,128,0,219400:0:0:0:0:
320,192,219229,128,0,219400:0:0:0:0:
448,192,219229,1,0,0:0:0:0:
64,192,219400,1,0,0:0:0:70:snare2.wav
448,192,219400,1,0,0:0:0:0:
64,192,219572,128,0,219743:0:0:0:0:
192,192,219572,128,0,219743:0:0:0:0:
448,192,219572,1,0,0:0:0:0:
320,192,219743,1,0,0:0:0:70:kick1.wav
320,192,219915,1,0,0:0:0:0:
448,192,219915,1,0,0:0:0:0:
64,192,220086,1,0,0:0:0:0:
320,192,220086,1,0,0:0:0:0:
448,192,220086,1,0,0:0:0:70:snare2.wav
64,192,220258,1,0,0:0:0:0:
192,192,220258,1,0,0:0:0:0:
64,192,220429,128,0,220600:0:0:0:70:kick1.wav
192,192,220429,128,0,220600:0:0:0:0:
448,192,220429,1,0,0:0:0:70:finish1.wav
320,192,220600,1,0,0:0:0:0:
192,192,220772,1,0,0:0:0:70:snare2.wav
320,192,220772,128,0,220943:0:0:0:0:
448,192,220772,128,0,220943:0:0:0:0:
64,192,220943,1,0,0:0:0:0:
320,192,221115,1,0,0:0:0:70:kick1.wav
64,192,221115,128,0,221286:0:0:0:0:
192,192,221115,128,0,221286:0:0:0:0:
448,192,221286,1,0,0:0:0:0:
448,192,221458,1,0,0:0:0:70:snare2.wav
320,192,221458,1,0,0:0:0:0:
64,192,221458,1,0,0:0:0:0:
192,192,221629,128,0,221800:0:0:0:0:
448,192,221629,128,0,221800:0:0:0:0:
320,192,221629,1,0,0:0:0:70:finish1.wav
64,192,221800,1,0,0:0:0:70:kick1.wav
320,192,221972,128,0,222143:0:0:0:0:
64,192,221972,128,0,222143:0:0:0:0:
192,192,221972,1,0,0:0:0:0:
448,192,222143,1,0,0:0:0:70:snare2.wav
192,192,222143,1,0,0:0:0:0:
192,192,222315,128,0,222486:0:0:0:0:
448,192,222315,128,0,222486:0:0:0:0:
64,192,222315,1,0,0:0:0:0:
320,192,222486,1,0,0:0:0:70:kick1.wav
192,192,222658,1,0,0:0:0:0:
320,192,222658,1,0,0:0:0:0:
320,192,222829,1,0,0:0:0:0:
448,192,222829,1,0,0:0:0:70:snare1.wav
64,192,222829,1,0,0:0:0:0:
64,192,223000,1,0,0:0:0:0:
192,192,223000,1,0,0:0:0:0:
320,192,223172,128,0,223343:0:0:0:0:
448,192,223172,128,0,223343:0:0:0:70:kick1.wav
64,192,223172,1,0,0:0:0:70:finish1.wav
192,192,223343,1,0,0:0:0:0:
64,192,223515,128,0,223686:0:0:0:0:
192,192,223515,128,0,223686:0:0:0:0:
448,192,223515,1,0,0:0:0:70:snare2.wav
320,192,223686,1,0,0:0:0:0:
320,192,223858,128,0,224029:0:0:0:0:
448,192,223858,128,0,224029:0:0:0:0:
64,192,223858,1,0,0:0:0:70:kick1.wav
192,192,224029,1,0,0:0:0:0:
64,192,224200,1,0,0:0:0:70:snare2.wav
320,192,224200,1,0,0:0:0:0:
448,192,224200,1,0,0:0:0:0:
192,192,224372,128,0,224543:0:0:0:0:
64,192,224372,128,0,224543:0:0:0:0:
448,192,224372,1,0,0:0:0:70:finish1.wav
320,192,224543,1,0,0:0:0:70:kick1.wav
448,192,224715,128,0,224886:0:0:0:0:
320,192,224715,128,0,224886:0:0:0:0:
192,192,224715,1,0,0:0:0:0:
64,192,224886,1,0,0:0:0:70:snare2.wav
192,192,224886,1,0,0:0:0:0:
192,192,225058,128,0,225229:0:0:0:0:
64,192,225058,128,0,225229:0:0:0:0:
448,192,225058,1,0,0:0:0:0:
320,192,225229,1,0,0:0:0:70:kick1.wav
64,192,225400,1,0,0:0:0:0:
192,192,225400,1,0,0:0:0:0:
320,192,225572,1,0,0:0:0:0:
448,192,225572,1,0,0:0:0:70:snare2.wav
64,192,225572,1,0,0:0:0:0:
192,192,225743,1,0,0:0:0:0:
448,192,225743,1,0,0:0:0:0:
64,192,225915,128,0,226086:0:0:0:70:kick1.wav
448,192,225915,128,0,226086:0:0:0:0:
320,192,225915,1,0,0:0:0:70:finish1.wav
192,192,226086,1,0,0:0:0:0:
320,192,226258,128,0,226429:0:0:0:0:
192,192,226258,128,0,226429:0:0:0:0:
448,192,226258,1,0,0:0:0:70:snare2.wav
64,192,226429,1,0,0:0:0:0:
64,192,226600,128,0,226772:0:0:0:0:
448,192,226600,128,0,226772:0:0:0:0:
192,192,226600,1,0,0:0:0:70:kick1.wav
320,192,226772,1,0,0:0:0:0:
64,192,226943,1,0,0:0:0:70:snare2.wav
192,192,226943,1,0,0:0:0:0:
448,192,226943,1,0,0:0:0:0:
192,192,227115,128,0,227286:0:0:0:0:
448,192,227115,128,0,227286:0:0:0:0:
320,192,227115,1,0,0:0:0:70:finish1.wav
64,192,227286,1,0,0:0:0:70:kick1.wav
64,192,227458,128,0,227629:0:0:0:0:
192,192,227458,128,0,227629:0:0:0:0:
320,192,227458,1,0,0:0:0:0:
448,192,227629,1,0,0:0:0:70:snare2.wav
320,192,227629,1,0,0:0:0:0:
192,192,227800,1,0,0:0:0:0:
320,192,227800,128,0,227972:0:0:0:0:
448,192,227800,128,0,227972:0:0:0:0:
64,192,227972,1,0,0:0:0:0:
192,192,227972,1,0,0:0:0:70:snare2.wav
448,192,228058,1,0,0:0:0:70:snare2.wav
64,192,228143,1,0,0:0:0:70:snare2.wav
320,192,228229,1,0,0:0:0:70:snare2.wav
448,192,228315,1,0,0:0:0:0:
192,192,228315,1,0,0:0:0:70:snare2.wav
64,192,228400,1,0,0:0:0:0:
320,192,228400,1,0,0:0:0:70:snare2.wav
448,192,228486,1,0,0:0:0:0:
192,192,228486,1,0,0:0:0:70:snare2.wav
64,192,228572,1,0,0:0:0:0:
320,192,228572,1,0,0:0:0:70:snare2.wav
448,192,228658,1,0,0:0:0:70:kick1.wav
192,192,228658,1,0,0:0:0:70:finish1.wav
64,192,228743,1,0,0:0:0:0:
320,192,228829,1,0,0:0:0:0:
192,192,228915,1,0,0:0:0:0:
64,192,229000,1,0,0:0:0:70:snare2.wav
448,192,229000,1,0,0:0:0:0:
192,192,229086,1,0,0:0:0:0:
448,192,229172,1,0,0:0:0:0:
320,192,229258,1,0,0:0:0:0:
192,192,229343,1,0,0:0:0:70:kick1.wav
448,192,229429,1,0,0:0:0:0:
64,192,229515,1,0,0:0:0:0:
192,192,229600,1,0,0:0:0:0:
448,192,229686,1,0,0:0:0:70:snare2.wav
64,192,229686,1,0,0:0:0:0:
320,192,229772,1,0,0:0:0:0:
192,192,229858,1,0,0:0:0:0:
64,192,229943,1,0,0:0:0:0:
320,192,230029,1,0,0:0:0:70:kick1.wav
448,192,230115,1,0,0:0:0:0:
192,192,230200,1,0,0:0:0:0:
320,192,230286,1,0,0:0:0:0:
64,192,230372,1,0,0:0:0:0:
448,192,230372,1,0,0:0:0:70:snare2.wav
192,192,230458,1,0,0:0:0:0:
320,192,230458,1,0,0:0:0:70:snare2.wav
448,192,230543,1,0,0:0:0:70:snare2.wav
64,192,230543,1,0,0:0:0:0:
192,192,230629,1,0,0:0:0:0:
448,192,230715,1,0,0:0:0:70:kick1.wav
320,192,230715,1,0,0:0:0:70:finish1.wav
192,192,230800,1,0,0:0:0:0:
64,192,230886,1,0,0:0:0:0:
320,192,230972,1,0,0:0:0:0:
192,192,231058,1,0,0:0:0:0:
448,192,231058,1,0,0:0:0:70:snare2.wav
64,192,231143,1,0,0:0:0:0:
448,192,231229,1,0,0:0:0:0:
320,192,231315,1,0,0:0:0:0:
192,192,231400,1,0,0:0:0:70:kick1.wav
448,192,231486,1,0,0:0:0:0:
64,192,231572,1,0,0:0:0:0:
192,192,231658,1,0,0:0:0:0:
320,192,231743,1,0,0:0:0:0:
64,192,231743,1,0,0:0:0:70:snare2.wav
448,192,231829,1,0,0:0:0:0:
64,192,231915,1,0,0:0:0:0:
192,192,232000,1,0,0:0:0:0:
320,192,232086,1,0,0:0:0:70:kick1.wav
192,192,232172,1,0,0:0:0:0:
64,192,232258,1,0,0:0:0:0:
448,192,232343,1,0,0:0:0:0:
192,192,232429,1,0,0:0:0:70:snare2.wav
64,192,232429,1,0,0:0:0:0:
448,192,232515,1,0,0:0:0:0:
320,192,232515,1,0,0:0:0:70:snare2.wav
64,192,232600,1,0,0:0:0:0:
192,192,232600,1,0,0:0:0:70:snare2.wav
320,192,232686,1,0,0:0:0:70:snare2.wav
448,192,232686,1,0,0:0:0:0:
64,192,232772,1,0,0:0:0:70:kick1.wav
192,192,232772,1,0,0:0:0:70:finish1.wav
320,192,232858,1,0,0:0:0:0:
448,192,232943,1,0,0:0:0:0:
64,192,233029,1,0,0:0:0:0:
192,192,233115,1,0,0:0:0:0:
448,192,233115,1,0,0:0:0:70:snare2.wav
64,192,233200,1,0,0:0:0:0:
320,192,233286,1,0,0:0:0:0:
192,192,233372,1,0,0:0:0:0:
64,192,233458,1,0,0:0:0:70:kick1.wav
320,192,233543,1,0,0:0:0:0:
192,192,233629,1,0,0:0:0:0:
448,192,233715,1,0,0:0:0:0:
320,192,233800,1,0,0:0:0:0:
64,192,233800,1,0,0:0:0:70:snare2.wav
192,192,233886,1,0,0:0:0:0:
64,192,233972,1,0,0:0:0:0:
192,192,234058,1,0,0:0:0:0:
320,192,234143,1,0,0:0:0:70:kick1.wav
448,192,234229,1,0,0:0:0:0:
64,192,234315,1,0,0:0:0:0:
192,192,234400,1,0,0:0:0:0:
320,192,234486,1,0,0:0:0:70:snare2.wav
448,192,234486,1,0,0:0:0:0:
192,192,234572,1,0,0:0:0:70:snare2.wav
64,192,234572,1,0,0:0:0:0:
320,192,234658,1,0,0:0:0:70:snare2.wav
448,192,234658,1,0,0:0:0:0:
64,192,234743,1,0,0:0:0:0:
192,192,234829,1,0,0:0:0:70:finish1.wav
448,192,234829,1,0,0:0:0:70:kick1.wav
64,192,234915,1,0,0:0:0:0:
320,192,235000,1,0,0:0:0:0:
192,192,235086,1,0,0:0:0:0:
64,192,235172,1,0,0:0:0:0:
448,192,235172,1,0,0:0:0:70:snare2.wav
320,192,235258,1,0,0:0:0:0:
448,192,235343,1,0,0:0:0:0:
64,192,235429,1,0,0:0:0:0:
192,192,235515,1,0,0:0:0:70:kick1.wav
448,192,235600,1,0,0:0:0:0:
320,192,235686,1,0,0:0:0:0:
192,192,235772,1,0,0:0:0:0:
64,192,235858,1,0,0:0:0:70:snare2.wav
448,192,235858,1,0,0:0:0:0:
320,192,235943,1,0,0:0:0:0:
192,192,236029,1,0,0:0:0:0:
320,192,236115,1,0,0:0:0:0:
448,192,236200,1,0,0:0:0:70:kick1.wav
64,192,236286,1,0,0:0:0:0:
320,192,236372,1,0,0:0:0:70:snare2.wav
448,192,236372,1,0,0:0:0:0:
64,192,236458,1,0,0:0:0:0:
192,192,236458,1,0,0:0:0:70:snare2.wav
320,192,236543,1,0,0:0:0:70:snare2.wav
448,192,236543,1,0,0:0:0:0:
64,192,236629,1,0,0:0:0:0:
192,192,236629,1,0,0:0:0:70:snare2.wav
320,192,236715,1,0,0:0:0:70:snare2.wav
448,192,236715,1,0,0:0:0:0:
64,192,236800,1,0,0:0:0:0:
192,192,236886,1,0,0:0:0:70:finish1.wav
448,192,236886,1,0,0:0:0:70:kick1.wav
320,192,237058,1,0,0:0:0:0:
448,192,237229,1,0,0:0:0:0:
64,192,237229,1,0,0:0:0:70:kick1.wav
192,192,237400,1,0,0:0:0:0:
320,192,237572,1,0,0:0:0:0:
64,192,237572,1,0,0:0:0:70:kick1.wav
448,192,237743,1,0,0:0:0:0:
64,192,237915,1,0,0:0:0:70:kick1.wav
192,192,237915,1,0,0:0:0:0:
320,192,238086,1,0,0:0:0:70:hithat2.wav
64,192,238258,1,0,0:0:0:70:kick1.wav
448,192,238258,1,0,0:0:0:0:
192,192,238429,1,0,0:0:0:70:hithat1.wav
320,192,238600,1,0,0:0:0:0:
448,192,238600,1,0,0:0:0:70:kick1.wav
64,192,238772,1,0,0:0:0:70:hithat1.wav
192,192,238943,1,0,0:0:0:70:hithat2.wav
448,192,238943,1,0,0:0:0:70:kick1.wav
320,192,239115,1,0,0:0:0:0:
64,192,239286,1,0,0:0:0:70:kick1.wav
192,192,239286,1,0,0:0:0:0:
448,192,239458,1,0,0:0:0:0:
320,192,239629,1,0,0:0:0:0:
64,192,239629,1,0,0:0:0:70:kick1.wav
192,192,239800,1,0,0:0:0:0:
320,192,239972,1,0,0:0:0:0:
448,192,239972,1,0,0:0:0:70:kick1.wav
192,192,240143,1,0,0:0:0:70:hithat2.wav
64,192,240315,1,0,0:0:0:70:kick1.wav
448,192,240315,1,0,0:0:0:0:
320,192,240486,1,0,0:0:0:70:hithat1.wav
192,192,240658,1,0,0:0:0:0:
448,192,240658,1,0,0:0:0:70:kick1.wav
64,192,240829,1,0,0:0:0:70:hithat1.wav
320,192,241000,1,0,0:0:0:70:hithat2.wav
448,192,241000,1,0,0:0:0:70:kick1.wav
192,192,241172,1,0,0:0:0:0:
64,192,241343,1,0,0:0:0:70:kick1.wav
320,192,241343,1,0,0:0:0:0:
448,192,241515,1,0,0:0:0:0:
64,192,241686,1,0,0:0:0:70:kick1.wav
192,192,241686,1,0,0:0:0:0:
320,192,241858,1,0,0:0:0:0:
448,192,242029,1,0,0:0:0:0:
64,192,242029,1,0,0:0:0:70:kick1.wav
192,192,242200,1,0,0:0:0:70:hithat2.wav
320,192,242372,1,0,0:0:0:0:
448,192,242372,1,0,0:0:0:70:kick1.wav
192,192,242543,1,0,0:0:0:70:hithat1.wav
64,192,242715,1,0,0:0:0:70:kick1.wav
320,192,242715,1,0,0:0:0:0:
448,192,242886,1,0,0:0:0:70:hithat1.wav
64,192,243058,1,0,0:0:0:70:kick1.wav
192,192,243058,1,0,0:0:0:70:hithat2.wav
320,192,243229,1,0,0:0:0:0:
64,192,243400,1,0,0:0:0:70:kick1.wav
448,192,243400,1,0,0:0:0:0:
192,192,243572,1,0,0:0:0:0:
320,192,243743,1,0,0:0:0:0:
448,192,243743,1,0,0:0:0:70:kick1.wav
192,192,243915,1,0,0:0:0:0:
64,192,244086,1,0,0:0:0:70:kick1.wav
448,192,244086,1,0,0:0:0:0:
320,192,244258,1,0,0:0:0:70:hithat2.wav
64,192,244429,1,0,0:0:0:70:kick1.wav
192,192,244429,1,0,0:0:0:0:
448,192,244600,1,0,0:0:0:70:hithat1.wav
320,192,244772,1,0,0:0:0:0:
64,192,244772,1,0,0:0:0:70:kick1.wav
192,192,244943,1,0,0:0:0:70:hithat1.wav
