osu file format v14

[General]
AudioFilename: i can see you looking through the beatmap files.mp3
AudioLeadIn: 0
PreviewTime: 33798
Countdown: 0
SampleSet: Soft
StackLeniency: 0.6
Mode: 0
LetterboxInBreaks: 0
WidescreenStoryboard: 0

[Editor]
Bookmarks: 1226
DistanceSpacing: 1
BeatDivisor: 2
GridSize: 8
TimelineZoom: 1.6

[Metadata]
Title:Kimi no Yozora Shoukaihan
TitleUnicode:キミノヨゾラ哨戒班
Artist:Orangestar
ArtistUnicode:Orangestar
Creator:newton-
Version:Normal
Source:
Tags:ia vocaloid asu no your night sky patrol of tomorrow arrangement newtonscradle nextplay my angel kanan
BeatmapID:1265044
BeatmapSetID:583277

[Difficulty]
HPDrainRate:3
CircleSize:3.5
OverallDifficulty:4
ApproachRate:5
SliderMultiplier:1
SliderTickRate:1

[Events]
//Background and Video events
0,0,"Kimi_no_Yozora_Shoukaihan.png",0,0
//Break Periods
2,76080,84734
//Storyboard Layer 0 (Background)
//Storyboard Layer 1 (Fail)
//Storyboard Layer 2 (Pass)
//Storyboard Layer 3 (Foreground)
//Storyboard Sound Samples

[TimingPoints]
799,324.324324324324,4,2,2,50,1,0
799,-100,4,2,2,50,0,0
11177,-100,4,2,2,80,0,0
21069,-100,4,1,2,90,0,0
21231,-100,4,1,2,90,0,0
21555,-100,4,1,2,50,0,0
22204,-100,4,2,2,50,0,0
26743,-100,4,2,2,50,0,0
26744,-100,4,2,2,70,0,0
33880,-100,4,2,2,50,0,0
34366,-100,4,2,2,90,0,1
44258,-100,4,2,2,80,0,0
44744,-100,4,2,2,90,0,1
55285,-100,4,2,2,80,0,0
59826,-100,4,2,2,80,0,0
60312,-100,4,2,2,80,0,0
85934,-100,4,2,2,60,0,0
86420,-100,4,2,2,70,0,0
117231,-100,4,2,2,60,0,0
117555,-100,4,2,2,50,0,0
122582,-100,4,2,2,70,0,0
130204,-100,4,2,2,50,0,0
130528,-100,4,2,2,90,0,1
140258,-100,4,2,2,90,0,0
140744,-100,4,2,2,90,0,1
151285,-100,4,2,2,80,0,0
155826,-100,4,2,2,80,0,0
156312,-100,4,2,2,80,0,0
161501,-100,4,2,2,70,0,0
171880,-100,4,2,2,90,0,0
171961,-100,4,2,2,20,0,0
172690,-100,4,2,2,5,0,0

[Colours]
Combo1 : 0,0,128
Combo2 : 255,128,0
Combo3 : 247,186,72
Combo4 : 0,128,255
Combo5 : 0,171,253
Combo6 : 6,69,172

[HitObjects]
101,90,799,38,0,L|204:99,1,100,2|2,0:0|0:0,0:0:0:0:
226,141,1285,2,0,L|329:131,1,100,2|2,0:0|0:0,0:0:0:0:
416,89,1934,2,0,P|420:162|397:201,1,100,2|2,0:0|0:0,0:0:0:0:
370,276,2582,1,2,0:0:0:0:
370,276,2744,2,0,L|266:285,1,100,0|2,0:0|0:0,0:0:0:0:
220,291,3231,6,0,P|190:223|198:179,1,100,2|2,0:0|0:0,0:0:0:0:
209,101,3880,1,2,0:0:0:0:
209,101,4042,2,0,L|308:92,1,100,0|2,0:0|0:0,0:0:0:0:
338,132,4528,2,0,L|437:140,2,100,2|2|2,0:0|0:0|0:0,0:0:0:0:
313,175,5339,2,0,L|306:246,1,50,2|2,0:0|0:0,0:0:0:0:
311,324,5826,70,0,P|359:351|453:320,1,150,2|2,0:0|0:0,0:0:0:0:
462,279,6474,2,0,L|453:179,1,100,2|2,0:0|0:0,0:0:0:0:
419,85,7123,2,0,P|468:88|512:65,2,100,2|2|2,0:0|0:0|0:0,0:0:0:0:
368,83,7934,2,0,L|264:92,1,100,2|0,0:0|0:0,0:0:0:0:
218,97,8420,1,2,0:0:0:0:
150,170,8744,6,0,L|95:165,1,50,2|2,0:0|0:0,0:0:0:0:
58,193,9069,2,0,P|38:238|44:287,1,100,2|2,0:0|0:0,0:0:0:0:
121,352,9717,2,0,L|288:337,1,150,2|2,0:0|0:0,0:0:0:0:
410,284,10690,2,0,L|415:334,2,50,0|2|2,0:0|0:0|0:0,0:0:0:0:
405,234,11177,70,0,L|413:134,1,100,4|2,0:0|0:0,0:0:0:0:
378,98,11663,2,0,P|332:79|226:115,1,150,2|2,0:0|0:0,0:0:0:0:
194,128,12312,2,0,L|94:136,1,100,2|2,0:0|0:0,0:0:0:0:
98,236,12961,1,2,0:0:0:0:
98,236,13123,2,0,P|143:255|192:248,1,100,0|2,0:0|0:0,0:0:0:0:
241,239,13609,6,0,P|289:232|335:251,1,100,2|2,0:0|0:0,0:0:0:0:
354,351,14258,1,2,0:0:0:0:
354,351,14420,2,0,L|254:342,1,100,2|0,0:0|0:0,0:0:0:0:
204,338,14907,2,0,L|104:346,1,100,2|2,0:0|0:0,0:0:0:0:
15,300,15555,2,0,P|-4:254|2:205,1,100,2|2,0:0|0:0,0:0:0:0:
86,150,16204,70,0,L|185:141,1,100,4|0,0:0|0:0,0:0:0:0:
235,138,16690,1,2,0:0:0:0:
316,196,17015,2,0,P|335:150|328:101,1,100,2|2,0:0|0:0,0:0:0:0:
307,56,17501,2,0,L|207:47,2,100,2|2|2,0:0|0:0|0:0,0:0:0:0:
407,53,18474,2,0,L|456:48,2,50,2|2|2,0:0|0:0|0:0,0:0:0:0:
424,151,19123,6,0,L|474:147,2,50,2|2|2,0:0|0:0|0:0,0:0:0:0:
331,187,19771,2,0,P|311:232|317:281,1,100,2|2,0:0|0:0,0:0:0:0:
342,324,20258,2,0,L|230:314,1,100,2|2,0:0|0:0,0:0:0:0:
192,310,20744,1,2,0:0:0:0:
96,278,21069,1,8,0:0:0:0:
96,278,21231,2,0,L|92:228,1,50,8|8,0:0|0:0,0:0:0:0:
90,178,21555,6,0,B|190:129|179:230|292:174,1,200,8|2,0:0|0:0,2:0:0:0:
362,121,22528,1,2,0:0:0:0:
362,121,22690,2,0,P|382:166|376:215,1,100,0|2,0:0|0:0,0:0:0:0:
302,346,23501,2,0,L|152:332,1,150,2|2,0:0|0:0,0:0:0:0:
116,297,24150,6,0,P|96:252|102:203,1,100,2|2,0:0|0:0,0:0:0:0:
155,118,24798,2,0,L|205:122,1,50,0|2,0:0|0:0,0:0:0:0:
268,199,25285,2,0,L|419:185,1,150
453,151,25934,2,0,P|464:103|450:55,1,100,2|2,0:0|0:0,0:0:0:0:
409,26,26420,1,2,0:0:0:0:
309,40,26744,38,0,L|209:30,1,100,4|2,0:0|0:0,0:0:0:0:
164,52,27231,2,0,P|145:98|152:147,1,100,2|2,0:0|0:0,0:0:0:0:
221,219,27880,2,0,P|227:267|208:313,2,100,2|2|2,0:0|0:0|0:0,0:0:0:0:
151,146,28853,2,0,L|87:151,2,50,2|2|2,0:0|0:0|0:0,0:0:0:0:
256,192,29339,12,2,31609,0:0:0:0:
256,192,31771,12,0,33231,0:0:0:0:
112,115,33880,6,0,P|92:160|98:209,1,100,2|0,0:0|0:0,0:0:0:0:
125,250,34366,38,0,P|171:231|277:267,1,150,4|8,0:0|0:0,0:0:0:0:
343,316,35177,2,0,P|363:271|357:222,1,100,2|8,0:0|0:0,0:0:0:0:
334,177,35663,2,0,P|331:127|401:39,1,150,2|8,0:0|0:0,0:0:0:0:
453,122,36474,2,0,L|444:222,1,100,2|8,0:0|0:0,0:0:0:0:
416,263,36961,1,2,0:0:0:0:
416,263,37123,6,0,P|377:293|328:299,1,100,2|8,0:0|0:0,0:0:0:0:
281,279,37609,2,0,L|181:288,1,100,2|2,0:0|0:0,0:0:0:0:
91,243,38258,2,0,P|71:198|77:149,1,100,2|0,0:0|0:0,0:0:0:0:
124,133,38744,2,0,L|227:123,1,100,8|2,0:0|0:0,0:0:0:0:
313,168,39393,1,8,0:0:0:0:
313,168,39555,2,0,L|416:178,1,100,4|0,0:0|0:0,0:0:0:0:
401,278,40204,69,2,0:0:0:0:
401,278,40366,2,0,P|356:298|307:292,1,100,2|8,0:0|0:0,0:0:0:0:
260,273,40853,2,0,P|210:266|165:286,1,100,2|2,0:0|0:0,0:0:0:0:
124,313,41339,2,0,L|119:263,1,50,8|0,0:0|0:0,0:0:0:0:
53,188,41826,2,0,L|-10:182,2,50,2|8|2,0:0|0:0|0:0,0:0:0:0:
95,161,42312,6,0,P|140:141|189:147,1,100,2|8,0:0|0:0,0:0:0:0:
236,161,42798,2,0,L|335:151,2,100,2|2|2,0:0|0:0|0:0,0:0:0:0:
200,196,43609,2,0,P|193:245|213:290,1,100,4|4,0:0|0:0,0:0:0:0:
302,337,44258,2,0,P|347:316|396:323,1,100,6|10,0:0|0:0,0:0:0:0:
431,287,44744,70,0,P|457:218|436:147,1,150,4|8,0:0|0:0,0:0:0:0:
335,151,45555,2,0,L|236:161,1,100,2|8,0:0|0:0,0:0:0:0:
186,154,46042,2,0,L|19:139,1,150,2|8,0:0|0:0,0:0:0:0:
51,239,46853,2,0,L|150:248,1,100,2|8,0:0|0:0,0:0:0:0:
228,311,47501,6,0,P|277:305|316:275,1,100,2|8,0:0|0:0,0:0:0:0:
345,234,47988,2,0,L|336:135,1,100,2|2,0:0|0:0,0:0:0:0:
271,58,48636,2,0,P|222:51|177:72,1,100,2|0,0:0|0:0,0:0:0:0:
147,112,49123,2,0,L|162:279,1,150,8|2,0:0|0:0,0:0:0:0:
218,343,49934,70,0,P|266:349|311:328,1,100,4|2,0:0|0:0,0:0:0:0:
375,252,50582,1,2,0:0:0:0:
375,252,50744,2,0,P|368:203|389:158,1,100,2|8,0:0|0:0,0:0:0:0:
425,123,51231,2,0,L|326:114,1,100,2|2,0:0|0:0,0:0:0:0:
275,108,51717,2,0,L|225:103,1,50,8|0,0:0|0:0,0:0:0:0:
127,136,52204,2,0,L|64:130,2,50,2|8|2,0:0|0:0|0:0,0:0:0:0:
169,161,52690,6,0,P|189:205|182:254,1,100,2|8,0:0|0:0,0:0:0:0:
123,335,53339,1,2,0:0:0:0:
123,335,53501,2,0,P|167:355|216:348,2,100,2|2|2,0:0|0:0|0:0,0:0:0:0:
182,254,54474,1,2,0:0:0:0:
182,254,54636,2,0,P|230:246|275:267,1,100,10|10,0:0|0:0,0:0:0:0:
306,302,55123,1,4,0:0:0:0:
256,192,55285,12,0,59177,0:0:0:0:
106,120,59826,70,0,P|151:100|200:106,1,100,2|8,0:0|0:0,0:0:0:0:
243,131,60312,6,0,P|311:157|382:136,1,150,4|8,0:0|0:0,0:0:0:0:
481,117,61123,1,2,0:0:0:0:
449,212,61447,1,8,0:0:0:0:
449,212,61609,2,0,L|464:379,1,150,2|8,0:0|0:0,0:0:0:0:
362,367,62420,2,0,P|317:347|268:353,1,100,2|8,0:0|0:0,0:0:0:0:
218,341,62907,70,0,P|197:270|223:201,1,150,2|8,0:0|0:0,0:0:0:0:
304,144,63717,2,0,L|403:134,1,100,2|8,0:0|0:0,0:0:0:0:
437,97,64204,2,0,L|270:82,1,150,2|8,0:0|0:0,0:0:0:0:
191,53,65015,2,0,L|92:63,1,100,0|8,0:0|0:0,0:0:0:0:
42,71,65501,6,0,P|21:142|47:211,1,150,4|8,0:0|0:0,0:0:0:0:
118,280,66312,1,2,0:0:0:0:
195,343,66636,1,8,0:0:0:0:
195,343,66798,2,0,L|344:329,1,150,2|8,0:0|0:0,0:0:0:0:
436,289,67609,2,0,P|456:243|449:194,1,100,2|8,0:0|0:0,0:0:0:0:
422,152,68096,70,0,P|351:173|282:147,1,150,2|8,0:0|0:0,0:0:0:0:
212,75,68907,2,0,P|166:54|117:61,1,100,2|8,0:0|0:0,0:0:0:0:
79,93,69393,2,0,L|92:242,1,150,2|8,0:0|0:0,0:0:0:0:
175,298,70204,2,0,P|220:277|269:284,1,100,2|10,0:0|0:0,0:0:0:0:
312,308,70690,6,0,P|286:238|307:168,1,150,4|8,0:0|0:0,0:0:0:0:
388,109,71501,1,2,0:0:0:0:
485,133,71826,1,8,0:0:0:0:
485,133,71988,2,0,L|498:282,1,150,2|8,0:0|0:0,0:0:0:0:
405,322,72798,2,0,P|360:301|311:308,1,100,2|8,0:0|0:0,0:0:0:0:
268,334,73285,70,0,P|197:355|128:329,1,150,2|8,0:0|0:0,0:0:0:0:
52,263,74096,2,0,P|73:218|66:169,1,100,2|8,0:0|0:0,0:0:0:0:
31,133,74582,2,0,L|180:120,1,150,2|8,0:0|0:0,0:0:0:0:
260,57,75393,2,0,P|279:106|270:172,1,100,2|10,0:0|0:0,0:0:0:0:
252,196,75880,1,6,0:0:0:0:
169,73,85934,22,0,L|105:78,2,50,2|2|2,0:0|0:0|0:0,0:0:0:0:
203,108,86420,6,0,L|303:118,1,100,4|8,0:0|0:0,0:0:0:0:
345,144,86907,2,0,P|351:193|331:238,1,100,2|2,0:0|0:0,0:0:0:0:
297,274,87393,1,8,0:0:0:0:
297,274,87555,2,0,P|247:267|202:287,1,100,2|2,0:0|0:0,0:0:0:0:
263,366,88204,2,0,P|313:373|358:353,1,100,2|0,0:0|0:0,0:0:0:0:
457,352,88853,1,2,0:0:0:0:
457,352,89015,70,0,L|467:252,1,100,0|8,0:0|0:0,0:0:0:0:
466,202,89501,2,0,P|416:195|371:215,1,100,2|2,0:0|0:0,0:0:0:0:
293,271,90150,2,0,P|247:291|198:284,1,100,2|0,0:0|0:0,0:0:0:0:
153,262,90636,1,8,0:0:0:0:
106,173,90961,2,0,L|42:178,2,50,2|2|8,0:0|0:0|0:0,0:0:0:0:
155,86,91609,6,0,L|255:96,1,100,4|8,0:0|0:0,0:0:0:0:
279,52,92096,2,0,L|379:42,1,100,2|2,0:0|0:0,0:0:0:0:
431,127,92744,2,0,P|437:176|420:223,2,100,2|2|2,0:0|0:0|0:0,0:0:0:0:
331,135,93717,2,0,L|281:139,1,50,0|8,0:0|0:0,0:0:0:0:
255,96,94042,1,2,0:0:0:0:
255,96,94204,70,0,L|155:86,1,100,2|8,0:0|0:0,0:0:0:0:
116,116,94690,2,0,P|95:161|102:210,2,100,2|2|2,0:0|0:0|0:0,0:0:0:0:
155,86,95501,1,0,0:0:0:0:
251,60,95826,2,0,L|255:109,1,50,8|0,0:0|0:0,0:0:0:0:
285,149,96150,2,0,L|334:145,2,50,2|2|8,0:0|0:0|0:0,0:0:0:0:
254,185,96636,6,0,L|244:285,1,100,4|2,0:0|0:0,0:0:0:0:
326,340,97285,2,0,P|371:319|420:326,1,100,2|2,0:0|0:0,0:0:0:0:
467,337,97771,1,8,0:0:0:0:
467,337,97934,2,0,L|457:237,1,100,2|0,0:0|0:0,0:0:0:0:
432,193,98420,2,0,P|387:172|338:178,1,100,8|2,0:0|0:0,0:0:0:0:
256,236,99069,1,8,0:0:0:0:
173,178,99393,70,0,L|183:78,1,100,2|8,0:0|0:0,0:0:0:0:
132,79,99880,2,0,P|87:100|38:93,1,100,2|2,0:0|0:0,0:0:0:0:
1,186,100528,2,0,L|11:286,1,100,2|0,0:0|0:0,0:0:0:0:
48,319,101015,1,8,0:0:0:0:
48,319,101177,2,0,P|93:298|142:305,1,100,2|2,0:0|0:0,0:0:0:0:
235,340,101826,6,0,L|335:330,1,100,4|0,0:0|0:0,0:0:0:0:
430,303,102474,1,2,0:0:0:0:
430,303,102636,2,0,P|436:254|415:209,1,100,2|8,0:0|0:0,0:0:0:0:
369,189,103123,2,0,L|269:179,1,100,0|0,0:0|0:0,0:0:0:0:
219,173,103609,1,8,0:0:0:0:
183,79,103934,2,0,L|119:84,2,50,2|2|8,0:0|0:0|0:0,0:0:0:0:
232,74,104420,70,0,L|391:60,1,150,2|8,0:0|0:0,0:0:0:0:
431,56,105069,1,2,0:0:0:0:
408,153,105393,1,2,0:0:0:0:
385,250,105717,2,0,L|225:236,1,150,2|8,0:0|0:0,0:0:0:0:
185,232,106366,1,2,0:0:0:0:
93,271,106690,1,2,0:0:0:0:
11,215,107015,6,0,P|-9:149|32:65,1,150,4|8,0:0|0:0,0:0:0:0:
120,88,107826,2,0,L|115:24,2,50,2|2|8,0:0|0:0|0:0,0:0:0:0:
164,110,108312,2,0,P|213:116|258:95,1,100,2|2,0:0|0:0,0:0:0:0:
289,56,108798,1,8,0:0:0:0:
387,74,109123,2,0,L|397:174,1,100,2|8,0:0|0:0,0:0:0:0:
349,261,109771,70,0,P|300:267|255:246,1,100,2|8,0:0|0:0,0:0:0:0:
214,217,110258,1,2,0:0:0:0:
115,232,110582,2,0,L|51:227,1,50,2|8,0:0|0:0,0:0:0:0:
28,194,110907,2,0,P|8:124|29:76,1,100,2|0,0:0|0:0,0:0:0:0:
38,55,111393,1,8,0:0:0:0:
38,55,111555,2,0,L|187:68,1,150,2|8,0:0|0:0,0:0:0:0:
237,73,112204,6,0,L|386:59,1,150,4|8,0:0|0:0,0:0:0:0:
440,145,113015,2,0,L|510:139,2,50,2|2|8,0:0|0:0|0:0,0:0:0:0:
409,184,113501,2,0,P|388:228|394:277,1,100,2|2,0:0|0:0,0:0:0:0:
410,325,113988,1,8,0:0:0:0:
315,357,114312,2,0,L|215:347,1,100,2|8,0:0|0:0,0:0:0:0:
134,287,114961,70,0,P|128:238|149:193,1,100,2|8,0:0|0:0,0:0:0:0:
183,157,115447,1,2,0:0:0:0:
279,183,115771,2,0,L|342:177,1,50,2|8,0:0|0:0,0:0:0:0:
358,218,116096,2,0,L|459:229,1,100,2|2,0:0|0:0,0:0:0:0:
501,253,116582,1,8,0:0:0:0:
501,253,116744,2,0,P|506:302|486:346,2,100,0|4|8,0:0|3:0|3:0,0:0:0:0:
457,229,117555,22,0,P|443:157|482:95,2,150,4|2|0,0:0|0:0|0:0,0:0:0:0:
369,278,118853,2,0,L|209:264,2,150,2|2|0,0:0|0:0|0:0,0:0:0:0:
457,229,120150,6,0,P|496:170|480:91,2,150,2|2|0,0:0|0:0|0:0,0:0:0:0:
398,148,121447,2,0,P|351:128|303:135,1,100
203,140,122096,2,0,L|197:70,2,50,2|0|2,0:0|0:0|0:0,0:0:0:0:
222,186,122582,38,0,L|232:286,1,100,4|0,0:0|0:0,0:0:0:0:
236,335,123069,1,8,0:0:0:0:
333,357,123393,2,0,P|378:336|427:342,1,100,2|8,0:0|0:0,0:0:0:0:
468,314,123880,2,0,P|474:264|453:219,1,100,2|0,0:0|0:0,0:0:0:0:
421,181,124366,2,0,L|425:125,1,50,8|0,0:0|0:0,0:0:0:0:
334,88,124853,2,0,P|288:108|239:102,1,100,2|2,0:0|0:0,0:0:0:0:
256,192,125339,12,0,127771,0:0:0:0:
256,192,127934,12,2,129880,0:0:0:0:
63,159,130528,54,0,L|73:259,1,100,4|8,0:0|0:0,0:0:0:0:
156,314,131177,2,0,P|205:308|250:329,1,100,2|8,0:0|0:0,0:0:0:0:
288,360,131663,2,0,L|388:350,1,100,2|0,0:0|0:0,0:0:0:0:
437,344,132150,1,8,0:0:0:0:
457,246,132474,2,0,L|513:250,2,50,2|2|8,0:0|0:0|0:0,0:0:0:0:
407,240,132961,6,0,L|307:230,1,100,2|0,0:0|0:0,0:0:0:0:
257,224,133447,1,8,0:0:0:0:
176,164,133771,2,0,L|172:108,2,50,2|0|8,0:0|0:0|0:0,0:0:0:0:
138,198,134258,2,0,P|132:247|153:292,1,100,2|0,0:0|0:0,0:0:0:0:
186,328,134744,1,8,0:0:0:0:
186,328,134907,2,0,P|235:322|280:343,1,100,2|2,0:0|0:0,0:0:0:0:
374,310,135555,70,0,L|384:210,1,100,4|0,0:0|0:0,0:0:0:0:
391,160,136042,1,8,0:0:0:0:
404,61,136366,2,0,L|460:57,2,50,2|2|8,0:0|0:0|0:0,0:0:0:0:
353,63,136853,2,0,P|304:57|259:78,1,100,2|0,0:0|0:0,0:0:0:0:
223,113,137339,1,8,0:0:0:0:
196,209,137663,2,0,L|252:205,2,50,2|2|8,0:0|0:0|0:0,0:0:0:0:
169,251,138150,6,0,P|124:271|75:265,1,100,2|0,0:0|0:0,0:0:0:0:
29,245,138636,1,8,0:0:0:0:
51,147,138961,2,0,L|-5:143,2,50,2|0|8,0:0|0:0|0:0,0:0:0:0:
78,105,139447,2,0,L|178:95,1,100,2|0,0:0|0:0,0:0:0:0:
227,90,139934,1,8,0:0:0:0:
326,78,140258,2,0,L|330:22,2,50,2|2|8,0:0|0:0|0:0,0:0:0:0:
321,127,140744,70,0,L|331:227,1,100,4|0,0:0|0:0,0:0:0:0:
337,276,141231,1,8,0:0:0:0:
251,327,141555,2,0,P|206:306|157:312,1,100,2|8,0:0|0:0,0:0:0:0:
114,285,142042,2,0,P|93:240|99:191,1,100,2|0,0:0|0:0,0:0:0:0:
130,152,142528,1,8,0:0:0:0:
210,92,142853,2,0,P|259:86|303:106,1,100,2|8,0:0|0:0,0:0:0:0:
340,140,143339,6,0,L|440:130,1,100,2|0,0:0|0:0,0:0:0:0:
489,124,143826,1,8,0:0:0:0:
458,219,144150,2,0,L|448:319,1,100,2|8,0:0|0:0,0:0:0:0:
403,340,144636,2,0,P|358:319|309:325,1,100,2|0,0:0|0:0,0:0:0:0:
261,339,145123,1,8,0:0:0:0:
261,339,145285,2,0,L|161:329,1,100,2|2,0:0|0:0,0:0:0:0:
140,230,145934,70,0,L|240:240,1,100,4|0,0:0|0:0,0:0:0:0:
289,244,146420,1,8,0:0:0:0:
343,160,146744,2,0,L|399:156,2,50,2|0|8,0:0|0:0|0:0,0:0:0:0:
300,132,147231,2,0,L|200:122,1,100,2|0,0:0|0:0,0:0:0:0:
150,117,147717,1,8,0:0:0:0:
50,106,148042,2,0,L|46:50,2,50,2|2|8,0:0|0:0|0:0,0:0:0:0:
53,155,148528,6,0,L|43:255,1,100,2|0,0:0|0:0,0:0:0:0:
34,306,149015,1,8,0:0:0:0:
129,334,149339,2,0,P|173:313|222:319,1,100,2|8,0:0|0:0,0:0:0:0:
269,337,149826,2,0,L|369:327,1,100,2|0,0:0|0:0,0:0:0:0:
418,321,150312,1,8,0:0:0:0:
471,236,150636,2,0,P|476:186|456:142,1,100,10|10,0:0|0:0,0:0:0:0:
426,107,151123,1,4,0:0:0:0:
256,192,151204,12,2,155015,0:0:0:0:
54,82,155826,70,0,P|99:62|148:68,1,100,2|8,0:0|0:0,0:0:0:0:
191,93,156312,6,0,P|259:119|330:98,1,150,4|8,0:0|0:0,0:0:0:0:
411,38,157123,2,0,P|431:83|425:132,1,100,2|8,0:0|0:0,0:0:0:0:
393,170,157609,2,0,P|367:238|388:309,1,150,0|8,0:0|0:0,0:0:0:0:
305,365,158420,2,0,L|205:355,1,100,2|8,0:0|0:0,0:0:0:0:
114,312,159069,70,0,P|94:267|100:218,1,100,4|4,0:0|0:0,0:0:0:0:
174,150,159717,2,0,P|219:170|268:164,1,100,4|4,0:0|0:0,0:0:0:0:
354,112,160366,2,0,L|454:122,1,100,4|4,0:0|0:0,0:0:0:0:
455,221,161015,2,0,L|355:211,1,100,4|8,0:0|0:0,0:0:0:0:
322,248,161501,6,0,L|170:261,1,150,4|8,0:0|0:0,0:0:0:0:
132,230,162150,2,0,P|111:159|137:90,1,150,2|8,0:0|0:0,0:0:0:0:
171,53,162798,1,2,0:0:0:0:
262,93,163123,2,0,L|362:103,1,100,2|8,0:0|0:0,0:0:0:0:
411,109,163609,2,0,L|406:53,2,50,2|2|8,0:0|0:0|0:0,0:0:0:0:
477,184,164258,69,2,0:0:0:0:
447,279,164582,1,8,0:0:0:0:
355,310,164907,2,0,P|309:289|260:296,1,100,2|8,0:0|0:0,0:0:0:0:
165,326,165555,2,0,L|65:316,1,100,2|8,0:0|0:0,0:0:0:0:
86,217,166204,2,0,L|186:227,1,100,2|8,0:0|0:0,0:0:0:0:
216,188,166690,6,0,L|365:175,1,150,4|8,0:0|0:0,0:0:0:0:
439,107,167501,2,0,L|494:102,2,50,2|0|8,0:0|0:0|0:0,0:0:0:0:
402,72,167988,2,0,L|252:59,1,150,2|8,0:0|0:0,0:0:0:0:
152,62,168798,2,0,L|96:57,2,50,2|0|8,0:0|0:0|0:0,0:0:0:0:
179,103,169285,70,0,P|205:171|184:242,1,150,2|8,0:0|0:0,0:0:0:0:
126,324,170096,2,0,L|70:328,2,50,2|2|8,0:0|0:0|0:0,0:0:0:0:
170,347,170582,2,0,L|270:337,1,100,2|0,0:0|0:0,0:0:0:0:
319,331,171069,1,8,0:0:0:0:
366,242,171393,2,0,L|421:246,2,50,2|2|8,0:0|0:0|0:0,0:0:0:0:
316,236,171880,6,0,B|269:215|222:233|222:233|226:176|167:123|98:168,1,250,4|0,0:0|0:0,0:0:0:0:
