osu file format v14

[General]
AudioFilename: i can see you looking through the beatmap files.mp3
AudioLeadIn: 0
PreviewTime: 33798
Countdown: 0
SampleSet: Soft
StackLeniency: 0.6
Mode: 0
LetterboxInBreaks: 0
WidescreenStoryboard: 0

[Editor]
Bookmarks: 1082,170177
DistanceSpacing: 1.2
BeatDivisor: 2
GridSize: 8
TimelineZoom: 1.6

[Metadata]
Title:Kimi no Yozora Shoukaihan
TitleUnicode:キミノヨゾラ哨戒班
Artist:Orangestar
ArtistUnicode:Orangestar
Creator:newton-
Version:Kanan's Easy
Source:
Tags:ia vocaloid asu no your night sky patrol of tomorrow arrangement newtonscradle nextplay my angel kanan
BeatmapID:1281563
BeatmapSetID:583277

[Difficulty]
HPDrainRate:2
CircleSize:3
OverallDifficulty:2
ApproachRate:3.5
SliderMultiplier:0.7
SliderTickRate:1

[Events]
//Background and Video events
0,0,"Kimi_no_Yozora_Shoukaihan.png",0,0
//Break Periods
2,21755,25364
2,76080,84554
2,117755,121202
//Storyboard Layer 0 (Background)
//Storyboard Layer 1 (Fail)
//Storyboard Layer 2 (Pass)
//Storyboard Layer 3 (Foreground)
//Storyboard Sound Samples

[TimingPoints]
799,324.324324324324,4,2,2,50,1,0
799,-100,4,2,2,50,0,0
11177,-100,4,2,2,80,0,0
21069,-100,4,2,2,90,0,0
21231,-100,4,1,2,90,0,0
21555,-100,4,1,2,50,0,0
22204,-100,4,2,2,50,0,0
26744,-100,4,2,2,70,0,0
26745,-100,4,2,2,70,0,0
33880,-100,4,2,2,50,0,0
33881,-100,4,2,2,50,0,0
34366,-100,4,2,2,90,0,1
44258,-100,4,2,2,80,0,0
44744,-100,4,2,2,90,0,1
55285,-100,4,2,2,80,0,0
59826,-100,4,2,2,80,0,0
60312,-100,4,2,2,80,0,0
85934,-100,4,2,2,60,0,0
86420,-100,4,2,2,70,0,0
117231,-100,4,2,2,60,0,0
117555,-100,4,2,2,50,0,0
122582,-100,4,2,2,70,0,0
130204,-100,4,2,2,50,0,0
130528,-100,4,2,2,90,0,1
140258,-100,4,2,2,90,0,0
140744,-100,4,2,2,90,0,1
151285,-100,4,2,2,80,0,0
155826,-100,4,2,2,80,0,0
156312,-100,4,2,2,80,0,0
159069,-100,4,2,2,80,0,1
161501,-100,4,2,2,70,0,0
171880,-100,4,2,2,90,0,0
171961,-100,4,2,2,20,0,0
172690,-100,4,2,2,5,0,0

[Colours]
Combo1 : 0,0,128
Combo2 : 255,128,0
Combo3 : 247,186,72
Combo4 : 0,128,255
Combo5 : 0,171,253
Combo6 : 6,69,172

[HitObjects]
28,96,799,38,0,L|265:96,1,210,2|2,0:0|0:0,0:0:0:0:
291,160,2096,2,0,P|297:195|287:228,1,70,2|0,0:0|0:0,0:0:0:0:
265,308,2744,2,0,L|177:309,1,70
105,286,3393,6,0,P|97:242|102:204,1,70,2|0,0:0|0:0,0:0:0:0:
158,157,4042,2,0,P|161:107|157:78,1,70,2|2,0:0|0:0,0:0:0:0:
227,38,4690,2,0,P|264:44|301:37,1,70,2|0,0:0|0:0,0:0:0:0:
374,9,5339,1,0,0:0:0:0:
362,176,5988,70,0,P|337:218|339:275,2,105,2|2|0,0:0|0:0|0:0,0:0:0:0:
363,91,7285,2,0,P|328:78|295:80,1,70,2|0,0:0|0:0,0:0:0:0:
215,104,7934,2,0,L|142:103,1,70,2|0,0:0|0:0,0:0:0:0:
86,43,8582,6,0,P|64:102|75:145,1,105,2|2,0:0|0:0,0:0:0:0:
94,222,9393,1,0,0:0:0:0:
83,305,9717,2,0,P|145:296|192:306,1,105,2|2,0:0|0:0,0:0:0:0:
268,319,10528,2,0,L|267:241,1,70,2|2,0:0|0:0,0:0:0:0:
279,165,11177,70,0,B|241:157|241:157|203:165,1,70,4|2,0:0|0:0,0:0:0:0:
129,187,11826,1,2,0:0:0:0:
63,134,12150,1,2,0:0:0:0:
20,206,12474,2,0,P|10:251|17:286,1,70,2|0,0:0|0:0,0:0:0:0:
88,311,13123,2,0,L|165:311,1,70,2|2,0:0|0:0,0:0:0:0:
241,299,13771,6,0,L|242:218,1,70,2|0,0:0|0:0,0:0:0:0:
210,150,14420,2,0,L|211:78,1,70,2|0,0:0|0:0,0:0:0:0:
266,16,15069,2,0,L|342:18,1,70,2|0,0:0|0:0,0:0:0:0:
393,79,15717,2,0,L|392:159,1,70,2|0,0:0|0:0,0:0:0:0:
372,230,16366,70,0,P|303:213|230:234,1,140,4|2,0:0|0:0,0:0:0:0:
162,267,17339,1,2,0:0:0:0:
85,301,17663,2,0,L|80:372,2,70,2|2|0,0:0|0:0|0:0,0:0:0:0:
85,216,18636,6,0,L|2:213,1,70,2|0,0:0|0:0,0:0:0:0:
19,129,19285,2,0,L|88:131,1,70,2|0,0:0|0:0,0:0:0:0:
162,172,19934,1,2,0:0:0:0:
235,211,20258,2,0,L|342:212,2,105,2|2|8,0:0|0:0|0:0,0:0:0:0:
165,258,21555,21,8,0:0:0:0:
176,206,26744,38,0,L|252:206,1,70,4|2,0:0|0:0,0:0:0:0:
322,240,27393,2,0,L|396:242,1,70,2|0,0:0|0:0,0:0:0:0:
463,198,28042,2,0,P|460:157|466:124,1,70,2|0,0:0|0:0,0:0:0:0:
484,47,28690,1,2,0:0:0:0:
402,27,29015,1,2,0:0:0:0:
380,108,29339,6,0,P|311:126|240:109,1,140,2|2,0:0|0:0,0:0:0:0:
172,69,30312,2,0,P|178:137|155:210,1,140,2|2,0:0|0:0,0:0:0:0:
113,276,31285,2,0,P|147:284|189:281,1,70,2|2,0:0|0:0,0:0:0:0:
256,192,31934,12,2,33231,0:0:0:0:
268,98,34366,38,0,L|258:208,1,105,4|8,0:0|0:0,0:0:0:0:
240,284,35177,2,0,L|161:283,1,70,2|8,0:0|0:0,0:0:0:0:
88,268,35826,2,0,L|96:184,2,70,0|8|2,0:0|0:0|0:0,0:0:0:0:
20,318,36798,1,8,0:0:0:0:
92,360,37123,6,0,L|213:363,1,105,2|2,0:0|0:0,0:0:0:0:
263,310,37934,1,2,0:0:0:0:
329,258,38258,2,0,L|411:258,1,70,2|0,0:0|0:0,0:0:0:0:
431,231,38744,2,0,L|504:233,1,70,8|2,0:0|0:0,0:0:0:0:
506,148,39393,1,8,0:0:0:0:
455,81,39717,70,0,P|459:46|456:11,1,70,2|8,0:0|0:0,0:0:0:0:
373,27,40366,2,0,P|332:18|294:26,1,70,2|8,0:0|0:0,0:0:0:0:
266,39,40853,2,0,L|154:38,1,105,2|8,0:0|0:0,0:0:0:0:
0,87,41988,1,8,0:0:0:0:
16,171,42312,6,0,P|11:212|17:250,1,70,2|8,0:0|0:0,0:0:0:0:
54,314,42961,2,0,P|88:307|123:309,1,70,2|8,0:0|0:0,0:0:0:0:
203,331,43609,2,0,L|275:329,1,70,4|4,0:0|0:0,0:0:0:0:
355,312,44258,2,0,P|397:322|434:311,1,70,6|10,0:0|0:0,0:0:0:0:
464,311,44744,70,0,L|468:194,1,105,4|8,0:0|0:0,0:0:0:0:
413,141,45555,2,0,L|329:140,1,70,2|8,0:0|0:0,0:0:0:0:
305,159,46042,2,0,L|193:157,1,105,2|8,0:0|0:0,0:0:0:0:
116,148,46853,2,0,P|124:190|116:228,1,70,2|8,0:0|0:0,0:0:0:0:
113,300,47501,6,0,L|183:300,1,70,2|8,0:0|0:0,0:0:0:0:
224,308,47988,2,0,L|339:309,1,105,2|8,0:0|0:0,0:0:0:0:
338,225,48798,2,0,P|333:183|348:146,1,70,0|8,0:0|0:0,0:0:0:0:
317,78,49447,2,0,L|239:77,1,70,2|8,0:0|0:0,0:0:0:0:
207,92,49934,70,0,L|79:89,1,105,4|8,0:0|0:0,0:0:0:0:
31,134,50744,1,2,0:0:0:0:
66,211,51069,2,0,L|65:280,2,70,8|0|8,0:0|0:0|0:0,0:0:0:0:
215,133,52366,1,8,0:0:0:0:
289,175,52690,6,0,P|277:217|279:249,2,70,2|8|2,0:0|0:0|0:0,0:0:0:0:
351,118,53663,1,8,0:0:0:0:
299,51,53988,2,0,L|229:51,1,70,10|8,0:0|0:0,0:0:0:0:
152,84,54636,2,0,L|73:82,1,70,10|10,0:0|0:0,0:0:0:0:
256,192,55285,12,2,59015,0:0:0:0:
257,147,60312,70,0,P|283:191|280:242,1,105,4|8,0:0|0:0,0:0:0:0:
255,324,61123,2,0,L|185:329,1,70,2|8,0:0|0:0,0:0:0:0:
102,313,61771,2,0,P|95:280|101:233,1,70,2|8,0:0|0:0,0:0:0:0:
164,192,62420,2,0,L|242:188,1,70,2|8,0:0|0:0,0:0:0:0:
315,168,63069,5,2,0:0:0:0:
388,208,63393,2,0,L|387:284,1,70,8|2,0:0|0:0,0:0:0:0:
439,343,64042,1,8,0:0:0:0:
483,272,64366,2,0,L|483:203,1,70,2|8,0:0|0:0,0:0:0:0:
449,125,65015,2,0,L|450:50,1,70,0|8,0:0|0:0,0:0:0:0:
382,4,65663,70,0,L|305:4,1,70,4|8,0:0|0:0,0:0:0:0:
255,62,66312,2,0,L|255:132,1,70,2|8,0:0|0:0,0:0:0:0:
310,195,66961,2,0,L|310:265,1,70,2|8,0:0|0:0,0:0:0:0:
278,342,67609,2,0,L|198:341,1,70,2|8,0:0|0:0,0:0:0:0:
182,260,68258,6,0,L|182:190,2,70,2|8|2,0:0|0:0|0:0,0:0:0:0:
125,322,69231,1,8,0:0:0:0:
68,259,69555,2,0,L|68:189,1,70,2|8,0:0|0:0,0:0:0:0:
123,125,70204,2,0,L|122:47,1,70,2|10,0:0|0:0,0:0:0:0:
197,16,70853,70,0,L|282:15,1,70,2|8,0:0|0:0,0:0:0:0:
350,9,71501,2,0,L|444:8,1,70,2|8,0:0|0:0,0:0:0:0:
457,27,71988,2,0,L|456:216,1,175,2|2,0:0|0:0,0:0:0:0:
375,226,73123,1,8,0:0:0:0:
294,248,73447,6,0,L|224:248,1,70,2|8,0:0|0:0,0:0:0:0:
145,216,74096,1,2,0:0:0:0:
61,227,74420,2,0,L|59:87,1,140,8|8,0:0|0:0,0:0:0:0:
92,9,75393,2,0,P|126:2|162:9,1,70,10|10,0:0|0:0,0:0:0:0:
200,22,75880,69,6,0:0:0:0:
127,220,85934,22,0,L|202:218,1,70,2|2,0:0|0:0,0:0:0:0:
237,230,86420,2,0,L|317:232,1,70,4|8,0:0|0:0,0:0:0:0:
390,238,87069,2,0,L|396:153,1,70,2|8,0:0|0:0,0:0:0:0:
394,126,87555,2,0,L|319:120,2,70,2|2|2,0:0|0:0|0:0,0:0:0:0:
496,52,88690,1,8,0:0:0:0:
493,136,89015,6,0,L|488:214,1,70,2|8,0:0|0:0,0:0:0:0:
503,288,89663,2,0,L|433:282,1,70,2|8,0:0|0:0,0:0:0:0:
351,303,90312,2,0,L|363:163,1,140,2|2,0:0|0:0,0:0:0:0:
356,79,91285,1,8,0:0:0:0:
283,121,91609,70,0,L|198:122,1,70,4|8,0:0|0:0,0:0:0:0:
133,150,92258,2,0,L|54:150,1,70,2|8,0:0|0:0,0:0:0:0:
58,234,92907,2,0,L|135:235,2,70,2|8|0,0:0|0:0|0:0,0:0:0:0:
14,306,93880,1,8,0:0:0:0:
84,355,94204,6,0,P|150:340|232:354,2,140,2|2|0,0:0|0:0|0:0,0:0:0:0:
14,306,95826,1,8,0:0:0:0:
46,228,96150,2,0,L|130:228,1,70,2|8,0:0|0:0,0:0:0:0:
199,216,96798,70,0,P|210:184|207:146,2,70,4|8|0,0:0|0:0|0:0,0:0:0:0:
277,239,97771,1,8,0:0:0:0:
328,305,98096,2,0,P|362:310|395:300,2,70,2|8|2,0:0|0:0|0:0,0:0:0:0:
277,239,99069,1,8,0:0:0:0:
193,235,99393,6,0,P|195:172|146:100,2,140,2|2|0,0:0|0:0|0:0,0:0:0:0:
140,301,101015,1,8,0:0:0:0:
215,336,101339,2,0,L|296:336,1,70,2|8,0:0|0:0,0:0:0:0:
355,289,101988,70,0,L|433:289,1,70,4|8,0:0|0:0,0:0:0:0:
494,241,102636,2,0,L|497:156,1,70,2|8,0:0|0:0,0:0:0:0:
436,112,103285,2,0,B|395:91|366:105|337:120|286:104,1,140,2|2,0:0|0:0,0:0:0:0:
216,90,104258,1,8,0:0:0:0:
140,127,104582,6,0,B|131:171|114:198|114:198|132:236|126:259,1,140,2|0,0:0|0:0,0:0:0:0:
210,266,105555,1,8,0:0:0:0:
294,275,105880,2,0,B|303:231|320:204|320:204|302:166|307:142,1,140,2|0,0:0|0:0,0:0:0:0:
254,76,106853,1,8,0:0:0:0:
170,69,107177,70,0,L|96:62,2,70,4|8|2,0:0|0:0|0:0,0:0:0:0:
185,151,108150,1,8,0:0:0:0:
126,210,108474,2,0,P|96:277|124:350,1,140,2|2,0:0|0:0,0:0:0:0:
194,361,109447,1,8,0:0:0:0:
256,305,109771,6,0,L|328:306,1,70,2|8,0:0|0:0,0:0:0:0:
346,224,110420,2,0,L|269:224,1,70,2|8,0:0|0:0,0:0:0:0:
197,193,111069,2,0,P|163:133|184:68,1,140,2|0,0:0|0:0,0:0:0:0:
242,9,112041,1,8,0:0:0:0:
306,65,112366,70,0,L|384:63,2,70,4|8|0,0:0|0:0|0:0,0:0:0:0:
261,136,113339,1,8,0:0:0:0:
191,180,113663,2,0,L|189:260,2,70,2|8|2,0:0|0:0|0:0,0:0:0:0:
189,95,114636,1,8,0:0:0:0:
261,136,114961,6,0,P|330:114|397:132,1,140,2|0,0:0|0:0,0:0:0:0:
446,195,115934,1,8,0:0:0:0:
369,228,116258,2,0,L|291:228,1,70,2|8,0:0|0:0,0:0:0:0:
288,311,116907,2,0,L|364:311,1,70,4|8,3:0|3:0,0:0:0:0:
441,308,117555,5,4,0:0:0:0:
223,284,122582,54,0,L|108:279,1,105,4|8,0:0|0:0,0:0:0:0:
93,199,123393,2,0,L|100:126,1,70,2|8,0:0|0:0,0:0:0:0:
139,55,124042,2,0,L|215:61,1,70,2|8,0:0|0:0,0:0:0:0:
278,108,124690,2,0,L|271:177,1,70,2|8,0:0|0:0,0:0:0:0:
267,261,125339,6,0,P|197:280|132:263,2,140,2|2|0,0:0|0:0|0:0,0:0:0:0:
338,216,126961,1,8,0:0:0:0:
381,144,127285,2,0,L|387:66,1,70,2|8,0:0|0:0,0:0:0:0:
256,192,127934,12,8,129231,0:0:0:0:
67,226,130528,38,0,L|213:226,1,140,4|2,0:0|0:0,0:0:0:0:
284,258,131501,1,8,0:0:0:0:
360,222,131826,2,0,L|442:224,1,70,2|8,0:0|0:0,0:0:0:0:
480,156,132474,2,0,P|478:104|481:81,1,70,2|8,0:0|0:0,0:0:0:0:
508,54,132961,6,0,L|395:50,1,105,2|8,0:0|0:0,0:0:0:0:
319,40,133771,2,0,P|309:80|315:118,1,70,2|8,0:0|0:0,0:0:0:0:
354,180,134420,1,0,0:0:0:0:
284,227,134744,2,0,L|214:225,1,70,8|0,0:0|0:0,0:0:0:0:
91,193,135555,70,0,L|94:88,1,105,4|8,0:0|0:0,0:0:0:0:
122,9,136366,2,0,L|192:9,1,70,2|8,0:0|0:0,0:0:0:0:
223,36,136853,2,0,L|331:36,1,105,2|8,0:0|0:0,0:0:0:0:
411,31,137663,2,0,L|414:106,1,70,2|8,0:0|0:0,0:0:0:0:
426,184,138312,6,0,P|430:222|414:257,2,70,2|8|2,0:0|0:0|0:0,0:0:0:0:
344,206,139285,1,8,0:0:0:0:
290,143,139609,2,0,L|220:140,1,70,2|8,0:0|0:0,0:0:0:0:
160,80,140258,2,0,L|90:76,1,70,2|8,0:0|0:0,0:0:0:0:
48,75,140744,70,0,P|25:128|32:182,1,105,4|8,0:0|0:0,0:0:0:0:
110,321,141880,1,8,0:0:0:0:
189,294,142204,2,0,L|258:295,1,70,2|8,0:0|0:0,0:0:0:0:
340,276,142852,1,2,0:0:0:0:
419,247,143177,1,8,0:0:0:0:
497,275,143501,6,0,L|496:134,1,140,2|2,0:0|0:0,0:0:0:0:
439,72,144474,1,8,0:0:0:0:
355,81,144798,2,0,P|320:77|286:83,2,70,2|8|0,0:0|0:0|0:0,0:0:0:0:
399,152,145771,1,8,0:0:0:0:
443,223,146096,70,0,P|484:219|518:223,2,70,4|8|2,0:0|0:0|0:0,0:0:0:0:
360,232,147069,1,8,0:0:0:0:
281,261,147393,2,0,P|213:244|145:258,1,140,2|2,0:0|0:0,0:0:0:0:
71,298,148366,1,8,0:0:0:0:
69,214,148690,6,0,L|71:137,1,70,2|8,0:0|0:0,0:0:0:0:
92,62,149339,2,0,L|177:62,1,70,2|8,0:0|0:0,0:0:0:0:
241,88,149988,2,0,L|310:87,1,70,10|8,0:0|0:0,0:0:0:0:
385,124,150636,2,0,L|454:125,1,70,10|10,0:0|0:0,0:0:0:0:
256,192,151285,12,2,155015,0:0:0:0:
454,80,156312,70,0,P|464:134|461:155,1,70,4|0,0:0|0:0,0:0:0:0:
453,189,156798,2,0,L|378:187,1,70,8|2,0:0|0:0,0:0:0:0:
302,212,157447,1,8,0:0:0:0:
221,235,157771,2,0,L|73:230,1,140,2|2,0:0|0:0,0:0:0:0:
22,169,158744,1,8,0:0:0:0:
84,112,159069,6,0,L|163:115,1,70,4|4,0:0|0:0,0:0:0:0:
229,152,159717,2,0,L|307:154,1,70,4|4,0:0|0:0,0:0:0:0:
372,195,160366,2,0,L|451:195,1,70,4|4,0:0|0:0,0:0:0:0:
492,127,161015,2,0,P|498:92|491:54,1,70,4|8,0:0|0:0,0:0:0:0:
490,16,161501,70,0,L|377:15,1,105,4|8,0:0|0:0,0:0:0:0:
301,24,162312,2,0,L|223:22,1,70,2|8,0:0|0:0,0:0:0:0:
184,92,162961,2,0,P|170:142|176:172,1,70,2|8,0:0|0:0,0:0:0:0:
242,207,163609,2,0,L|316:204,1,70,2|8,0:0|0:0,0:0:0:0:
381,251,164258,6,0,L|450:250,2,70,2|8|2,0:0|0:0|0:0,0:0:0:0:
304,286,165231,1,8,0:0:0:0:
225,314,165555,2,0,L|85:314,1,140,2|2,0:0|0:0,0:0:0:0:
36,244,166528,1,8,0:0:0:0:
96,185,166853,70,0,P|100:139|92:105,1,70,4|8,0:0|0:0,0:0:0:0:
81,33,167501,2,0,P|117:28|150:33,1,70,2|8,0:0|0:0,0:0:0:0:
228,67,168150,2,0,P|267:73|297:68,1,70,2|8,0:0|0:0,0:0:0:0:
379,81,168798,2,0,P|374:119|381:157,1,70,2|8,0:0|0:0,0:0:0:0:
341,225,169447,6,0,B|361:274|348:303|332:335|346:369,2,140,2|2|0,0:0|0:0|0:0,0:0:0:0:
257,219,171069,1,8,0:0:0:0:
175,240,171393,2,0,L|105:236,1,70,2|8,0:0|0:0,0:0:0:0:
66,253,171880,70,0,B|92:190|92:190|92:78,1,175,4|0,0:0|0:0,0:0:0:0:
