osu file format v14

[General]
AudioFilename: i can see you looking through the beatmap files.mp3
AudioLeadIn: 0
PreviewTime: 33798
Countdown: 0
SampleSet: Soft
StackLeniency: 0.6
Mode: 0
LetterboxInBreaks: 0
WidescreenStoryboard: 0

[Editor]
DistanceSpacing: 1.2
BeatDivisor: 4
GridSize: 8
TimelineZoom: 1.6

[Metadata]
Title:Kimi no Yozora Shoukaihan
TitleUnicode:キミノヨゾラ哨戒班
Artist:Orangestar
ArtistUnicode:Orangestar
Creator:newton-
Version:Hard
Source:
Tags:ia vocaloid asu no your night sky patrol of tomorrow arrangement newtonscradle nextplay my angel kanan
BeatmapID:1237071
BeatmapSetID:583277

[Difficulty]
HPDrainRate:5
CircleSize:4
OverallDifficulty:7
ApproachRate:8
SliderMultiplier:1.4
SliderTickRate:1

[Events]
//Background and Video events
0,0,"Kimi_no_Yozora_Shoukaihan.png",0,0
//Break Periods
2,76080,85184
//Storyboard Layer 0 (Background)
//Storyboard Layer 1 (Fail)
//Storyboard Layer 2 (Pass)
//Storyboard Layer 3 (Foreground)
//Storyboard Sound Samples

[TimingPoints]
799,324.324324324324,4,2,2,50,1,0
799,-100,4,2,2,50,0,0
11177,-100,4,2,2,80,0,0
21069,-100,4,1,2,90,0,0
21231,-100,4,1,2,90,0,0
21555,-111.111111111111,4,1,2,50,0,0
22204,-111.111111111111,4,2,2,50,0,0
26744,-100,4,2,2,70,0,0
33880,-125,4,2,2,50,0,0
34366,-83.3333333333333,4,2,2,90,0,1
44258,-83.3333333333333,4,2,2,80,0,0
44744,-83.3333333333333,4,2,2,90,0,1
55285,-100,4,2,2,80,0,0
59826,-125,4,2,2,80,0,0
60312,-100,4,2,2,80,0,0
85934,-100,4,2,2,60,0,0
86420,-100,4,2,2,70,0,0
117231,-100,4,2,2,60,0,0
117555,-111.111111111111,4,2,2,50,0,0
122582,-100,4,2,2,70,0,0
130204,-125,4,2,2,50,0,0
130528,-83.3333333333333,4,2,2,90,0,1
140258,-83.3333333333333,4,2,2,90,0,0
140744,-83.3333333333333,4,2,2,90,0,1
151285,-100,4,2,2,80,0,0
155826,-125,4,2,2,80,0,0
156312,-100,4,2,2,80,0,0
159069,-100,4,2,2,80,0,1
161501,-100,4,2,2,70,0,0
171880,-125,4,2,2,90,0,0
171961,-125,4,2,2,20,0,0
172690,-125,4,2,2,5,0,0

[Colours]
Combo1 : 0,0,128
Combo2 : 255,128,0
Combo3 : 247,186,72
Combo4 : 0,128,255
Combo5 : 0,171,253
Combo6 : 6,69,172

[HitObjects]
91,36,636,37,2,2:0:0:0:
141,104,799,2,0,P|210:132|275:122,1,140,2|2,0:0|0:0,0:0:0:0:
355,139,1285,2,0,P|363:207|336:271,1,140,2|2,0:0|0:0,0:0:0:0:
336,271,1934,6,0,B|247:263|247:263|196:280,2,140,2|2|2,0:0|0:0|0:0,0:0:0:0:
419,279,2744,2,0,P|460:279|506:249,1,70,0|0,0:0|0:0,0:0:0:0:
439,195,3069,1,2,0:0:0:0:
393,124,3231,70,0,B|344:140|344:140|255:132,2,140,2|2|2,0:0|0:0|0:0,0:0:0:0:
472,96,4042,2,0,L|478:165,1,70,0|0,0:0|0:0,0:0:0:0:
486,249,4366,1,2,0:0:0:0:
410,214,4528,6,0,P|324:229|275:284,1,140,2|2,0:0|0:0,0:0:0:0:
286,263,5177,1,2,0:0:0:0:
255,184,5339,2,0,B|244:152|244:152|248:87,1,70,2|2,0:0|0:0,0:0:0:0:
246,115,5826,70,0,L|94:128,1,140,2|0,0:0|0:0,0:0:0:0:
71,204,6312,1,2,0:0:0:0:
120,274,6474,2,0,B|177:268|177:268|259:285,1,140,2|2,0:0|0:0,0:0:0:0:
257,284,7123,6,0,P|301:201|277:144,2,140,2|2|2,0:0|0:0|0:0,0:0:0:0:
175,268,7934,2,0,P|126:250|82:261,1,70,2|0,0:0|0:0,0:0:0:0:
28,275,8258,1,0,0:0:0:0:
48,193,8420,70,0,P|78:166|95:65,1,140,2|2,0:0|0:0,0:0:0:0:
178,105,8907,1,2,0:0:0:0:
251,136,9069,2,0,P|291:134|369:68,1,140,2|2,0:0|0:0,0:0:0:0:
366,74,9717,6,0,B|382:122|382:122|374:211,1,140,2|0,0:0|0:0,0:0:0:0:
361,294,10204,2,0,P|290:265|229:302,1,140,2|2,0:0|0:0,0:0:0:0:
179,352,10690,1,0,0:0:0:0:
151,272,10853,2,0,L|55:280,1,70,2|2,0:0|0:0,0:0:0:0:
27,341,11177,70,0,P|56:278|52:200,1,140,4|2,0:0|0:0,0:0:0:0:
26,129,11663,2,0,B|74:112|74:112|163:120,1,140,2|2,0:0|0:0,0:0:0:0:
246,130,12150,1,2,0:0:0:0:
329,137,12312,6,0,P|358:74|354:-4,2,140,2|2|2,0:0|0:0|0:0,0:0:0:0:
281,205,13123,2,0,P|262:270|272:298,1,70,0|0,0:0|0:0,0:0:0:0:
311,336,13447,1,2,0:0:0:0:
345,260,13609,70,0,B|392:276|392:276|481:268,2,140,2|2|2,0:0|0:0|0:0,0:0:0:0:
281,205,14420,2,0,L|201:211,1,70,2|0,0:0|0:0,0:0:0:0:
127,220,14744,1,0,0:0:0:0:
42,227,14907,6,0,P|13:164|17:86,1,140,2|2,0:0|0:0,0:0:0:0:
14,94,15555,2,0,B|61:110|61:110|150:102,1,140,2|2,0:0|0:0,0:0:0:0:
318,81,16204,70,0,L|461:93,1,140,4|0,0:0|0:0,0:0:0:0:
503,163,16690,2,0,B|498:201|498:201|476:233,1,70,2|0,0:0|0:0,0:0:0:0:
406,266,17015,2,0,P|302:234|262:250,1,140,2|2,0:0|0:0,0:0:0:0:
203,282,17501,6,0,P|134:290|73:258,2,140,2|2|2,0:0|0:0|0:0,0:0:0:0:
203,282,18474,70,0,L|196:202,1,70,2|2,0:0|0:0,0:0:0:0:
189,128,18798,1,2,0:0:0:0:
276,242,19123,6,0,L|269:162,1,70,2|2,0:0|0:0,0:0:0:0:
262,88,19447,1,2,0:0:0:0:
262,88,19771,70,0,L|331:94,2,70,2|2|2,0:0|0:0|0:0,0:0:0:0:
193,137,20258,2,0,L|123:143,2,70,2|0|2,0:0|0:0|0:0,0:0:0:0:
269,172,20744,2,0,L|424:185,1,140,2|8,0:0|0:0,0:0:0:0:
483,222,21231,6,0,P|492:276|471:310,1,70,8|8,0:0|0:0,0:0:0:0:
440,344,21555,6,0,B|399:321|328:352|328:352|272:336|248:296|268:236,1,251.999992309571,8|2,0:0|0:0,2:0:0:0:
264,250,22528,5,2,0:0:0:0:
281,176,22690,1,0,0:0:0:0:
281,176,23015,70,0,P|331:214|335:275,1,125.999996154785,2|0,0:0|0:0,0:0:0:0:
264,250,23501,2,0,L|136:261,1,125.999996154785,2|0,0:0|0:0,0:0:0:0:
94,198,23988,1,2,0:0:0:0:
126,129,24150,6,0,L|197:135,1,62.9999980773926,2|0,0:0|0:0,0:0:0:0:
251,91,24474,2,0,L|322:97,1,62.9999980773926,2|0,0:0|0:0,0:0:0:0:
362,154,24798,2,0,L|424:148,2,62.9999980773926,0|2|0,0:0|0:0|0:0,0:0:0:0:
313,212,25285,70,0,L|169:224,1,125.999996154785,2|0,0:0|0:0,0:0:0:0:
144,285,25771,1,2,0:0:0:0:
111,217,25934,2,0,P|149:156|213:151,1,125.999996154785,2|2,0:0|0:0,0:0:0:0:
273,140,26420,2,0,L|364:131,1,62.9999980773926,2|2,0:0|0:0,0:0:0:0:
419,130,26744,54,0,P|469:192|458:275,1,140,4|2,0:0|0:0,0:0:0:0:
428,323,27231,2,0,B|381:307|381:307|292:315,1,140,2|2,0:0|0:0,0:0:0:0:
207,323,27717,1,0,0:0:0:0:
240,245,27880,6,0,B|151:253|151:253|104:237,2,140,2|2|2,0:0|0:0|0:0,0:0:0:0:
331,151,28853,2,0,L|418:158,1,70,2|2,0:0|0:0,0:0:0:0:
443,229,29177,1,2,0:0:0:0:
387,291,29339,70,0,L|394:378,2,70,2|2|0,0:0|0:0|0:0,0:0:0:0:
303,278,29826,2,0,L|310:365,2,70,2|2|0,0:0|0:0|0:0,0:0:0:0:
219,265,30312,2,0,L|226:352,2,70,2|2|0,0:0|0:0|0:0,0:0:0:0:
273,199,30798,5,2,0:0:0:0:
273,199,30961,2,0,L|280:111,1,70,2|0,0:0|0:0,0:0:0:0:
357,186,31285,2,0,L|364:98,1,70,2|0,0:0|0:0,0:0:0:0:
441,173,31609,2,0,L|434:242,1,70,2|0,0:0|0:0,0:0:0:0:
424,326,31934,69,2,0:0:0:0:
424,326,32096,2,0,P|376:313|347:318,1,70,2|0,0:0|0:0,0:0:0:0:
274,331,32420,1,2,0:0:0:0:
275,331,32582,2,0,P|240:332|207:320,1,70,2|0,0:0|0:0,0:0:0:0:
237,241,32907,5,2,0:0:0:0:
237,241,33069,2,0,P|253:210|280:187,1,70,2|0,0:0|0:0,0:0:0:0:
333,252,33393,1,2,0:0:0:0:
333,252,33555,2,0,P|351:281|357:315,1,70,2|0,0:0|0:0,0:0:0:0:
434,329,33880,70,0,P|424:252|395:205,1,112,2|0,0:0|0:0,0:0:0:0:
445,132,34366,54,0,P|480:193|404:220,1,167.999994873047,4|0,0:0|0:0,0:0:0:0:
313,170,34853,2,0,P|272:168|233:183,1,83.9999974365235,8|0,0:0|0:0,0:0:0:0:
144,231,35177,2,0,P|104:245|63:243,1,83.9999974365235,2|2,0:0|0:0,0:0:0:0:
89,147,35501,1,8,0:0:0:0:
144,231,35663,6,0,P|208:280|289:267,1,167.999994873047,2|0,0:0|0:0,0:0:0:0:
352,187,36150,2,0,L|435:194,1,83.9999974365235,8|2,0:0|0:0,0:0:0:0:
309,95,36474,2,0,L|225:87,1,83.9999974365235,2|0,0:0|0:0,0:0:0:0:
125,78,36798,1,8,0:0:0:0:
74,165,36961,1,2,0:0:0:0:
86,306,37123,70,0,P|123:325|165:324,2,83.9999974365235,2|2|8,0:0|0:0|0:0,0:0:0:0:
144,231,37609,2,0,L|227:238,1,83.9999974365235,2|0,0:0|0:0,0:0:0:0:
280,318,37934,2,0,L|363:311,1,83.9999974365235,2|8,0:0|0:0,0:0:0:0:
449,268,38258,6,0,P|466:200|396:213,1,167.999994873047,2|0,0:0|0:0,0:0:0:0:
469,112,38744,2,0,B|409:93|349:140|349:140|296:183|232:162,1,251.999992309571,8|0,0:0|0:0,0:0:0:0:
140,122,39393,1,8,0:0:0:0:
140,122,39555,70,0,P|146:216|201:258,1,167.999994873047,4|0,0:0|0:0,0:0:0:0:
314,161,40042,2,0,P|273:169|233:162,1,83.9999974365235,8|2,0:0|0:0,0:0:0:0:
140,122,40366,2,0,P|99:112|59:121,1,83.9999974365235,2|0,0:0|0:0,0:0:0:0:
0,203,40690,5,8,0:0:0:0:
0,203,40853,2,0,L|7:290,1,83.9999974365235,2|0,0:0|0:0,0:0:0:0:
106,297,41177,1,2,0:0:0:0:
106,297,41339,2,0,L|98:209,1,83.9999974365235,8|0,0:0|0:0,0:0:0:0:
140,122,41663,2,0,P|181:132|221:123,1,83.9999974365235,0|2,0:0|0:0,0:0:0:0:
303,63,41988,1,8,0:0:0:0:
303,63,42150,1,2,0:0:0:0:
362,145,42312,70,0,P|397:121|437:116,2,83.9999974365235,2|2|8,0:0|0:0|0:0,0:0:0:0:
280,204,42798,2,0,L|192:211,1,83.9999974365235,2|0,0:0|0:0,0:0:0:0:
373,246,43123,2,0,L|456:239,1,83.9999974365235,2|8,0:0|0:0,0:0:0:0:
291,305,43447,6,0,B|179:314|179:314|96:281,1,167.999994873047,2|2,0:0|0:0,0:0:0:0:
91,194,43934,2,0,P|112:146|166:110,1,83.9999974365235,4|2,0:0|0:0,0:0:0:0:
224,80,44258,1,6,0:0:0:0:
299,146,44420,1,2,0:0:0:0:
389,102,44582,1,10,0:0:0:0:
464,168,44744,70,0,B|428:203|389:203|389:203|365:240|384:293,1,167.999994873047,4|0,0:0|0:0,0:0:0:0:
302,347,45231,2,0,P|279:298|283:254,1,83.9999974365235,8|0,0:0|0:0,0:0:0:0:
289,168,45555,2,0,P|226:182|196:213,1,83.9999974365235,2|2,0:0|0:0,0:0:0:0:
178,288,45880,1,8,0:0:0:0:
113,211,46042,6,0,P|126:138|216:93,1,167.999994873047,2|0,0:0|0:0,0:0:0:0:
289,168,46528,2,0,P|350:187|392:175,1,83.9999974365235,8|2,0:0|0:0,0:0:0:0:
427,106,46853,2,0,P|389:88|347:89,1,83.9999974365235,2|0,0:0|0:0,0:0:0:0:
289,168,47177,2,0,L|296:255,1,83.9999974365235,8|2,0:0|0:0,0:0:0:0:
237,334,47501,70,0,P|201:315|141:322,1,83.9999974365235,2|2,0:0|0:0,0:0:0:0:
57,329,47826,1,8,0:0:0:0:
57,329,47988,2,0,L|65:233,1,83.9999974365235,2|0,0:0|0:0,0:0:0:0:
118,160,48312,2,0,P|154:141|214:148,1,83.9999974365235,2|8,0:0|0:0,0:0:0:0:
295,166,48636,6,0,P|397:204|458:170,1,167.999994873047,2|0,0:0|0:0,0:0:0:0:
436,282,49123,2,0,B|324:291|324:291|258:330,1,167.999994873047,8|2,0:0|0:0,0:0:0:0:
187,367,49609,2,0,P|174:325|190:267,1,83.9999974365235,2|8,0:0|0:0,0:0:0:0:
224,194,49934,70,0,P|229:152|216:113,1,83.9999974365235,4|0,0:0|0:0,0:0:0:0:
285,38,50258,2,0,L|388:47,1,83.9999974365235,2|8,0:0|0:0,0:0:0:0:
398,141,50582,1,2,0:0:0:0:
398,141,50744,2,0,L|314:133,1,83.9999974365235,2|0,0:0|0:0,0:0:0:0:
216,113,51069,5,8,0:0:0:0:
216,113,51231,2,0,L|132:120,1,83.9999974365235,2|0,0:0|0:0,0:0:0:0:
103,216,51555,1,2,0:0:0:0:
103,216,51717,2,0,L|186:208,1,83.9999974365235,8|0,0:0|0:0,0:0:0:0:
287,198,52042,1,0,0:0:0:0:
327,289,52204,1,2,0:0:0:0:
253,358,52366,1,8,0:0:0:0:
165,306,52528,1,2,0:0:0:0:
65,317,52690,70,0,P|22:292|-3:230,1,83.9999974365235,2|2,0:0|0:0,0:0:0:0:
103,216,53015,2,0,P|146:191|212:200,1,83.9999974365235,8|2,0:0|0:0,0:0:0:0:
279,203,53339,1,2,0:0:0:0:
357,140,53501,2,0,L|349:56,1,83.9999974365235,2|8,0:0|0:0,0:0:0:0:
366,240,53826,2,0,L|356:343,1,83.9999974365235,2|8,0:0|0:0,0:0:0:0:
444,177,54150,1,2,0:0:0:0:
444,177,54474,5,2,0:0:0:0:
357,140,54636,2,0,L|277:133,4,41.9999987182618,10|2|2|2|10,0:0|0:0|0:0|0:0|0:0,0:0:0:0:
432,83,55123,1,4,0:0:0:0:
256,192,55204,12,8,59501,0:0:0:0:
116,84,59826,70,0,P|152:127|225:136,1,112,2|8,0:0|0:0,0:0:0:0:
279,102,60312,6,0,P|332:100|355:178,1,140,4|0,0:0|0:0,0:0:0:0:
297,230,60798,2,0,L|209:222,1,70,8|2,0:0|0:0,0:0:0:0:
169,285,61123,2,0,L|81:292,2,70,2|2|8,0:0|0:0|0:0,0:0:0:0:
251,304,61609,70,0,L|402:317,1,140,2|0,0:0|0:0,0:0:0:0:
470,290,62096,2,0,P|476:247|456:203,1,70,8|2,0:0|0:0,0:0:0:0:
431,147,62420,2,0,P|465:141|494:122,2,70,2|2|8,0:0|0:0|0:0,0:0:0:0:
350,122,62907,6,0,P|250:120|197:150,1,140,2|0,0:0|0:0,0:0:0:0:
144,177,63393,2,0,P|154:211|157:246,1,70,8|2,0:0|0:0,0:0:0:0:
120,320,63717,2,0,P|88:328|50:326,2,70,2|2|8,0:0|0:0|0:0,0:0:0:0:
203,314,64204,70,0,P|268:291|337:299,1,140,2|0,0:0|0:0,0:0:0:0:
396,359,64690,2,0,P|421:299|411:269,1,70,8|0,0:0|0:0,0:0:0:0:
375,225,65015,2,0,P|379:190|399:162,1,70,0|0,0:0|0:0,0:0:0:0:
463,108,65339,1,8,0:0:0:0:
385,80,65501,6,0,B|328:81|321:148|248:134,1,140,4|0,0:0|0:0,0:0:0:0:
188,91,65988,2,0,L|118:97,1,70,8|2,0:0|0:0,0:0:0:0:
74,168,66312,2,0,L|4:162,2,70,2|0|8,0:0|0:0|0:0,0:0:0:0:
115,240,66798,70,0,L|266:253,1,140,2|0,0:0|0:0,0:0:0:0:
303,320,67285,2,0,L|373:314,1,70,8|2,0:0|0:0,0:0:0:0:
442,266,67609,2,0,L|512:272,2,70,2|0|8,0:0|0:0|0:0,0:0:0:0:
365,229,68096,6,0,P|413:185|488:194,1,140,2|0,0:0|0:0,0:0:0:0:
504,110,68582,2,0,P|465:98|416:100,1,70,8|2,0:0|0:0,0:0:0:0:
352,111,68907,2,0,P|317:108|284:97,2,70,2|0|8,0:0|0:0|0:0,0:0:0:0:
436,97,69393,70,0,B|454:162|454:162|448:234,1,140,2|0,0:0|0:0,0:0:0:0:
450,318,69880,2,0,P|415:313|387:293,1,70,8|2,0:0|0:0,0:0:0:0:
365,211,70204,2,0,P|336:190|302:186,1,70,2|2,0:0|0:0,0:0:0:0:
220,200,70528,1,10,0:0:0:0:
137,213,70690,6,0,P|80:168|111:91,1,140,4|0,0:0|0:0,0:0:0:0:
145,45,71177,2,0,P|184:57|233:55,1,70,8|2,0:0|0:0,0:0:0:0:
292,85,71501,2,0,P|326:82|359:71,2,70,2|2|8,0:0|0:0|0:0,0:0:0:0:
227,140,71988,70,0,P|151:136|75:99,1,140,2|0,0:0|0:0,0:0:0:0:
15,145,72474,2,0,L|21:224,1,70,8|2,0:0|0:0,0:0:0:0:
56,290,72798,2,0,L|49:369,2,70,2|2|8,0:0|0:0|0:0,0:0:0:0:
105,222,73285,6,0,B|170:240|170:240|242:234,1,140,2|0,0:0|0:0,0:0:0:0:
325,220,73771,2,0,B|357:216|357:216|393:224,1,70,8|2,0:0|0:0,0:0:0:0:
469,263,74096,2,0,P|479:230|473:196,2,70,2|2|8,0:0|0:0|0:0,0:0:0:0:
397,310,74582,70,0,B|351:306|351:306|309:326|309:326|262:322,1,140,2|0,0:0|0:0,0:0:0:0:
222,236,75069,2,0,L|292:243,1,70,8|0,0:0|0:0,0:0:0:0:
327,166,75393,1,10,0:0:0:0:
362,89,75555,1,10,0:0:0:0:
397,12,75717,1,10,0:0:0:0:
446,80,75880,1,6,0:0:0:0:
184,109,85934,22,0,L|104:116,2,70,2|2|2,0:0|0:0|0:0,0:0:0:0:
253,157,86420,6,0,P|316:180|389:156,1,140,4|8,0:0|0:0,0:0:0:0:
426,87,86907,2,0,P|464:141|438:226,1,140,2|2,0:0|0:0,0:0:0:0:
384,261,87393,1,8,0:0:0:0:
300,269,87555,70,0,B|207:275|207:275|148:311,1,140,2|2,0:0|0:0,0:0:0:0:
91,337,88042,1,8,0:0:0:0:
97,253,88204,2,0,L|109:109,1,140,2|0,0:0|0:0,0:0:0:0:
179,67,88690,1,8,0:0:0:0:
252,107,88853,6,0,P|315:124|386:70,1,140,2|0,0:0|0:0,0:0:0:0:
423,18,89339,1,8,0:0:0:0:
459,92,89501,2,0,B|442:136|442:136|453:229,1,140,2|2,0:0|0:0,0:0:0:0:
464,312,89988,1,8,0:0:0:0:
387,281,90150,70,0,P|323:263|252:317,1,140,2|0,0:0|0:0,0:0:0:0:
200,355,90636,2,0,L|120:348,1,70,8|0,0:0|0:0,0:0:0:0:
48,341,90961,1,2,0:0:0:0:
95,273,91123,1,2,0:0:0:0:
142,205,91285,2,0,L|211:211,1,70,8|0,0:0|0:0,0:0:0:0:
295,216,91609,6,0,B|334:235|334:235|430:226,1,140,4|8,0:0|0:0,0:0:0:0:
418,143,92096,2,0,L|346:149,1,70,2|0,0:0|0:0,0:0:0:0:
295,216,92420,2,0,L|223:210,1,70,2|8,0:0|0:0,0:0:0:0:
141,203,92744,70,0,P|72:163|27:100,1,140,2|2,0:0|0:0,0:0:0:0:
131,68,93231,1,8,0:0:0:0:
131,68,93393,2,0,P|184:106|270:80,1,140,2|0,0:0|0:0,0:0:0:0:
323,46,93880,1,8,0:0:0:0:
331,131,94042,1,2,0:0:0:0:
401,82,94204,6,0,P|461:68|483:74,2,70,2|2|8,0:0|0:0|0:0,0:0:0:0:
331,131,94690,2,0,P|270:144|248:138,1,70,2|0,0:0|0:0,0:0:0:0:
191,99,95015,2,0,P|178:131|180:166,1,70,2|8,0:0|0:0,0:0:0:0:
212,243,95339,70,0,B|251:224|251:224|347:233,1,140,2|0,0:0|0:0,0:0:0:0:
259,312,95826,2,0,B|226:327|226:327|192:324,1,70,8|0,0:0|0:0,0:0:0:0:
132,267,96150,2,0,B|98:264|98:264|65:279,2,70,2|2|2,0:0|0:0|0:0,0:0:0:0:
212,243,96636,6,0,P|217:189|201:160,1,70,4|0,0:0|0:0,0:0:0:0:
155,112,96961,2,0,P|156:73|172:43,1,70,2|8,0:0|0:0,0:0:0:0:
238,96,97285,2,0,P|296:107|374:82,1,140,2|2,0:0|0:0,0:0:0:0:
429,22,97771,1,8,0:0:0:0:
452,102,97934,70,0,L|439:245,1,140,2|0,0:0|0:0,0:0:0:0:
370,289,98420,2,0,P|338:274|303:274,1,70,8|2,0:0|0:0,0:0:0:0:
221,288,98744,2,0,P|186:288|154:273,2,70,2|0|8,0:0|0:0|0:0,0:0:0:0:
303,274,99231,1,2,0:0:0:0:
249,209,99393,6,0,L|255:129,1,70,2|2,0:0|0:0,0:0:0:0:
262,55,99717,1,8,0:0:0:0:
186,91,99880,2,0,P|151:91|119:76,1,70,2|0,0:0|0:0,0:0:0:0:
51,27,100204,2,0,P|36:58|36:93,1,70,2|8,0:0|0:0,0:0:0:0:
93,157,100528,70,0,P|114:214|41:250,1,140,2|0,0:0|0:0,0:0:0:0:
14,326,101015,1,8,0:0:0:0:
97,327,101177,2,0,P|131:314|170:268,1,70,2|2,0:0|0:0,0:0:0:0:
190,214,101501,2,0,L|265:220,1,70,2|8,0:0|0:0,0:0:0:0:
323,275,101826,6,0,B|358:249|358:249|454:241,1,140,4|0,0:0|0:0,0:0:0:0:
469,158,102312,2,0,L|394:164,1,70,8|2,0:0|0:0,0:0:0:0:
329,116,102636,2,0,L|254:110,1,70,2|2,0:0|0:0,0:0:0:0:
175,103,102961,1,8,0:0:0:0:
123,169,103123,70,0,B|142:207|142:207|133:303,1,140,0|0,0:0|0:0,0:0:0:0:
209,339,103609,2,0,P|240:324|275:324,1,70,8|2,0:0|0:0,0:0:0:0:
358,335,103934,1,2,0:0:0:0:
417,275,104096,2,0,P|420:240|408:207,1,70,2|8,0:0|0:0,0:0:0:0:
357,140,104420,6,0,B|319:159|319:159|223:150,1,140,2|0,0:0|0:0,0:0:0:0:
138,139,104907,1,8,0:0:0:0:
54,128,105069,2,0,P|126:55|166:59,1,140,2|2,0:0|0:0,0:0:0:0:
138,139,105555,1,8,0:0:0:0:
121,222,105717,70,0,L|264:234,1,140,2|0,0:0|0:0,0:0:0:0:
344,242,106204,1,8,0:0:0:0:
427,250,106366,2,0,B|446:212|446:212|437:116,1,140,2|2,0:0|0:0,0:0:0:0:
367,66,106853,1,8,0:0:0:0:
298,115,107015,6,0,P|263:115|231:100,1,70,4|0,0:0|0:0,0:0:0:0:
156,52,107339,2,0,L|152:12,2,35,2|2|8,0:0|0:0|0:0,0:0:0:0:
161,146,107663,1,2,0:0:0:0:
161,146,107744,1,2,0:0:0:0:
161,146,107826,2,0,L|167:225,1,70,2|2,0:0|0:0,0:0:0:0:
174,299,108150,1,8,0:0:0:0:
243,250,108312,70,0,P|301:239|379:264,1,140,2|2,0:0|0:0,0:0:0:0:
446,309,108798,2,0,P|459:256|453:231,1,70,8|0,0:0|0:0,0:0:0:0:
398,181,109123,2,0,P|395:146|408:114,1,70,2|0,0:0|0:0,0:0:0:0:
453,43,109447,1,8,0:0:0:0:
369,39,109609,1,2,0:0:0:0:
285,35,109771,6,0,L|205:41,1,70,2|2,0:0|0:0,0:0:0:0:
131,49,110096,1,8,0:0:0:0:
47,57,110258,2,0,B|66:95|66:95|57:191,1,140,2|2,0:0|0:0,0:0:0:0:
41,274,110744,1,8,0:0:0:0:
119,245,110907,70,0,L|262:257,1,140,2|0,0:0|0:0,0:0:0:0:
349,267,111393,1,8,0:0:0:0:
439,276,111555,2,0,B|420:238|420:238|429:142,1,140,2|0,0:0|0:0,0:0:0:0:
437,56,112042,1,8,0:0:0:0:
360,92,112204,6,0,P|327:103|292:100,1,70,4|0,0:0|0:0,0:0:0:0:
211,79,112528,2,0,L|207:39,2,35,2|2|8,0:0|0:0|0:0,0:0:0:0:
135,117,112853,1,2,0:0:0:0:
135,117,112934,1,2,0:0:0:0:
135,117,113015,2,0,P|128:151|138:184,1,70,2|0,0:0|0:0,0:0:0:0:
207,232,113339,1,8,0:0:0:0:
277,186,113501,70,0,B|315:205|315:205|411:196,1,140,2|2,0:0|0:0,0:0:0:0:
463,263,113988,2,0,P|428:279|368:267,1,70,8|0,0:0|0:0,0:0:0:0:
313,289,114312,2,0,P|278:289|247:304,1,70,2|0,0:0|0:0,0:0:0:0:
171,342,114636,1,8,0:0:0:0:
177,258,114798,1,2,0:0:0:0:
183,174,114961,6,0,L|326:186,1,140,2|8,0:0|0:0,0:0:0:0:
406,194,115447,2,0,P|416:262|393:327,1,140,2|2,0:0|0:0,0:0:0:0:
316,293,115934,1,8,0:0:0:0:
316,293,116096,70,0,P|247:281|181:303,1,140,2|2,0:0|0:0,0:0:0:0:
105,337,116582,1,8,0:0:0:0:
105,337,116744,2,0,L|98:257,1,70,0|4,0:0|3:0,0:0:0:0:
171,215,117069,2,0,L|177:135,2,70,4|8|8,3:0|3:0|3:0,0:0:0:0:
181,302,117555,22,0,P|238:278|300:287,1,125.999996154785,4|2,0:0|0:0,0:0:0:0:
372,310,118042,2,0,B|392:268|392:268|384:180,1,125.999996154785,2|0,0:0|0:0,0:0:0:0:
376,114,118528,2,0,L|312:119,1,62.9999980773926,2|0,0:0|0:0,0:0:0:0:
245,152,118853,6,0,B|207:124|207:124|119:116,1,125.999996154785,2|2,0:0|0:0,0:0:0:0:
67,161,119339,2,0,P|91:218|82:280,1,125.999996154785,2|0,0:0|0:0,0:0:0:0:
120,345,119826,2,0,L|182:340,1,62.9999980773926,2|2,0:0|0:0,0:0:0:0:
257,331,120150,70,0,B|299:310|299:310|387:317,1,125.999996154785,2|2,0:0|0:0,0:0:0:0:
453,322,120636,2,0,L|441:186,1,125.999996154785,2|0,0:0|0:0,0:0:0:0:
373,164,121123,2,0,P|319:188|292:182,1,62.9999980773926,2|0,0:0|0:0,0:0:0:0:
244,168,121447,6,0,P|182:158|125:183,1,125.999996154785,0|0,0:0|0:0,0:0:0:0:
64,229,121934,1,2,0:0:0:0:
55,153,122096,2,0,L|48:73,1,62.9999980773926,2|0,0:0|0:0,0:0:0:0:
41,15,122420,1,2,0:0:0:0:
109,45,122582,38,0,B|147:64|147:64|243:55,1,140,4|0,0:0|0:0,0:0:0:0:
327,44,123069,2,0,L|406:50,1,70,8|0,0:0|0:0,0:0:0:0:
452,113,123393,2,0,P|448:160|426:192,1,70,2|0,0:0|0:0,0:0:0:0:
363,218,123717,1,8,0:0:0:0:
285,185,123880,6,0,P|212:187|163:239,1,140,2|0,0:0|0:0,0:0:0:0:
99,282,124366,2,0,P|84:250|84:215,1,70,8|0,0:0|0:0,0:0:0:0:
104,134,124690,2,0,P|103:99|89:67,1,70,0|2,0:0|0:0,0:0:0:0:
161,24,125015,1,8,0:0:0:0:
228,74,125177,1,2,0:0:0:0:
300,31,125339,70,0,L|387:38,2,70,2|2|8,0:0|0:0|0:0,0:0:0:0:
302,115,125826,2,0,L|389:122,2,70,2|2|0,0:0|0:0|0:0,0:0:0:0:
304,199,126312,2,0,L|391:206,2,70,8|2|0,0:0|0:0|0:0,0:0:0:0:
231,159,126798,5,2,0:0:0:0:
231,159,126961,2,0,L|143:151,1,70,8|0,0:0|0:0,0:0:0:0:
109,219,127285,2,0,L|21:226,1,70,2|0,0:0|0:0,0:0:0:0:
161,285,127609,2,0,L|248:292,1,70,8|0,0:0|0:0,0:0:0:0:
314,298,127934,69,2,0:0:0:0:
314,298,128096,2,0,P|327:250|322:221,1,70,2|8,0:0|0:0,0:0:0:0:
309,148,128420,1,2,0:0:0:0:
309,149,128582,2,0,P|308:114|320:81,1,70,2|0,0:0|0:0,0:0:0:0:
399,111,128907,5,8,0:0:0:0:
399,111,129069,2,0,P|430:127|453:154,1,70,2|2,0:0|0:0,0:0:0:0:
388,207,129393,1,0,0:0:0:0:
388,207,129555,2,0,P|359:225|325:231,1,70,8|0,0:0|0:0,0:0:0:0:
246,196,129880,1,2,0:0:0:0:
255,282,130042,1,2,0:0:0:0:
177,247,130204,70,0,P|158:198|176:148,1,84,8|0,0:0|0:0,0:0:0:0:
179,120,130528,54,0,L|95:112,1,83.9999974365235,4|0,0:0|0:0,0:0:0:0:
250,48,130853,2,0,L|333:40,1,83.9999974365235,8|0,0:0|0:0,0:0:0:0:
359,136,131177,2,0,L|276:144,1,83.9999974365235,2|2,0:0|0:0,0:0:0:0:
179,120,131501,1,8,0:0:0:0:
82,145,131663,6,0,P|63:223|117:283,1,167.999994873047,2|0,0:0|0:0,0:0:0:0:
214,311,132150,2,0,P|267:294|319:306,1,83.9999974365235,8|0,0:0|0:0,0:0:0:0:
379,351,132474,2,0,P|394:312|393:270,1,83.9999974365235,2|2,0:0|0:0,0:0:0:0:
321,197,132798,1,8,0:0:0:0:
294,297,132961,70,0,P|253:275|225:161,1,167.999994873047,2|0,0:0|0:0,0:0:0:0:
401,183,133447,2,0,P|347:199|295:187,1,83.9999974365235,8|0,0:0|0:0,0:0:0:0:
223,165,133771,2,0,P|181:163|142:178,1,83.9999974365235,2|0,0:0|0:0,0:0:0:0:
86,93,134096,1,8,0:0:0:0:
86,93,134258,6,0,P|184:61|266:73,1,167.999994873047,2|0,0:0|0:0,0:0:0:0:
343,96,134744,1,8,0:0:0:0:
439,67,134907,2,0,P|441:117|420:163,1,83.9999974365235,2|0,0:0|0:0,0:0:0:0:
340,196,135231,2,0,P|327:235|330:277,1,83.9999974365235,2|8,0:0|0:0,0:0:0:0:
380,364,135555,70,0,B|260:374|260:374|210:354,1,167.999994873047,4|0,0:0|0:0,0:0:0:0:
127,306,136042,2,0,L|135:210,1,83.9999974365235,8|0,0:0|0:0,0:0:0:0:
204,150,136366,2,0,L|195:54,2,83.9999974365235,2|2|8,0:0|0:0|0:0,0:0:0:0:
231,248,136853,6,0,B|275:230|275:230|395:240,1,167.999994873047,2|0,0:0|0:0,0:0:0:0:
482,290,137339,2,0,P|494:248|485:197,1,83.9999974365235,8|0,0:0|0:0,0:0:0:0:
414,142,137663,2,0,P|409:100|421:60,2,83.9999974365235,2|2|8,0:0|0:0|0:0,0:0:0:0:
489,208,138150,70,0,P|445:325|391:337,1,167.999994873047,2|0,0:0|0:0,0:0:0:0:
314,330,138636,2,0,L|218:322,1,83.9999974365235,8|0,0:0|0:0,0:0:0:0:
74,260,138961,2,0,L|158:253,1,83.9999974365235,2|0,0:0|0:0,0:0:0:0:
255,226,139285,1,8,0:0:0:0:
255,226,139447,6,0,P|196:159|90:179,1,167.999994873047,2|0,0:0|0:0,0:0:0:0:
22,173,139934,2,0,P|25:129|50:84,1,83.9999974365235,8|0,0:0|0:0,0:0:0:0:
138,57,140258,1,2,0:0:0:0:
122,158,140420,1,2,0:0:0:0:
43,93,140582,1,8,0:0:0:0:
138,57,140744,70,0,L|329:73,1,167.999994873047,4|0,0:0|0:0,0:0:0:0:
401,37,141231,2,0,P|405:80|388:129,1,83.9999974365235,8|2,0:0|0:0,0:0:0:0:
307,171,141555,2,0,P|296:211|300:252,1,83.9999974365235,2|0,0:0|0:0,0:0:0:0:
341,345,141880,1,8,0:0:0:0:
242,334,142042,6,0,B|198:316|198:316|78:326,1,167.999994873047,2|0,0:0|0:0,0:0:0:0:
23,241,142528,2,0,P|31:200|53:164,1,83.9999974365235,8|0,0:0|0:0,0:0:0:0:
123,236,142853,2,0,L|218:227,1,83.9999974365235,2|2,0:0|0:0,0:0:0:0:
306,217,143177,1,8,0:0:0:0:
405,205,143339,70,0,P|364:135|285:117,1,167.999994873047,2|0,0:0|0:0,0:0:0:0:
306,217,143826,2,0,P|319:256|347:288,1,83.9999974365235,8|0,0:0|0:0,0:0:0:0:
405,369,144150,2,0,P|432:337|446:298,1,83.9999974365235,2|0,0:0|0:0,0:0:0:0:
405,205,144474,1,8,0:0:0:0:
347,288,144636,6,0,B|303:306|303:306|183:296,1,167.999994873047,2|0,0:0|0:0,0:0:0:0:
82,283,145123,1,8,0:0:0:0:
143,203,145285,2,0,L|246:212,1,83.9999974365235,2|2,0:0|0:0,0:0:0:0:
286,130,145609,2,0,L|203:123,1,83.9999974365235,2|8,0:0|0:0,0:0:0:0:
143,203,145934,70,0,P|106:146|141:45,1,167.999994873047,4|0,0:0|0:0,0:0:0:0:
225,27,146420,2,0,B|263:46|263:46|303:49,1,83.9999974365235,8|0,0:0|0:0,0:0:0:0:
405,49,146744,2,0,B|416:90|416:90|413:130,1,83.9999974365235,2|0,0:0|0:0,0:0:0:0:
394,230,147069,1,8,0:0:0:0:
375,329,147231,6,0,B|331:311|331:311|211:321,1,167.999994873047,2|0,0:0|0:0,0:0:0:0:
118,360,147717,2,0,P|110:318|118:277,1,83.9999974365235,8|0,0:0|0:0,0:0:0:0:
201,219,148042,2,0,P|208:178|201:136,1,83.9999974365235,2|2,0:0|0:0,0:0:0:0:
159,45,148366,1,8,0:0:0:0:
258,54,148528,70,0,L|425:68,1,167.999994873047,2|0,0:0|0:0,0:0:0:0:
499,137,149015,2,0,P|506:178|498:219,1,83.9999974365235,8|0,0:0|0:0,0:0:0:0:
439,300,149339,2,0,P|397:292|356:300,1,83.9999974365235,2|0,0:0|0:0,0:0:0:0:
262,335,149663,1,8,0:0:0:0:
277,234,149826,6,0,B|287:114|287:114|269:70,1,167.999994873047,2|0,0:0|0:0,0:0:0:0:
189,131,150312,2,0,P|147:138|106:130,1,83.9999974365235,8|0,0:0|0:0,0:0:0:0:
11,98,150636,2,0,L|18:185,1,83.9999974365235,8|2,0:0|0:0,0:0:0:0:
29,282,150961,1,10,0:0:0:0:
29,282,151123,1,4,0:0:0:0:
256,192,151204,12,8,155501,0:0:0:0:
135,122,155826,70,0,P|177:151|237:136,1,112,2|8,0:0|0:0,0:0:0:0:
291,77,156312,6,0,P|332:80|295:154,1,140,4|0,0:0|0:0,0:0:0:0:
259,219,156798,2,0,P|306:241|346:236,1,70,8|2,0:0|0:0,0:0:0:0:
407,230,157123,2,0,L|411:196,2,35,2|0|0,0:0|0:0|0:0,0:0:0:0:
374,308,157447,2,0,L|377:342,2,35,8|0|0,0:0|0:0|0:0,0:0:0:0:
323,241,157771,70,0,P|276:219|236:224,1,70,2|2,0:0|0:0,0:0:0:0:
196,275,158096,2,0,P|174:228|179:188,1,70,8|2,0:0|0:0,0:0:0:0:
223,142,158420,2,0,L|220:107,2,35,2|0|2,0:0|0:0|0:0,0:0:0:0:
138,134,158744,2,0,L|135:99,2,35,8|0|2,0:0|0:0|0:0,0:0:0:0:
53,126,159069,6,0,L|45:213,1,70,4|2,0:0|0:0,0:0:0:0:
73,341,159393,2,0,L|80:272,1,70,4|2,0:0|0:0,0:0:0:0:
138,134,159717,2,0,L|130:221,1,70,4|2,0:0|0:0,0:0:0:0:
158,349,160042,2,0,L|165:280,1,70,4|2,0:0|0:0,0:0:0:0:
216,211,160366,70,0,P|256:201|288:208,1,70,4|2,0:0|0:0,0:0:0:0:
363,232,160690,2,0,P|397:237|430:227,1,70,4|2,0:0|0:0,0:0:0:0:
495,172,161015,2,0,L|488:103,2,70,4|2|8,0:0|0:0|0:0,0:0:0:0:
503,352,161501,6,0,B|470:329|459:300|459:300|433:314|391:314,1,140,4|0,0:0|0:0,0:0:0:0:
305,297,161988,1,8,0:0:0:0:
363,232,162150,2,0,B|383:190|383:190|374:86,1,140,2|0,0:0|0:0,0:0:0:0:
365,13,162636,1,8,0:0:0:0:
298,64,162798,70,0,P|264:73|230:68,1,70,2|0,0:0|0:0,0:0:0:0:
145,65,163123,2,0,B|144:108|173:131|173:131|159:157|177:201,1,140,2|2,0:0|0:0,0:0:0:0:
209,270,163609,2,0,P|239:254|274:253,1,70,2|2,0:0|0:0,0:0:0:0:
358,267,163934,2,0,L|364:195,1,70,8|2,0:0|0:0,0:0:0:0:
373,113,164258,6,0,L|412:109,2,35,2|2|2,0:0|0:0|0:0,0:0:0:0:
295,147,164582,2,0,P|261:156|227:151,1,70,8|0,0:0|0:0,0:0:0:0:
148,122,164907,1,2,0:0:0:0:
148,122,164988,1,2,0:0:0:0:
148,122,165069,1,2,0:0:0:0:
162,205,165231,2,0,L|169:292,1,70,8|0,0:0|0:0,0:0:0:0:
222,338,165555,70,0,P|255:347|289:342,1,70,2|0,0:0|0:0,0:0:0:0:
369,316,165880,2,0,P|403:310|436:320,1,70,8|0,0:0|0:0,0:0:0:0:
500,265,166204,2,0,L|506:195,2,70,2|2|8,0:0|0:0|0:0,0:0:0:0:
436,320,166690,6,0,B|403:302|370:316|370:316|332:282|296:295,1,140,4|0,0:0|0:0,0:0:0:0:
226,321,167177,2,0,P|220:287|230:254,1,70,8|0,0:0|0:0,0:0:0:0:
300,207,167501,2,0,P|310:173|304:139,2,70,2|0|8,0:0|0:0|0:0,0:0:0:0:
230,253,167988,70,0,B|188:233|188:233|84:242,1,140,2|0,0:0|0:0,0:0:0:0:
15,269,168474,2,0,P|9:235|19:202,1,70,8|0,0:0|0:0,0:0:0:0:
90,156,168798,2,0,P|100:122|94:88,2,70,2|0|8,0:0|0:0|0:0,0:0:0:0:
94,241,169285,6,0,B|136:261|136:261|240:252,1,140,2|0,0:0|0:0,0:0:0:0:
300,208,169771,2,0,L|295:160,2,35,8|2|2,0:0|0:0|0:0,0:0:0:0:
311,291,170096,2,0,L|398:283,2,70,2|2|8,0:0|0:0|0:0,0:0:0:0:
300,208,170582,70,0,P|349:153|415:158,1,140,2|0,0:0|0:0,0:0:0:0:
441,77,171069,2,0,P|387:62|351:64,1,70,8|0,0:0|0:0,0:0:0:0:
290,74,171393,2,0,P|255:70|222:58,2,70,2|2|8,0:0|0:0|0:0,0:0:0:0:
373,61,171880,6,0,B|412:61|441:77|441:77|401:117|400:166|432:205|432:205|386:233|385:273,1,280,4|0,0:0|0:0,0:0:0:0:
