osu file format v14

[General]
AudioFilename: i can see you looking through the beatmap files.mp3
AudioLeadIn: 0
PreviewTime: 33798
Countdown: 0
SampleSet: Soft
StackLeniency: 0.2
Mode: 0
LetterboxInBreaks: 0
WidescreenStoryboard: 0

[Editor]
Bookmarks: 85875
DistanceSpacing: 1.8
BeatDivisor: 4
GridSize: 8
TimelineZoom: 1.6

[Metadata]
Title:Kimi no Yozora Shoukaihan
TitleUnicode:キミノヨゾラ哨戒班
Artist:Orangestar
ArtistUnicode:Orangestar
Creator:newton-
Version:Starlight
Source:
Tags:ia vocaloid asu no your night sky patrol of tomorrow arrangement newtonscradle nextplay my angel kanan
BeatmapID:1246968
BeatmapSetID:583277

[Difficulty]
HPDrainRate:7
CircleSize:4.5
OverallDifficulty:8.7
ApproachRate:9.2
SliderMultiplier:1.7
SliderTickRate:1

[Events]
//Background and Video events
0,0,"Kimi_no_Yozora_Shoukaihan.png",0,0
//Break Periods
2,76080,85364
//Storyboard Layer 0 (Background)
//Storyboard Layer 1 (Fail)
//Storyboard Layer 2 (Pass)
//Storyboard Layer 3 (Foreground)
//Storyboard Sound Samples

[TimingPoints]
799,324.324324324324,4,2,2,50,1,0
799,-100,4,2,2,50,0,0
11177,-100,4,2,2,80,0,0
21069,-100,4,1,2,90,0,0
21555,-125,4,1,2,50,0,0
22204,-125,4,2,2,50,0,0
26744,-100,4,2,2,70,0,0
33880,-200,4,2,2,50,0,0
34366,-83.3333333333333,4,2,2,90,0,1
44258,-83.3333333333333,4,2,2,80,0,0
44744,-83.3333333333333,4,2,2,90,0,1
55285,-100,4,2,2,80,0,0
85934,-100,4,2,2,60,0,0
86420,-100,4,2,2,70,0,0
117231,-100,4,2,2,60,0,0
117555,-125,4,2,2,50,0,0
122582,-100,4,2,2,70,0,0
130204,-200,4,2,2,50,0,0
130528,-83.3333333333333,4,2,2,90,0,1
140258,-83.3333333333333,4,2,2,90,0,0
140744,-83.3333333333333,4,2,2,90,0,1
151285,-100,4,2,2,80,0,0
159069,-100,4,2,2,80,0,1
161501,-100,4,2,2,70,0,0
171880,-142.857142857143,4,2,2,90,0,0
171961,-142.857142857143,4,2,2,20,0,0
172690,-142.857142857143,4,2,2,5,0,0

[Colours]
Combo1 : 0,0,128
Combo2 : 255,128,0
Combo3 : 247,186,72
Combo4 : 0,128,255
Combo5 : 0,171,253
Combo6 : 6,69,172

[HitObjects]
113,92,636,37,2,2:0:0:0:
113,92,799,2,0,P|149:113|191:114,1,85,2|0,0:0|0:0,0:0:0:0:
253,56,1123,1,2,0:0:0:0:
253,56,1285,2,0,P|272:93|272:135,1,85,2|0,0:0|0:0,0:0:0:0:
212,196,1609,2,0,P|211:238|231:275,1,85,2|0,0:0|0:0,0:0:0:0:
373,240,1934,6,0,P|336:218|294:217,1,85,2|0,0:0|0:0,0:0:0:0:
128,250,2258,2,0,P|85:248|49:227,1,85,2|0,0:0|0:0,0:0:0:0:
109,167,2582,1,2,0:0:0:0:
147,333,2744,1,0,0:0:0:0:
231,340,2907,1,0,0:0:0:0:
315,347,3069,1,2,0:0:0:0:
447,269,3231,70,0,L|351:277,1,85,2|0,0:0|0:0,0:0:0:0:
277,268,3555,2,0,P|256:231|257:188,1,85,2|0,0:0|0:0,0:0:0:0:
331,32,3880,1,2,0:0:0:0:
340,180,4042,1,0,0:0:0:0:
256,189,4204,1,0,0:0:0:0:
171,195,4366,1,2,0:0:0:0:
50,312,4528,6,0,P|85:334|127:335,1,85,2|0,0:0|0:0,0:0:0:0:
192,279,4853,2,0,P|212:315|211:358,1,85,2|0,0:0|0:0,0:0:0:0:
127,335,5177,1,2,0:0:0:0:
291,291,5339,1,2,0:0:0:0:
291,291,5501,2,0,L|375:298,1,85,2|0,0:0|0:0,0:0:0:0:
451,337,5826,70,0,B|455:281|455:281|428:230|428:230|434:158,1,170,2|0,0:0|0:0,0:0:0:0:
440,89,6312,1,2,0:0:0:0:
363,125,6474,2,0,P|323:138|281:130,1,85,2|0,0:0|0:0,0:0:0:0:
201,102,6798,2,0,P|159:93|119:107,1,85,2|0,0:0|0:0,0:0:0:0:
48,152,7123,6,0,P|34:112|43:71,1,85,2|0,0:0|0:0,0:0:0:0:
122,191,7447,2,0,P|135:230|126:271,1,85,2|0,0:0|0:0,0:0:0:0:
49,236,7771,1,2,0:0:0:0:
219,228,7934,2,0,L|303:235,2,85,2|0|0,0:0|0:0|0:0,0:0:0:0:
122,191,8420,70,0,P|135:230|126:271,1,85,2|0,0:0|0:0,0:0:0:0:
56,319,8744,1,2,0:0:0:0:
49,236,8907,1,2,0:0:0:0:
201,306,9069,2,0,L|285:299,1,85,2|0,0:0|0:0,0:0:0:0:
402,226,9393,2,0,L|317:218,1,85,2|0,0:0|0:0,0:0:0:0:
200,146,9717,6,0,L|383:129,1,170,2|0,0:0|0:0,0:0:0:0:
402,226,10204,2,0,L|317:218,1,85,2|0,0:0|0:0,0:0:0:0:
285,299,10528,2,0,L|201:306,1,85,2|0,0:0|0:0,0:0:0:0:
115,313,10853,1,2,0:0:0:0:
65,242,11015,1,2,0:0:0:0:
182,154,11177,70,0,P|222:144|262:157,1,85,4|0,0:0|0:0,0:0:0:0:
305,230,11501,1,2,0:0:0:0:
257,302,11663,2,0,P|228:272|220:231,1,85,2|0,0:0|0:0,0:0:0:0:
262,157,11988,1,2,0:0:0:0:
305,230,12150,1,2,0:0:0:0:
209,374,12312,6,0,P|168:381|129:366,1,85,2|0,0:0|0:0,0:0:0:0:
257,302,12636,2,0,P|298:294|336:309,1,85,2|0,0:0|0:0,0:0:0:0:
406,358,12961,1,2,0:0:0:0:
414,275,13123,2,0,P|425:234|457:207,1,85
497,281,13447,1,2,0:0:0:0:
352,191,13609,70,0,L|267:199,1,85,2|0,0:0|0:0,0:0:0:0:
151,111,13934,2,0,L|235:118,1,85,2|0,0:0|0:0,0:0:0:0:
267,198,14258,1,2,0:0:0:0:
298,277,14420,2,0,L|381:269,2,85,2|0|0,0:0|0:0|0:0,0:0:0:0:
214,264,14907,6,0,P|184:217|194:157,1,85,2|0,0:0|0:0,0:0:0:0:
316,133,15231,2,0,P|290:182|233:203,1,85,2|0,0:0|0:0,0:0:0:0:
151,110,15555,2,0,P|206:107|253:146,1,85,2|0,0:0|0:0,0:0:0:0:
371,218,15880,2,0,P|409:233|451:228,1,85,2|0,0:0|0:0,0:0:0:0:
316,132,16204,70,0,P|264:196|183:190,1,170,4|0,0:0|0:0,0:0:0:0:
151,110,16690,2,0,P|116:135|98:183,1,85,2|0,0:0|0:0,0:0:0:0:
123,254,17015,2,0,P|105:292|71:316,1,85,2|0,0:0|0:0,0:0:0:0:
38,233,17339,1,2,0:0:0:0:
166,344,17501,6,0,L|250:337,1,85,2|0,0:0|0:0,0:0:0:0:
367,264,17826,2,0,L|282:256,1,85,2|0,0:0|0:0,0:0:0:0:
165,184,18150,2,0,L|249:177,1,85,2|0,0:0|0:0,0:0:0:0:
282,96,18474,69,2,0:0:0:0:
165,184,18636,1,2,0:0:0:0:
282,256,18798,2,0,L|367:264,1,85,2|0,0:0|0:0,0:0:0:0:
290,80,19123,5,2,0:0:0:0:
149,185,19285,1,2,0:0:0:0:
289,271,19447,2,0,L|391:281,1,85,2|0,0:0|0:0,0:0:0:0:
458,286,19771,1,2,0:0:0:0:
422,208,19934,1,2,0:0:0:0:
326,350,20096,1,2,0:0:0:0:
289,271,20258,70,0,P|255:291|202:278,1,85,2|0,0:0|0:0,0:0:0:0:
73,186,20582,1,2,0:0:0:0:
73,186,20744,2,0,P|60:258|144:228,1,170,2|8,0:0|0:0,0:0:0:0:
224,131,21231,5,8,0:0:0:0:
289,271,21393,1,8,0:0:0:0:
309,124,21555,6,0,B|305:184|253:203|253:203|311:173|333:230|423:201,1,272,8|2,0:0|0:0,2:0:0:0:
417,202,22528,1,2,0:0:0:0:
330,319,22690,2,0,P|301:301|288:270,1,68
255,203,23015,6,0,L|111:215,1,136,2|0,0:0|0:0,0:0:0:0:
34,222,23501,1,2,0:0:0:0:
34,222,23988,1,2,0:0:0:0:
34,222,24150,70,0,P|40:185|62:152,1,68,2|0,0:0|0:0,0:0:0:0:
84,292,24474,2,0,P|48:305|9:302,1,68,2|0,0:0|0:0,0:0:0:0:
119,214,24798,1,0,0:0:0:0:
119,214,24961,2,0,P|148:237|165:273,1,68,2|0,0:0|0:0,0:0:0:0:
192,371,25285,6,0,P|226:314|288:290,1,136,2|0,0:0|0:0,0:0:0:0:
371,272,25771,1,2,0:0:0:0:
312,210,25934,1,2,0:0:0:0:
312,210,26258,69,2,0:0:0:0:
288,292,26420,1,2,0:0:0:0:
371,272,26582,1,2,0:0:0:0:
253,148,26744,54,0,P|202:148|160:179,1,85,4|0,0:0|0:0,0:0:0:0:
108,219,27069,1,2,0:0:0:0:
108,219,27231,2,0,P|89:181|91:139,1,85,2|0,0:0|0:0,0:0:0:0:
136,0,27555,2,0,P|155:38|153:80,1,85,2|0,0:0|0:0,0:0:0:0:
10,110,27880,6,0,P|33:75|71:56,1,85,2|0,0:0|0:0,0:0:0:0:
239,34,28204,2,0,L|334:42,1,85,2|0,0:0|0:0,0:0:0:0:
440,114,28528,2,0,L|355:122,1,85,2|0,0:0|0:0,0:0:0:0:
270,132,28853,1,2,0:0:0:0:
370,266,29015,1,2,0:0:0:0:
440,114,29177,1,2,0:0:0:0:
323,41,29339,69,2,0:0:0:0:
323,41,29501,2,0,L|239:34,1,85,2|0,0:0|0:0,0:0:0:0:
100,112,29826,5,2,0:0:0:0:
100,112,29988,2,0,L|185:120,1,85,2|0,0:0|0:0,0:0:0:0:
307,220,30312,69,2,0:0:0:0:
307,220,30474,2,0,L|222:212,1,85,2|0,0:0|0:0,0:0:0:0:
83,290,30798,5,2,0:0:0:0:
83,291,30961,2,0,L|167:298,1,85,2|0,0:0|0:0,0:0:0:0:
222,212,31285,2,0,L|307:220,1,85,2|0,0:0|0:0,0:0:0:0:
361,133,31609,2,0,L|445:140,1,85,2|0,0:0|0:0,0:0:0:0:
307,46,31934,69,2,0:0:0:0:
307,46,32096,2,0,L|222:53,1,85,2|0,0:0|0:0,0:0:0:0:
98,154,32420,5,2,0:0:0:0:
98,154,32582,2,0,L|182:146,1,85,2|0,0:0|0:0,0:0:0:0:
322,225,32907,69,2,0:0:0:0:
322,225,33069,2,0,L|237:232,1,85,2|0,0:0|0:0,0:0:0:0:
113,333,33393,5,2,0:0:0:0:
113,333,33555,2,0,B|160:329|160:329|208:345,1,85,2|0,0:0|0:0,0:0:0:0:
322,224,33880,70,0,P|328:183|307:145,1,85,2|0,0:0|0:0,0:0:0:0:
228,99,34366,54,0,P|225:180|308:133,1,203.999993774414,4|0,0:0|0:0,0:0:0:0:
162,52,34853,2,0,P|129:116|132:167,1,101.999996887207,8|0,0:0|0:0,0:0:0:0:
166,236,35177,1,2,0:0:0:0:
260,140,35339,1,2,0:0:0:0:
127,144,35501,1,8,0:0:0:0:
204,330,35663,6,0,B|275:323|275:323|334:350|334:350|406:344,1,203.999993774414,2|0,0:0|0:0,0:0:0:0:
367,162,36150,1,8,0:0:0:0:
351,255,36312,1,2,0:0:0:0:
427,89,36474,2,0,B|384:68|384:68|323:75,2,101.999996887207,2|0|8,0:0|0:0|0:0,0:0:0:0:
351,255,36961,69,2,0:0:0:0:
351,255,37042,1,2,0:0:0:0:
351,255,37123,1,2,0:0:0:0:
279,195,37285,1,2,0:0:0:0:
191,228,37447,1,8,0:0:0:0:
128,92,37609,2,0,B|173:75|173:75|226:81,1,101.999996887207,2|0,0:0|0:0,0:0:0:0:
191,228,37934,2,0,B|146:245|146:245|92:238,1,101.999996887207,2|8,0:0|0:0,0:0:0:0:
279,195,38258,6,0,B|340:201|355:253|355:253|387:210|445:221,1,203.999993774414,2|0,0:0|0:0,0:0:0:0:
392,324,38744,2,0,P|342:332|297:309,1,101.999996887207,8|0,0:0|0:0,0:0:0:0:
329,120,39069,2,0,P|378:112|423:135,1,101.999996887207,2|0,0:0|0:0,0:0:0:0:
445,221,39393,1,8,0:0:0:0:
279,195,39555,70,0,B|170:210|223:312|78:306,1,203.999993774414,4|0,0:0|0:0,0:0:0:0:
98,190,40042,1,8,0:0:0:0:
297,309,40204,1,2,0:0:0:0:
398,299,40366,2,0,L|297:309,1,101.999996887207,2|0,0:0|0:0,0:0:0:0:
279,195,40690,5,8,0:0:0:0:
177,185,40853,2,0,L|279:195,1,101.999996887207,2|0,0:0|0:0,0:0:0:0:
116,304,41177,1,2,0:0:0:0:
116,304,41339,2,0,L|15:313,2,101.999996887207,8|0|0,0:0|0:0|0:0,0:0:0:0:
177,186,41826,1,2,0:0:0:0:
279,195,41988,1,8,0:0:0:0:
380,203,42150,1,2,0:0:0:0:
220,278,42312,69,2,0:0:0:0:
177,186,42474,1,2,0:0:0:0:
236,103,42636,1,8,0:0:0:0:
380,203,42798,2,0,L|276:195,1,101.999996887207,2|0,0:0|0:0,0:0:0:0:
134,94,43123,2,0,L|237:103,1,101.999996887207,2|8,0:0|0:0,0:0:0:0:
321,286,43447,1,2,0:0:0:0:
177,186,43609,5,4,0:0:0:0:
337,111,43771,1,2,0:0:0:0:
161,193,43934,1,4,0:0:0:0:
353,103,44096,1,2,0:0:0:0:
220,278,44258,69,6,0:0:0:0:
172,295,44339,1,2,0:0:0:0:
122,289,44420,1,2,0:0:0:0:
81,260,44501,1,2,0:0:0:0:
59,214,44582,1,10,0:0:0:0:
61,164,44663,1,2,0:0:0:0:
87,120,44744,6,0,P|168:102|147:199,1,203.999993774414,4|0,0:0|0:0,0:0:0:0:
48,47,45231,2,0,P|90:19|140:12,1,101.999996887207,8|0,0:0|0:0,0:0:0:0:
232,51,45555,1,2,0:0:0:0:
135,147,45717,1,2,0:0:0:0:
140,12,45880,1,8,0:0:0:0:
324,90,46042,70,0,B|330:165|330:165|307:213|307:213|312:289,1,203.999993774414,2|0,0:0|0:0,0:0:0:0:
249,150,46528,1,8,0:0:0:0:
385,230,46690,1,2,0:0:0:0:
235,142,46853,2,0,L|131:151,2,101.999996887207,2|0|8,0:0|0:0|0:0,0:0:0:0:
412,242,47339,5,2,0:0:0:0:
412,242,47420,1,2,0:0:0:0:
412,242,47501,1,2,0:0:0:0:
413,141,47663,1,2,0:0:0:0:
324,90,47826,1,8,0:0:0:0:
234,141,47988,2,0,L|133:150,1,101.999996887207,2|0,0:0|0:0,0:0:0:0:
311,252,48312,2,0,L|412:243,1,101.999996887207,2|8,0:0|0:0,0:0:0:0:
300,336,48636,70,0,B|241:326|229:271|229:271|200:321|140:313,1,203.999993774414,2|0,0:0|0:0,0:0:0:0:
192,199,49123,2,0,P|242:191|287:214,1,101.999996887207,8|0,0:0|0:0,0:0:0:0:
230,271,49447,1,2,0:0:0:0:
251,112,49609,2,0,L|352:103,1,101.999996887207,2|8,0:0|0:0,0:0:0:0:
192,199,49934,6,0,L|90:207,1,101.999996887207,4|0,0:0|0:0,0:0:0:0:
44,94,50258,2,0,L|145:104,1,101.999996887207,2|8,0:0|0:0,0:0:0:0:
251,112,50582,1,2,0:0:0:0:
353,104,50744,2,0,L|251:112,1,101.999996887207,2|0,0:0|0:0,0:0:0:0:
192,199,51069,69,8,0:0:0:0:
90,207,51231,2,0,L|192:199,1,101.999996887207,2|0,0:0|0:0,0:0:0:0:
265,274,51555,1,2,0:0:0:0:
265,274,51717,2,0,L|366:282,2,101.999996887207,8|0|0,0:0|0:0|0:0,0:0:0:0:
192,199,52204,1,2,0:0:0:0:
324,187,52366,1,8,0:0:0:0:
251,112,52528,1,2,0:0:0:0:
265,274,52690,5,2,0:0:0:0:
249,95,52853,1,2,0:0:0:0:
192,199,53015,1,8,0:0:0:0:
249,81,53177,1,2,0:0:0:0:
324,187,53339,1,2,0:0:0:0:
246,63,53501,2,0,P|198:46|148:55,1,101.999996887207,2|8,0:0|0:0,0:0:0:0:
127,237,53826,70,0,P|166:205|182:157,1,101.999996887207,2|8,0:0|0:0,0:0:0:0:
35,48,54150,2,0,P|45:98|78:136,1,101.999996887207,2|8,0:0|0:0,0:0:0:0:
181,157,54474,1,2,0:0:0:0:
284,132,54636,5,10,0:0:0:0:
334,137,54717,1,2,0:0:0:0:
369,172,54798,1,2,0:0:0:0:
372,222,54880,1,2,0:0:0:0:
342,262,54961,1,10,0:0:0:0:
295,274,55042,1,2,0:0:0:0:
251,252,55123,70,0,B|340:210|340:210|436:267,1,203.999993774414,4|0,0:0|0:0,0:0:0:0:
470,338,55609,1,8,0:0:0:0:
491,204,55771,1,2,0:0:0:0:
336,335,55934,1,2,0:0:0:0:
251,252,56096,1,2,0:0:0:0:
430,263,56258,1,8,0:0:0:0:
351,103,56420,6,0,B|271:87|241:147|153:109,1,170,2|0,0:0|0:0,0:0:0:0:
214,39,56907,1,8,0:0:0:0:
320,183,57069,1,2,0:0:0:0:
183,119,57231,1,2,0:0:0:0:
351,103,57393,1,2,0:0:0:0:
227,192,57555,1,8,0:0:0:0:
306,32,57717,70,0,P|389:30|432:106,1,170,2|0,0:0|0:0,0:0:0:0:
404,169,58204,1,8,0:0:0:0:
306,32,58366,1,2,0:0:0:0:
320,183,58528,1,2,0:0:0:0:
431,97,58690,1,2,0:0:0:0:
267,117,58853,1,8,0:0:0:0:
373,249,59015,6,0,P|437:247|484:145,1,170,2|0,0:0|0:0,0:0:0:0:
404,169,59501,1,8,0:0:0:0:
409,335,59663,1,2,0:0:0:0:
487,162,59826,1,2,0:0:0:0:
373,249,59988,1,2,0:0:0:0:
259,162,60150,1,8,0:0:0:0:
241,305,60312,70,0,B|177:310|177:310|142:281|142:281|70:287,1,170,4|0,0:0|0:0,0:0:0:0:
117,363,60798,1,8,0:0:0:0:
205,228,60961,1,2,0:0:0:0:
81,286,61123,1,2,0:0:0:0:
241,305,61285,1,2,0:0:0:0:
169,151,61447,1,8,0:0:0:0:
32,352,61609,5,2,0:0:0:0:
32,352,61690,1,2,0:0:0:0:
32,352,61771,2,0,P|72:366|114:361,1,85,2|0,0:0|0:0,0:0:0:0:
241,305,62096,1,8,0:0:0:0:
169,151,62258,1,2,0:0:0:0:
114,361,62420,1,2,0:0:0:0:
205,228,62582,1,2,0:0:0:0:
81,286,62744,1,8,0:0:0:0:
241,305,62907,69,2,0:0:0:0:
241,305,62988,1,2,0:0:0:0:
241,305,63069,2,0,P|276:268|289:220,1,85,2|0,0:0|0:0,0:0:0:0:
254,161,63393,1,8,0:0:0:0:
336,326,63555,1,2,0:0:0:0:
205,228,63717,1,2,0:0:0:0:
337,170,63880,1,2,0:0:0:0:
241,305,64042,1,8,0:0:0:0:
169,151,64204,5,2,0:0:0:0:
169,151,64285,1,2,0:0:0:0:
169,151,64366,2,0,P|127:192|121:238,1,85,2|0,0:0|0:0,0:0:0:0:
254,161,64690,2,0,P|239:104|202:75,1,85,8|0,0:0|0:0,0:0:0:0:
205,228,65015,2,0,P|261:243|305:225,1,85
334,170,65339,1,8,0:0:0:0:
169,151,65501,70,0,B|112:216|112:216|162:318,1,170,4|0,0:0|0:0,0:0:0:0:
205,228,65988,1,8,0:0:0:0:
35,203,66150,1,2,0:0:0:0:
205,228,66312,2,0,P|228:262|233:308,1,85,2|0,0:0|0:0,0:0:0:0:
149,290,66636,1,8,0:0:0:0:
261,166,66798,5,2,0:0:0:0:
261,166,66880,1,2,0:0:0:0:
261,166,66961,2,0,L|356:174,1,85,2|0,0:0|0:0,0:0:0:0:
317,318,67285,1,8,0:0:0:0:
205,228,67447,1,2,0:0:0:0:
205,228,67528,1,2,0:0:0:0:
205,228,67609,2,0,P|181:186|185:127,1,85,2|0,0:0|0:0,0:0:0:0:
261,166,67934,1,8,0:0:0:0:
233,304,68096,69,2,0:0:0:0:
233,304,68177,1,2,0:0:0:0:
233,304,68258,2,0,P|189:308|146:283,1,85,2|0,0:0|0:0,0:0:0:0:
178,150,68582,1,8,0:0:0:0:
292,244,68744,1,2,0:0:0:0:
292,244,68826,1,2,0:0:0:0:
292,244,68907,2,0,P|318:282|314:331,1,85,2|0,0:0|0:0,0:0:0:0:
233,304,69231,1,8,0:0:0:0:
398,249,69393,5,2,0:0:0:0:
398,249,69474,1,2,0:0:0:0:
398,249,69555,2,0,P|442:245|485:270,1,85,2|0,0:0|0:0,0:0:0:0:
426,323,69880,1,8,0:0:0:0:
453,168,70042,1,2,0:0:0:0:
292,244,70204,69,2,0:0:0:0:
242,239,70285,1,2,0:0:0:0:
207,204,70366,1,2,0:0:0:0:
204,154,70447,1,2,0:0:0:0:
234,114,70528,1,10,0:0:0:0:
281,102,70609,1,2,0:0:0:0:
325,124,70690,6,0,B|249:158|249:158|149:145,1,170,4|0,0:0|0:0,0:0:0:0:
84,114,71177,1,8,0:0:0:0:
152,63,71339,1,2,0:0:0:0:
152,63,71420,1,2,0:0:0:0:
152,63,71501,1,2,0:0:0:0:
95,198,71663,1,2,0:0:0:0:
6,81,71826,1,8,0:0:0:0:
163,146,71988,69,2,0:0:0:0:
163,146,72069,1,2,0:0:0:0:
163,146,72150,2,0,P|181:193|162:253,1,85,2|0,0:0|0:0,0:0:0:0:
88,282,72474,1,8,0:0:0:0:
254,253,72636,1,2,0:0:0:0:
95,198,72798,1,2,0:0:0:0:
261,169,72961,1,2,0:0:0:0:
88,282,73123,1,8,0:0:0:0:
254,253,73285,5,2,0:0:0:0:
254,253,73366,1,2,0:0:0:0:
254,253,73447,2,0,P|271:290|262:347,1,85,2|0,0:0|0:0,0:0:0:0:
189,306,73771,1,8,0:0:0:0:
261,169,73934,1,2,0:0:0:0:
261,169,74015,1,2,0:0:0:0:
261,169,74096,1,2,0:0:0:0:
268,333,74258,1,2,0:0:0:0:
176,226,74420,1,8,0:0:0:0:
332,280,74582,69,2,0:0:0:0:
332,280,74663,1,2,0:0:0:0:
332,280,74744,2,0,P|378:261|410:207,1,85,2|0,0:0|0:0,0:0:0:0:
323,112,75069,2,0,P|315:153|327:194,1,85,8|0,0:0|0:0,0:0:0:0:
485,265,75393,5,10,0:0:0:0:
488,223,75474,1,2,0:0:0:0:
471,184,75555,1,10,0:0:0:0:
438,158,75636,1,2,0:0:0:0:
396,151,75717,1,10,0:0:0:0:
356,164,75798,1,2,0:0:0:0:
327,193,75880,1,6,0:0:0:0:
159,149,85934,5,2,0:0:0:0:
244,142,86096,1,2,0:0:0:0:
196,73,86258,1,2,0:0:0:0:
208,230,86420,6,0,P|265:235|317:203,1,85,4|0,0:0|0:0,0:0:0:0:
339,145,86744,1,8,0:0:0:0:
282,69,86907,2,0,P|249:115|250:176,1,85,2|0,0:0|0:0,0:0:0:0:
289,225,87231,1,2,0:0:0:0:
384,229,87393,1,8,0:0:0:0:
244,142,87555,70,0,L|148:150,1,85,2|0,0:0|0:0,0:0:0:0:
204,232,87880,2,0,L|288:224,1,85,2|8,0:0|0:0,0:0:0:0:
339,145,88204,2,0,P|432:147|477:220,1,170,2|0,0:0|0:0,0:0:0:0:
451,295,88690,1,8,0:0:0:0:
221,246,88853,6,0,B|272:219|272:219|384:229,1,170,2|0,0:0|0:0,0:0:0:0:
291,308,89339,1,8,0:0:0:0:
254,137,89501,2,0,L|339:145,1,85,2|0,0:0|0:0,0:0:0:0:
383,228,89826,2,0,L|299:221,1,85,2|8,0:0|0:0,0:0:0:0:
143,297,90150,70,0,P|214:338|290:308,1,170,2|0,0:0|0:0,0:0:0:0:
298,221,90636,2,0,P|343:240|371:284,1,85,8|0,0:0|0:0,0:0:0:0:
361,352,90961,1,2,0:0:0:0:
290,307,91123,1,2,0:0:0:0:
386,164,91285,2,0,L|470:171,1,85,8|0,0:0|0:0,0:0:0:0:
299,221,91609,6,0,L|215:214,1,85,4|0,0:0|0:0,0:0:0:0:
174,126,91934,1,8,0:0:0:0:
133,38,92096,2,0,L|49:45,1,85,2|0,0:0|0:0,0:0:0:0:
89,133,92420,2,0,L|172:125,1,85,2|8,0:0|0:0,0:0:0:0:
48,45,92744,70,0,P|2:98|-5:143,1,85,2|0,0:0|0:0,0:0:0:0:
24,198,93069,2,0,P|70:251|77:296,1,85,2|8,0:0|0:0,0:0:0:0:
112,345,93393,2,0,B|185:308|185:308|273:316,1,170,2|0,0:0|0:0,0:0:0:0:
366,326,93880,1,8,0:0:0:0:
421,250,94042,1,2,0:0:0:0:
289,155,94204,5,2,0:0:0:0:
234,231,94366,1,2,0:0:0:0:
272,315,94528,1,8,0:0:0:0:
366,326,94690,2,0,L|449:334,1,85,2|0,0:0|0:0,0:0:0:0:
421,250,95015,2,0,L|338:242,1,85,2|8,0:0|0:0,0:0:0:0:
143,242,95339,70,0,P|190:310|272:315,1,170,2|0,0:0|0:0,0:0:0:0:
420,249,95826,2,0,P|378:238|336:242,1,85,8|0,0:0|0:0,0:0:0:0:
271,315,96150,2,0,L|276:358,1,42.5,2|0,0:0|0:0,0:0:0:0:
190,310,96312,2,0,L|172:349,1,42.5,2|0,0:0|0:0,0:0:0:0:
143,242,96474,2,0,L|107:266,1,42.5,8|0,0:0|0:0,0:0:0:0:
268,158,96636,6,0,P|262:200|234:231,1,85,4|0,0:0|0:0,0:0:0:0:
103,161,96961,2,0,P|143:149|183:162,1,85,2|8,0:0|0:0,0:0:0:0:
340,229,97285,2,0,P|381:237|419:221,1,85,2|0,0:0|0:0,0:0:0:0:
468,100,97609,2,0,L|473:143,1,42.5,2|0,0:0|0:0,0:0:0:0:
375,92,97771,2,0,L|380:135,1,42.5,8|0,0:0|0:0,0:0:0:0:
282,84,97934,70,0,L|297:259,1,170,2|0,0:0|0:0,0:0:0:0:
202,244,98420,2,0,L|198:202,1,42.5,8|0,0:0|0:0,0:0:0:0:
109,236,98582,2,0,L|105:194,1,42.5,2|0,0:0|0:0,0:0:0:0:
148,320,98744,2,0,L|323:335,1,170,2|8,0:0|0:0,0:0:0:0:
452,345,99231,2,0,L|410:342,1,42.5,2|0,0:0|0:0,0:0:0:0:
328,172,99393,6,0,L|371:176,1,42.5,2|0,0:0|0:0,0:0:0:0:
412,261,99555,2,0,L|369:257,1,42.5,2|0,0:0|0:0,0:0:0:0:
285,168,99717,2,0,L|327:171,1,42.5,8|0,0:0|0:0,0:0:0:0:
317,334,99880,2,0,L|221:325,1,85,2|0,0:0|0:0,0:0:0:0:
369,257,100204,2,0,L|464:265,1,85,2|8,0:0|0:0,0:0:0:0:
317,334,100528,70,0,P|276:240|318:178,1,170,2|0,0:0|0:0,0:0:0:0:
378,127,101015,2,0,P|389:146|397:166,1,42.5,8|0,0:0|0:0,0:0:0:0:
453,264,101177,2,0,L|369:257,1,85,2|2,0:0|0:0,0:0:0:0:
317,334,101501,2,0,P|275:346|234:334,1,85,2|8,0:0|0:0,0:0:0:0:
112,281,101826,6,0,B|167:285|167:285|218:258|218:258|290:264,1,170,4|0,0:0|0:0,0:0:0:0:
403,260,102312,2,0,L|361:265,1,42.5,8|0,0:0|0:0,0:0:0:0:
106,203,102474,2,0,L|149:208,1,42.5,2|0,0:0|0:0,0:0:0:0:
366,187,102636,2,0,L|324:192,1,42.5,2|0,0:0|0:0,0:0:0:0:
143,130,102798,2,0,L|186:135,1,42.5,2|0,0:0|0:0,0:0:0:0:
329,114,102961,2,0,L|286:119,1,42.5,8|0,0:0|0:0,0:0:0:0:
323,192,103123,70,0,B|401:185|492:177,1,170,2|0,0:0|0:0,0:0:0:0:
403,260,103609,2,0,L|361:265,1,42.5,8|0,0:0|0:0,0:0:0:0:
287,119,103771,2,0,L|329:114,1,42.5,2|0,0:0|0:0,0:0:0:0:
365,187,103934,2,0,L|323:192,1,42.5,2|0,0:0|0:0,0:0:0:0:
194,253,104096,2,0,L|281:260,1,85,2|8,0:0|0:0,0:0:0:0:
329,114,104420,6,0,L|154:133,1,170,2|0,0:0|0:0,0:0:0:0:
70,159,104907,2,0,L|28:154,1,42.5,8|0,0:0|0:0,0:0:0:0:
109,245,105069,2,0,L|193:252,1,85,2|0,0:0|0:0,0:0:0:0:
286,261,105393,2,0,L|291:303,1,42.5,2|0,0:0|0:0,0:0:0:0:
378,269,105555,2,0,L|383:311,1,42.5,8|0,0:0|0:0,0:0:0:0:
508,170,105717,70,0,L|338:185,1,170,2|0,0:0|0:0,0:0:0:0:
286,261,106204,2,0,L|281:303,1,42.5,8|0,0:0|0:0,0:0:0:0:
193,252,106366,2,0,L|185:167,1,85,2|0,0:0|0:0,0:0:0:0:
172,30,106690,2,0,L|176:72,1,42.5,2|0,0:0|0:0,0:0:0:0:
25,222,106853,2,0,L|20:179,1,42.5,8|0,0:0|0:0,0:0:0:0:
100,126,107015,6,0,L|115:295,1,170,4|0,0:0|0:0,0:0:0:0:
115,295,107420,1,2,0:0:0:0:
115,295,107501,1,8,0:0:0:0:
220,338,107663,69,2,0:0:0:0:
259,353,107744,1,2,0:0:0:0:
301,360,107826,1,2,0:0:0:0:
343,358,107907,1,2,0:0:0:0:
384,347,107988,1,2,0:0:0:0:
422,327,108069,1,2,0:0:0:0:
455,301,108150,1,8,0:0:0:0:
440,121,108312,6,0,P|359:99|346:104,1,85,2|0,0:0|0:0,0:0:0:0:
284,134,108636,2,0,L|280:180,1,42.5,2|0,0:0|0:0,0:0:0:0:
214,85,108798,2,0,B|217:44|217:44|249:13,1,85,8|0,0:0|0:0,0:0:0:0:
284,134,109123,2,0,B|280:174|280:174|247:205,1,85,2|0,0:0|0:0,0:0:0:0:
214,85,109447,2,0,L|218:42,1,42.5,8|0,0:0|0:0,0:0:0:0:
362,98,109609,2,0,L|366:140,1,42.5,2|0,0:0|0:0,0:0:0:0:
306,304,109771,70,0,P|284:306|262:306,1,42.5,2|0,0:0|0:0,0:0:0:0:
149,307,109934,2,0,P|158:286|169:267,1,42.5,2|0,0:0|0:0,0:0:0:0:
225,169,110096,2,0,P|238:186|248:205,1,42.5,8|0,0:0|0:0,0:0:0:0:
306,304,110258,2,0,L|409:294,1,85,2|0,0:0|0:0,0:0:0:0:
225,169,110582,2,0,L|182:173,1,42.5,2|0,0:0|0:0,0:0:0:0:
306,304,110744,2,0,L|349:300,1,42.5,8|0,0:0|0:0,0:0:0:0:
225,169,110907,6,0,L|33:185,1,170,2|0,0:0|0:0,0:0:0:0:
133,294,111393,2,0,L|176:290,1,42.5,8|0,0:0|0:0,0:0:0:0:
225,169,111555,2,0,P|216:88|145:49,1,170,2|0,0:0|0:0,0:0:0:0:
55,183,112042,2,0,L|98:179,1,42.5,8|0,0:0|0:0,0:0:0:0:
225,169,112204,70,0,L|394:183,1,170,4|0,0:0|0:0,0:0:0:0:
394,183,112609,1,2,0:0:0:0:
394,183,112690,1,8,0:0:0:0:
462,306,112853,5,2,0:0:0:0:
419,309,112934,1,2,0:0:0:0:
377,313,113015,1,2,0:0:0:0:
334,317,113096,1,2,0:0:0:0:
292,320,113177,1,2,0:0:0:0:
250,324,113258,1,2,0:0:0:0:
207,328,113339,1,8,0:0:0:0:
96,358,113501,70,0,P|61:334|42:297,1,85,2|0,0:0|0:0,0:0:0:0:
43,203,113826,2,0,L|0:199,1,42.5,2|0,0:0|0:0,0:0:0:0:
124,158,113988,2,0,B|166:164|166:164|209:144,1,85,8|0,0:0|0:0,0:0:0:0:
281,94,114312,2,0,B|319:76|319:76|361:82,1,85,2|0,0:0|0:0,0:0:0:0:
473,142,114636,2,0,L|431:146,1,42.5,8|0,0:0|0:0,0:0:0:0:
455,234,114798,2,0,L|413:238,1,42.5,2|0,0:0|0:0,0:0:0:0:
266,315,114961,6,0,L|351:324,1,85,2|0,0:0|0:0,0:0:0:0:
412,238,115285,2,0,L|454:242,1,42.5,8|0,0:0|0:0,0:0:0:0:
350,152,115447,2,0,L|265:161,1,85,2|0,0:0|0:0,0:0:0:0:
164,183,115771,2,0,L|167:225,1,42.5,2|0,0:0|0:0,0:0:0:0:
266,315,115934,2,0,L|262:272,1,42.5,8|0,0:0|0:0,0:0:0:0:
157,98,116096,70,0,L|163:182,1,85,2|0,0:0|0:0,0:0:0:0:
262,272,116420,2,0,L|258:229,1,42.5,2|0,0:0|0:0,0:0:0:0:
163,182,116582,2,0,L|167:225,1,42.5,8|0,0:0|0:0,0:0:0:0:
262,272,116744,1,2,0:0:0:0:
354,223,116907,5,4,3:0:0:0:
391,205,116988,1,4,3:0:0:0:
433,211,117069,1,4,3:0:0:0:
464,239,117150,1,4,3:0:0:0:
475,279,117231,69,8,3:0:0:0:
462,319,117312,1,8,3:0:0:0:
429,344,117393,1,8,3:0:0:0:
387,348,117474,1,8,3:0:0:0:
351,328,117555,21,4,0:0:0:0:
262,272,117717,1,2,0:0:0:0:
259,378,117880,1,2,0:0:0:0:
354,222,118042,2,0,L|497:234,1,136,2|0,0:0|0:0,0:0:0:0:
262,272,118528,2,0,L|182:265,1,68,2|0,0:0|0:0,0:0:0:0:
110,70,118853,5,2,0:0:0:0:
152,167,119015,1,2,0:0:0:0:
215,80,119177,1,2,0:0:0:0:
47,155,119339,2,0,L|59:298,1,136,2|0,0:0|0:0,0:0:0:0:
163,302,119826,1,2,0:0:0:0:
267,313,119988,1,2,0:0:0:0:
417,167,120150,69,2,0:0:0:0:
312,177,120312,1,2,0:0:0:0:
375,264,120474,1,2,0:0:0:0:
354,80,120636,2,0,L|210:92,1,136,2|0,0:0|0:0,0:0:0:0:
417,167,121123,2,0,L|497:160,1,68,2|0,0:0|0:0,0:0:0:0:
375,264,121447,5,0,0:0:0:0:
375,264,121609,2,0,L|295:271,1,68,2|0,0:0|0:0,0:0:0:0:
225,337,121934,1,2,0:0:0:0:
159,258,122096,2,0,L|166:178,1,68,2|0,0:0|0:0,0:0:0:0:
174,84,122420,1,2,0:0:0:0:
174,84,122582,38,0,P|265:114|331:87,1,170,4|0,0:0|0:0,0:0:0:0:
415,29,123069,2,0,P|433:77|428:123,1,85,8|0,0:0|0:0,0:0:0:0:
361,185,123393,2,0,P|360:227|377:266,1,85,2|0,0:0|0:0,0:0:0:0:
449,338,123717,1,8,0:0:0:0:
350,363,123880,6,0,L|174:347,1,170,2|0,0:0|0:0,0:0:0:0:
111,273,124366,2,0,L|26:279,2,85,8|0|0,0:0|0:0|0:0,0:0:0:0:
182,200,124853,2,0,L|266:206,1,85,2|8,0:0|0:0,0:0:0:0:
324,290,125177,1,2,0:0:0:0:
412,119,125339,69,2,0:0:0:0:
412,119,125501,2,0,L|327:125,1,85,2|8,0:0|0:0,0:0:0:0:
182,200,125826,5,2,0:0:0:0:
182,200,125988,2,0,L|266:206,1,85,2|0,0:0|0:0,0:0:0:0:
412,281,126312,69,8,0:0:0:0:
412,281,126474,2,0,L|327:287,1,85,2|0,0:0|0:0,0:0:0:0:
182,362,126798,5,2,0:0:0:0:
182,362,126961,2,0,L|266:368,1,85,8|0,0:0|0:0,0:0:0:0:
412,281,127285,2,0,L|327:287,1,85,2|0,0:0|0:0,0:0:0:0:
182,200,127609,2,0,L|266:206,1,85,8|0,0:0|0:0,0:0:0:0:
120,117,127934,69,2,0:0:0:0:
120,117,128096,2,0,L|35:123,1,85,2|8,0:0|0:0,0:0:0:0:
182,200,128420,5,2,0:0:0:0:
182,200,128582,2,0,L|266:206,1,85,2|0,0:0|0:0,0:0:0:0:
120,283,128907,69,8,0:0:0:0:
120,283,129069,1,2,0:0:0:0:
244,117,129231,6,0,B|296:121|296:121|322:140,1,85,2|0,0:0|0:0,0:0:0:0:
266,206,129555,2,0,L|182:200,1,85,8|0,0:0|0:0,0:0:0:0:
120,117,129880,1,2,0:0:0:0:
120,283,130042,1,2,0:0:0:0:
266,206,130204,70,0,P|310:213|332:226,1,63.75,8|0,0:0|0:0,0:0:0:0:
370,245,130528,54,0,P|397:190|399:146,1,101.999996887207,4|0,0:0|0:0,0:0:0:0:
295,111,130853,2,0,P|270:155|265:205,1,101.999996887207,8|0,0:0|0:0,0:0:0:0:
284,314,131177,1,2,0:0:0:0:
370,245,131339,1,2,0:0:0:0:
160,165,131501,1,8,0:0:0:0:
284,314,131663,6,0,P|387:353|474:269,1,203.999993774414,2|0,0:0|0:0,0:0:0:0:
414,144,132150,2,0,P|354:135|314:149,1,101.999996887207,8|0,0:0|0:0,0:0:0:0:
214,216,132474,1,2,0:0:0:0:
205,92,132636,1,2,0:0:0:0:
103,162,132798,1,8,0:0:0:0:
306,23,132961,70,0,P|367:51|309:149,1,203.999993774414,2|0,0:0|0:0,0:0:0:0:
205,92,133447,2,0,P|162:77|97:79,1,101.999996887207,8|0,0:0|0:0,0:0:0:0:
214,216,133771,2,0,P|257:231|322:229,1,101.999996887207,2|0,0:0|0:0,0:0:0:0:
424,179,134096,1,8,0:0:0:0:
413,300,134258,6,0,P|285:332|191:311,1,203.999993774414,2|0,0:0|0:0,0:0:0:0:
124,270,134744,1,8,0:0:0:0:
225,160,134907,2,0,P|226:218|197:197,1,101.999996887207,2|0,0:0|0:0,0:0:0:0:
83,126,135231,2,0,P|55:177|91:171,1,101.999996887207,2|8,0:0|0:0,0:0:0:0:
301,118,135555,70,0,P|328:192|233:292,1,203.999993774414,4|0,0:0|0:0,0:0:0:0:
235,191,136042,2,0,P|285:186|324:218,1,101.999996887207,8|0,0:0|0:0,0:0:0:0:
368,330,136366,1,2,0:0:0:0:
443,234,136528,1,2,0:0:0:0:
487,346,136690,1,8,0:0:0:0:
323,217,136853,6,0,B|284:156|228:191|226:195|174:218|141:152,1,203.999993774414,2|0,0:0|0:0,0:0:0:0:
184,50,137339,2,0,P|219:41|274:75,1,101.999996887207,8|0,0:0|0:0,0:0:0:0:
147,161,137663,1,2,0:0:0:0:
68,72,137826,1,2,0:0:0:0:
31,185,137988,1,8,0:0:0:0:
184,49,138150,70,0,B|244:25|273:74|273:74|282:14|358:21,1,203.999993774414,2|0,0:0|0:0,0:0:0:0:
331,125,138636,2,0,P|287:150|237:142,1,101.999996887207,8|0,0:0|0:0,0:0:0:0:
346,20,138961,2,0,P|387:36|433:103,1,101.999996887207,2|0,0:0|0:0,0:0:0:0:
419,184,139285,1,8,0:0:0:0:
238,142,139447,6,0,B|210:192|210:192|216:279,1,101.999996887207,2|0,0:0|0:0,0:0:0:0:
219,341,139771,1,0,0:0:0:0:
366,276,139934,2,0,P|340:233|293:215,1,101.999996887207,8|0,0:0|0:0,0:0:0:0:
128,181,140258,1,2,0:0:0:0:
220,341,140420,1,2,0:0:0:0:
238,142,140582,1,8,0:0:0:0:
131,269,140744,70,0,P|58:236|76:111,1,203.999993774414,4|0,0:0|0:0,0:0:0:0:
128,181,141231,1,8,0:0:0:0:
38,329,141393,1,2,0:0:0:0:
128,181,141555,2,0,P|178:193|214:250,1,101.999996887207,2|0,0:0|0:0,0:0:0:0:
131,269,141880,1,8,0:0:0:0:
220,120,142042,6,0,B|283:114|283:114|350:148|350:148|422:142,1,203.999993774414,2|0,0:0|0:0,0:0:0:0:
480,39,142528,2,0,L|368:48,1,101.999996887207,8|0,0:0|0:0,0:0:0:0:
220,120,142853,1,2,0:0:0:0:
415,142,143015,1,2,0:0:0:0:
256,214,143177,1,8,0:0:0:0:
377,47,143339,70,0,P|474:62|512:152,1,203.999993774414,2|0,0:0|0:0,0:0:0:0:
423,243,143826,2,0,L|414:141,1,101.999996887207,8|0,0:0|0:0,0:0:0:0:
510,294,144150,2,0,P|463:336|385:336,1,101.999996887207,2|0,0:0|0:0,0:0:0:0:
336,295,144474,1,8,0:0:0:0:
333,191,144636,6,0,B|366:144|415:139|415:139|423:242,1,203.999993774414,2|0,0:0|0:0,0:0:0:0:
336,295,145123,1,8,0:0:0:0:
261,163,145285,2,0,P|226:200|264:214,1,101.999996887207,2|0,0:0|0:0,0:0:0:0:
415,140,145609,2,0,P|450:178|412:192,1,101.999996887207,2|8,0:0|0:0,0:0:0:0:
206,98,145934,70,0,P|150:183|195:275,1,203.999993774414,4|0,0:0|0:0,0:0:0:0:
289,82,146420,2,0,P|246:20|183:21,1,101.999996887207,8|0,0:0|0:0,0:0:0:0:
261,163,146744,2,0,P|336:156|366:101,1,101.999996887207,2|0,0:0|0:0,0:0:0:0:
206,98,147069,1,8,0:0:0:0:
187,269,147231,6,0,B|250:263|250:263|317:297|317:297|389:291,1,203.999993774414,2|0,0:0|0:0,0:0:0:0:
453,131,147717,2,0,L|349:140,1,101.999996887207,8|0,0:0|0:0,0:0:0:0:
251,264,148042,1,2,0:0:0:0:
351,139,148204,1,2,0:0:0:0:
382,291,148366,1,8,0:0:0:0:
267,174,148528,70,0,B|220:168|194:190|179:210|179:210|156:197|123:190|127:104,1,203.999993774414,2|0,0:0|0:0,0:0:0:0:
350,138,149015,2,0,P|354:189|333:235,1,101.999996887207,8|0,0:0|0:0,0:0:0:0:
279,84,149339,2,0,P|329:52|391:59,1,101.999996887207,2|0,0:0|0:0,0:0:0:0:
435,112,149663,1,8,0:0:0:0:
398,306,149826,6,0,P|334:233|333:207,1,101.999996887207,2|8,0:0|0:0,0:0:0:0:
350,138,150150,1,0,0:0:0:0:
483,274,150312,2,0,P|486:324|465:370,1,101.999996887207,8|0,0:0|0:0,0:0:0:0:
309,355,150636,1,10,0:0:0:0:
272,322,150717,1,2,0:0:0:0:
268,272,150798,1,2,0:0:0:0:
300,234,150880,1,2,0:0:0:0:
349,228,150961,1,10,0:0:0:0:
389,257,151042,1,2,0:0:0:0:
398,306,151123,70,0,P|310:255|284:136,1,203.999993774414,4|0,0:0|0:0,0:0:0:0:
291,61,151609,1,8,0:0:0:0:
373,120,151771,1,2,0:0:0:0:
198,103,151934,2,0,B|142:98|142:98|91:125|91:125|35:120,1,170,2|8,0:0|0:0,0:0:0:0:
246,14,152420,6,0,P|295:80|279:161,1,170,2|0,0:0|0:0,0:0:0:0:
182,183,152907,2,0,P|181:141|198:103,1,85,8|0,0:0|0:0,0:0:0:0:
250,255,153231,1,2,0:0:0:0:
182,183,153393,1,2,0:0:0:0:
222,350,153555,1,8,0:0:0:0:
347,233,153717,1,2,0:0:0:0:
154,278,153880,69,2,0:0:0:0:
154,278,153961,1,2,0:0:0:0:
154,278,154042,1,2,0:0:0:0:
279,160,154204,1,8,0:0:0:0:
318,327,154366,1,2,0:0:0:0:
182,183,154528,1,2,0:0:0:0:
279,160,154690,1,2,0:0:0:0:
347,233,154853,1,8,0:0:0:0:
198,102,155015,6,0,P|181:140|182:183,1,85,2|0,0:0|0:0,0:0:0:0:
149,47,155339,2,0,P|106:136|122:239,1,170,2|2,0:0|0:0,0:0:0:0:
188,341,155826,2,0,P|214:275|144:284,1,170,2|8,0:0|0:0,0:0:0:0:
188,341,156312,70,0,P|224:314|279:311,1,85,4|0,0:0|0:0,0:0:0:0:
305,314,156555,1,0,0:0:0:0:
342,336,156636,1,0,0:0:0:0:
376,362,156717,1,2,0:0:0:0:
408,334,156798,1,8,0:0:0:0:
429,298,156880,1,2,0:0:0:0:
436,256,156961,1,2,0:0:0:0:
429,214,157042,1,2,0:0:0:0:
407,178,157123,6,0,L|411:130,3,42.5,2|0|0|0,0:0|0:0|0:0|0:0,0:0:0:0:
303,217,157447,2,0,L|300:175,3,42.5,8|0|0|0,0:0|0:0|0:0|0:0,0:0:0:0:
192,176,157771,69,2,0:0:0:0:
200,134,157853,1,2,0:0:0:0:
223,99,157934,1,2,0:0:0:0:
258,76,158015,1,2,0:0:0:0:
300,68,158096,1,8,0:0:0:0:
341,76,158177,1,2,0:0:0:0:
376,100,158258,1,2,0:0:0:0:
399,135,158339,1,2,0:0:0:0:
407,177,158420,6,0,L|410:219,1,42.5,2|0,0:0|0:0,0:0:0:0:
306,259,158582,2,0,L|303:217,1,42.5,2|0,0:0|0:0,0:0:0:0:
424,168,158744,2,0,L|427:210,1,42.5,8|0,0:0|0:0,0:0:0:0:
288,267,158907,2,0,L|285:225,1,42.5,2|0,0:0|0:0,0:0:0:0:
424,168,159069,69,4,0:0:0:0:
438,312,159231,1,2,0:0:0:0:
274,123,159393,1,4,0:0:0:0:
288,267,159555,1,2,0:0:0:0:
437,158,159717,5,4,0:0:0:0:
454,330,159880,1,2,0:0:0:0:
257,104,160042,1,4,0:0:0:0:
274,276,160204,1,2,0:0:0:0:
451,148,160366,69,4,0:0:0:0:
470,349,160528,1,2,0:0:0:0:
241,85,160690,1,4,0:0:0:0:
260,286,160853,1,2,0:0:0:0:
241,85,161015,5,4,0:0:0:0:
279,102,161096,1,2,0:0:0:0:
305,135,161177,1,2,0:0:0:0:
314,176,161258,1,2,0:0:0:0:
304,217,161339,1,8,0:0:0:0:
222,338,161501,70,0,P|191:276|260:286,1,170,4|0,0:0|0:0,0:0:0:0:
111,301,161988,1,8,0:0:0:0:
111,301,162150,2,0,P|142:224|217:188,1,170,2|0,0:0|0:0,0:0:0:0:
186,311,162636,1,8,0:0:0:0:
186,311,162798,6,0,P|194:271|233:261,1,85,2|0,0:0|0:0,0:0:0:0:
408,373,163123,2,0,B|422:331|422:331|412:195,1,170,2|0,0:0|0:0,0:0:0:0:
404,104,163609,1,2,0:0:0:0:
321,162,163771,1,2,0:0:0:0:
313,62,163934,1,8,0:0:0:0:
230,120,164096,1,2,0:0:0:0:
412,205,164258,69,2,0:0:0:0:
412,205,164339,1,2,0:0:0:0:
412,205,164420,1,2,0:0:0:0:
321,162,164582,2,0,L|329:250,1,85,8|0,0:0|0:0,0:0:0:0:
139,163,164907,1,2,0:0:0:0:
139,163,164988,1,2,0:0:0:0:
139,163,165069,1,2,0:0:0:0:
230,120,165231,2,0,L|222:208,1,85,8|0,0:0|0:0,0:0:0:0:
143,256,165555,6,0,P|74:229|58:206,1,85,2|0,0:0|0:0,0:0:0:0:
227,299,165880,2,0,P|295:272|311:249,1,85,8|0,0:0|0:0,0:0:0:0:
314,166,166204,1,2,0:0:0:0:
222,204,166366,1,2,0:0:0:0:
301,265,166528,1,8,0:0:0:0:
235,105,166690,70,0,P|355:74|397:112,1,170,4|0,0:0|0:0,0:0:0:0:
222,204,167177,2,0,P|171:183|142:138,1,85,8|0,0:0|0:0,0:0:0:0:
314,166,167501,2,0,P|321:220|296:268,1,85,2|0,0:0|0:0,0:0:0:0:
227,303,167826,1,8,0:0:0:0:
314,166,167988,6,0,B|370:161|370:161|421:188|421:188|477:183,1,170,2|0,0:0|0:0,0:0:0:0:
512,87,168474,2,0,L|424:94,1,85,8|0,0:0|0:0,0:0:0:0:
278,262,168798,2,0,L|365:254,1,85,2|0,0:0|0:0,0:0:0:0:
427,93,169123,1,8,0:0:0:0:
435,295,169285,70,0,P|502:288|462:342,1,170,2|0,0:0|0:0,0:0:0:0:
421,346,169690,1,2,0:0:0:0:
378,350,169771,1,8,0:0:0:0:
335,354,169853,1,2,0:0:0:0:
293,357,169934,1,2,0:0:0:0:
251,361,170015,1,2,0:0:0:0:
208,365,170096,1,2,0:0:0:0:
146,284,170258,1,2,0:0:0:0:
184,188,170420,1,8,0:0:0:0:
331,261,170582,6,0,B|345:219|345:219|335:83,1,170,2|0,0:0|0:0,0:0:0:0:
226,23,171069,2,0,L|234:108,1,85,8|0,0:0|0:0,0:0:0:0:
331,261,171393,1,2,0:0:0:0:
335,93,171555,1,2,0:0:0:0:
184,188,171717,1,8,0:0:0:0:
443,232,171880,70,0,B|450:287|441:320|392:359|392:359|328:327|290:386|229:338,1,297.499990921021,4|0,0:0|0:0,0:0:0:0:
