osu file format v14

[General]
AudioFilename: i can see you looking through the beatmap files.mp3
AudioLeadIn: 0
PreviewTime: 33798
Countdown: 0
SampleSet: Soft
StackLeniency: 0.2
Mode: 0
LetterboxInBreaks: 0
WidescreenStoryboard: 0

[Editor]
DistanceSpacing: 0.8
BeatDivisor: 4
GridSize: 4
TimelineZoom: 1.6

[Metadata]
Title:Kimi no Yozora Shoukaihan
TitleUnicode:キミノヨゾラ哨戒班
Artist:Orangestar
ArtistUnicode:Orangestar
Creator:newton-
Version:Insane
Source:
Tags:ia vocaloid asu no your night sky patrol of tomorrow arrangement newtonscradle nextplay my angel kanan
BeatmapID:1234353
BeatmapSetID:583277

[Difficulty]
HPDrainRate:6
CircleSize:4.2
OverallDifficulty:8
ApproachRate:9
SliderMultiplier:1.6
SliderTickRate:1

[Events]
//Background and Video events
0,0,"Kimi_no_Yozora_Shoukaihan.png",0,0
//Break Periods
2,76080,85334
//Storyboard Layer 0 (Background)
//Storyboard Layer 1 (Fail)
//Storyboard Layer 2 (Pass)
//Storyboard Layer 3 (Foreground)
//Storyboard Sound Samples

[TimingPoints]
799,324.324324324324,4,2,2,50,1,0
799,-100,4,2,2,50,0,0
11177,-100,4,2,2,80,0,0
21069,-100,4,1,2,90,0,0
21231,-100,4,1,2,90,0,0
21555,-125,4,1,2,50,0,0
22204,-125,4,2,2,50,0,0
26744,-100,4,2,2,70,0,0
33880,-166.666666666667,4,2,2,50,0,0
34366,-83.3333333333333,4,2,2,90,0,1
44258,-83.3333333333333,4,2,2,80,0,0
44744,-83.3333333333333,4,2,2,90,0,1
55285,-100,4,2,2,80,0,0
59826,-166.666666666667,4,2,2,80,0,0
60312,-100,4,2,2,80,0,0
85934,-100,4,2,2,60,0,0
86420,-100,4,2,2,70,0,0
117231,-100,4,2,2,60,0,0
117555,-125,4,2,2,50,0,0
122582,-100,4,2,2,70,0,0
130204,-166.666666666667,4,2,2,50,0,0
130528,-100,4,2,2,90,0,1
140258,-100,4,2,2,90,0,0
140744,-100,4,2,2,90,0,1
151285,-100,4,2,2,80,0,0
155826,-166.666666666667,4,2,2,80,0,0
156312,-100,4,2,2,80,0,0
159069,-100,4,2,2,80,0,1
161501,-100,4,2,2,70,0,0
171880,-125,4,2,2,90,0,0
171961,-125,4,2,2,20,0,0
172690,-125,4,2,2,5,0,0

[Colours]
Combo1 : 0,0,128
Combo2 : 255,128,0
Combo3 : 247,186,72
Combo4 : 0,128,255
Combo5 : 0,171,253
Combo6 : 6,69,172

[HitObjects]
190,133,636,37,2,2:0:0:0:
190,133,799,2,0,P|207:209|249:238,1,80,2|0,0:0|0:0,0:0:0:0:
294,247,1123,1,2,0:0:0:0:
433,158,1285,2,0,P|361:129|286:152,1,160,2|2,0:0|0:0,0:0:0:0:
206,208,1771,1,0,0:0:0:0:
191,48,1934,6,0,L|206:208,1,160,2|2,0:0|0:0,0:0:0:0:
104,103,2420,2,0,L|113:206,1,80,0|2,0:0|0:0,0:0:0:0:
135,276,2744,2,0,P|163:297|219:302,1,80
290,256,3069,1,2,0:0:0:0:
242,70,3231,70,0,P|193:130|205:207,1,160,2|2,0:0|0:0,0:0:0:0:
367,163,3717,2,0,L|287:156,1,80,0|2,0:0|0:0,0:0:0:0:
163,77,4042,2,0,L|242:70,1,80,0|0,0:0|0:0,0:0:0:0:
341,75,4366,1,2,0:0:0:0:
287,155,4528,6,0,B|202:163|202:163|143:208,1,160,2|2,0:0|0:0,0:0:0:0:
285,258,5015,2,0,B|326:252|326:252|371:217,1,80,0|2,0:0|0:0,0:0:0:0:
341,75,5339,1,2,0:0:0:0:
287,155,5501,2,0,L|207:161,1,80,2|0,0:0|0:0,0:0:0:0:
70,123,5826,70,0,P|146:111|207:160,1,160,2|0,0:0|0:0,0:0:0:0:
257,245,6312,1,2,0:0:0:0:
382,153,6474,2,0,L|303:160,1,80,2|0,0:0|0:0,0:0:0:0:
431,236,6798,2,0,L|351:242,1,80,2|0,0:0|0:0,0:0:0:0:
149,305,7123,6,0,B|199:302|199:302|255:327|255:327|325:324,1,160,2|2,0:0|0:0,0:0:0:0:
275,156,7609,2,0,P|262:193|269:232,1,80,0|2,0:0|0:0,0:0:0:0:
423,209,7934,2,0,P|385:199|345:202,1,80,2|0,0:0|0:0,0:0:0:0:
269,232,8258,1,0,0:0:0:0:
196,149,8420,70,0,P|256:80|322:93,1,160,2|2,0:0|0:0,0:0:0:0:
355,159,8907,1,2,0:0:0:0:
282,236,9069,2,0,L|275:157,1,80,2|0,0:0|0:0,0:0:0:0:
393,228,9393,2,0,L|386:307,1,80,2|0,0:0|0:0,0:0:0:0:
282,236,9717,6,0,P|222:187|149:212,1,160,2|0,0:0|0:0,0:0:0:0:
1,215,10204,2,0,P|40:215|75:234,1,80,2|0,0:0|0:0,0:0:0:0:
130,292,10528,1,2,0:0:0:0:
207,273,10690,1,0,0:0:0:0:
284,254,10853,1,2,0:0:0:0:
230,197,11015,1,2,0:0:0:0:
184,349,11177,70,0,L|263:342,1,80,4|0,0:0|0:0,0:0:0:0:
342,333,11501,1,2,0:0:0:0:
454,252,11663,2,0,L|375:259,1,80,2|0,0:0|0:0,0:0:0:0:
294,266,11988,1,2,0:0:0:0:
328,190,12150,1,2,0:0:0:0:
343,336,12312,6,0,P|278:350|239:327,1,80,2|0,0:0|0:0,0:0:0:0:
327,189,12636,2,0,P|288:183|251:195,1,80,2|0,0:0|0:0,0:0:0:0:
374,259,12961,1,2,0:0:0:0:
361,110,13123,1,0,0:0:0:0:
411,181,13285,1,0,0:0:0:0:
326,188,13447,1,2,0:0:0:0:
448,103,13609,70,0,P|482:133|496:167,1,80,2|0,0:0|0:0,0:0:0:0:
277,118,13934,2,0,P|248:153|240:189,1,80,2|0,0:0|0:0,0:0:0:0:
361,110,14258,1,2,0:0:0:0:
411,181,14420,1,2,0:0:0:0:
326,188,14582,1,0,0:0:0:0:
375,258,14744,1,0,0:0:0:0:
212,276,14907,6,0,L|291:269,1,80,2|0,0:0|0:0,0:0:0:0:
361,110,15231,2,0,L|282:117,1,80,2|0,0:0|0:0,0:0:0:0:
376,298,15555,2,0,P|380:259|367:222,1,80,2|0,0:0|0:0,0:0:0:0:
189,87,15880,2,0,P|185:126|199:164,1,80,2|0,0:0|0:0,0:0:0:0:
292,269,16204,70,0,B|220:301|220:301|112:286,1,160,4|0,0:0|0:0,0:0:0:0:
375,294,16690,2,0,B|409:277|409:277|450:282,1,80,2|0,0:0|0:0,0:0:0:0:
355,209,17015,2,0,B|318:173|273:184,1,80,2|0,0:0|0:0,0:0:0:0:
194,219,17339,1,2,0:0:0:0:
105,256,17501,6,0,B|60:251|23:201,1,80,2|0,0:0|0:0,0:0:0:0:
194,219,17826,2,0,B|212:260|188:317,1,80,2|0,0:0|0:0,0:0:0:0:
118,161,18150,2,0,B|144:124|205:117,1,80,2|0,0:0|0:0,0:0:0:0:
274,161,18474,69,2,0:0:0:0:
195,297,18636,1,2,0:0:0:0:
118,161,18798,2,0,B|144:124|205:117,1,80,2|0,0:0|0:0,0:0:0:0:
291,204,19123,5,2,0:0:0:0:
154,282,19285,1,2,0:0:0:0:
155,126,19447,2,0,B|196:106|252:131,1,80,2|0,0:0|0:0,0:0:0:0:
291,204,19771,69,2,0:0:0:0:
331,112,19934,1,2,0:0:0:0:
390,192,20096,1,2,0:0:0:0:
233,124,20258,5,2,0:0:0:0:
192,216,20420,1,0,0:0:0:0:
291,204,20582,1,2,0:0:0:0:
349,284,20744,2,0,B|297:316|253:296|236:285|236:285|212:303|187:296,1,160,2|8,0:0|0:0,0:0:0:0:
275,115,21231,69,8,0:0:0:0:
291,204,21393,1,8,0:0:0:0:
343,58,21555,22,0,B|331:117|235:143|187:88|187:88|155:101|128:146,1,256,8|2,0:0|0:0,2:0:0:0:
148,305,22528,5,2,0:0:0:0:
148,305,22690,2,0,L|211:299,1,64,0|0,0:0|0:0,0:0:0:0:
312,236,23015,2,0,B|272:239|272:239|230:219|230:219|166:224,1,128,2|0,0:0|0:0,0:0:0:0:
358,175,23501,2,0,P|390:245|366:291,1,128,2|0,0:0|0:0,0:0:0:0:
312,236,23988,1,2,0:0:0:0:
364,111,24150,70,0,L|358:174,1,64,2|0,0:0|0:0,0:0:0:0:
284,77,24474,2,0,L|289:140,1,64,2|0,0:0|0:0,0:0:0:0:
198,44,24798,1,0,0:0:0:0:
198,44,24961,2,0,L|214:105,1,64,2|0,0:0|0:0,0:0:0:0:
290,141,25285,6,0,P|252:214|256:275,1,128,2|0,0:0|0:0,0:0:0:0:
397,243,25771,1,2,0:0:0:0:
345,193,25934,2,0,P|328:217|326:251,1,64,2|0,0:0|0:0,0:0:0:0:
397,243,26258,1,2,0:0:0:0:
292,127,26420,1,2,0:0:0:0:
245,273,26582,1,2,0:0:0:0:
163,87,26744,38,0,L|172:190,1,80,4|0,0:0|0:0,0:0:0:0:
79,148,27069,1,2,0:0:0:0:
79,148,27231,2,0,L|88:251,1,80,2|0,0:0|0:0,0:0:0:0:
180,270,27555,2,0,B|221:250|277:275,1,80,2|0,0:0|0:0,0:0:0:0:
337,241,27880,6,0,B|373:258|414:238,1,80,2|0,0:0|0:0,0:0:0:0:
407,98,28204,2,0,B|374:120|371:166,1,80,2|0,0:0|0:0,0:0:0:0:
496,229,28528,2,0,B|492:189|455:164,1,80,2|0,0:0|0:0,0:0:0:0:
370,166,28853,1,2,0:0:0:0:
337,241,29015,1,2,0:0:0:0:
220,125,29177,1,2,0:0:0:0:
69,213,29339,69,2,0:0:0:0:
69,214,29501,2,0,L|148:207,1,80,2|0,0:0|0:0,0:0:0:0:
310,263,29826,1,2,0:0:0:0:
310,263,29988,2,0,B|276:246|276:246|235:251,1,80,2|0,0:0|0:0,0:0:0:0:
180,339,30312,1,2,0:0:0:0:
180,340,30474,2,0,L|259:333,1,80,2|0,0:0|0:0,0:0:0:0:
389,256,30798,5,2,0:0:0:0:
389,256,30961,2,0,L|309:262,1,80,2|0,0:0|0:0,0:0:0:0:
348,173,31285,2,0,L|268:179,1,80,2|0,0:0|0:0,0:0:0:0:
307,90,31609,2,0,L|227:96,1,80,2|0,0:0|0:0,0:0:0:0:
103,143,31934,69,2,0:0:0:0:
103,143,32096,2,0,B|144:147|144:147|175:170,1,80,2|0,0:0|0:0,0:0:0:0:
268,178,32420,1,2,0:0:0:0:
268,178,32582,2,0,L|348:184,1,80,2|0,0:0|0:0,0:0:0:0:
216,254,32907,1,2,0:0:0:0:
216,254,33069,2,0,L|136:248,1,80,2|0,0:0|0:0,0:0:0:0:
268,178,33393,1,2,0:0:0:0:
268,178,33555,2,0,B|308:181|308:181|343:164,1,80,2|0,0:0|0:0,0:0:0:0:
225,92,33880,6,0,P|189:123|173:168,1,95.9999970703126,2|0,0:0|0:0,0:0:0:0:
167,241,34366,38,0,P|239:210|173:168,1,191.999994140625,4|0,0:0|0:0,0:0:0:0:
149,320,34853,2,0,P|199:331|249:316,1,95.9999970703126,8|0,0:0|0:0,0:0:0:0:
328,217,35177,1,2,0:0:0:0:
373,343,35339,1,2,0:0:0:0:
459,241,35501,1,8,0:0:0:0:
241,320,35663,6,0,B|185:324|185:324|118:298|118:298|54:304,1,191.999994140625,2|0,0:0|0:0,0:0:0:0:
198,226,36150,2,0,B|256:221|256:221|317:247,1,95.9999970703126,8|2,0:0|0:0,0:0:0:0:
339,321,36474,2,0,P|382:272|384:214,1,95.9999970703126,2|0,0:0|0:0,0:0:0:0:
346,155,36798,1,8,0:0:0:0:
198,226,36961,69,2,0:0:0:0:
198,226,37042,1,2,0:0:0:0:
198,226,37123,2,0,L|188:122,1,95.9999970703126,2|2,0:0|0:0,0:0:0:0:
289,6,37447,1,8,0:0:0:0:
346,155,37609,2,0,P|411:150|453:111,1,95.9999970703126,2|0,0:0|0:0,0:0:0:0:
278,109,37934,2,0,P|212:113|170:152,1,95.9999970703126,2|8,0:0|0:0,0:0:0:0:
49,185,38258,6,0,P|115:189|157:228,1,95.9999970703126,2|0,0:0|0:0,0:0:0:0:
239,279,38582,1,0,0:0:0:0:
239,279,38744,2,0,P|216:199|299:202,1,191.999994140625,8|2,0:0|0:0,0:0:0:0:
341,293,39231,1,0,0:0:0:0:
163,142,39393,1,8,0:0:0:0:
163,142,39555,70,0,P|259:105|350:143,1,191.999994140625,4|0,0:0|0:0,0:0:0:0:
213,202,40042,2,0,P|254:181|297:200,1,95.9999970703126,8|2,0:0|0:0,0:0:0:0:
369,319,40366,1,2,0:0:0:0:
437,198,40528,1,0,0:0:0:0:
230,321,40690,1,8,0:0:0:0:
230,321,40853,2,0,B|187:300|187:300|120:308,1,95.9999970703126,2|0,0:0|0:0,0:0:0:0:
0,211,41177,5,2,0:0:0:0:
0,211,41339,2,0,B|43:190|43:190|122:197,1,95.9999970703126,8|0,0:0|0:0,0:0:0:0:
139,305,41663,2,0,L|43:296,1,95.9999970703126,0|2,0:0|0:0,0:0:0:0:
205,210,41988,2,0,L|300:218,1,95.9999970703126,8|2,0:0|0:0,0:0:0:0:
395,226,42312,69,2,0:0:0:0:
354,146,42474,1,2,0:0:0:0:
246,290,42636,1,8,0:0:0:0:
176,125,42798,2,0,P|131:155|119:215,1,95.9999970703126,2|0,0:0|0:0,0:0:0:0:
264,145,43123,2,0,P|260:91|214:50,1,95.9999970703126,2|8,0:0|0:0,0:0:0:0:
205,210,43447,2,0,P|253:233|311:214,1,95.9999970703126,2|4,0:0|0:0,0:0:0:0:
369,115,43771,5,2,0:0:0:0:
425,237,43934,1,4,0:0:0:0:
501,128,44096,1,2,0:0:0:0:
293,226,44258,69,6,0:0:0:0:
245,231,44339,1,2,0:0:0:0:
204,207,44420,1,2,0:0:0:0:
164,182,44501,1,2,0:0:0:0:
116,177,44582,1,10,0:0:0:0:
73,197,44663,1,2,0:0:0:0:
48,237,44744,6,0,P|54:309|179:316,1,191.999994140625,4|0,0:0|0:0,0:0:0:0:
290,202,45231,2,0,P|243:203|200:225,1,95.9999970703126,8|0,0:0|0:0,0:0:0:0:
272,317,45555,2,0,P|319:315|361:293,1,95.9999970703126,2|2,0:0|0:0,0:0:0:0:
405,186,45880,1,8,0:0:0:0:
272,317,46042,70,0,B|216:321|216:321|149:295|149:295|85:301,1,191.999994140625,2|0,0:0|0:0,0:0:0:0:
28,203,46528,2,0,B|62:217|62:217|120:212,1,95.9999970703126,8|2,0:0|0:0,0:0:0:0:
321,247,46853,2,0,B|286:232|286:232|228:237,1,95.9999970703126,2|0,0:0|0:0,0:0:0:0:
153,319,47177,1,8,0:0:0:0:
195,131,47339,5,2,0:0:0:0:
195,131,47420,1,2,0:0:0:0:
195,131,47501,2,0,L|290:139,1,95.9999970703126,2|2,0:0|0:0,0:0:0:0:
395,258,47826,1,8,0:0:0:0:
239,289,47988,2,0,P|191:291|149:270,1,95.9999970703126,2|0,0:0|0:0,0:0:0:0:
33,168,48312,2,0,P|80:165|122:186,1,95.9999970703126,2|8,0:0|0:0,0:0:0:0:
208,205,48636,70,0,P|289:181|318:147,1,95.9999970703126,2|0,0:0|0:0,0:0:0:0:
408,77,48961,1,0,0:0:0:0:
408,77,49123,2,0,P|384:153|462:136,1,191.999994140625,8|2,0:0|0:0,0:0:0:0:
296,174,49609,2,0,P|344:234|391:246,1,95.9999970703126,2|8,0:0|0:0,0:0:0:0:
287,92,49934,6,0,P|231:123|216:161,1,95.9999970703126,4|0,0:0|0:0,0:0:0:0:
95,205,50258,2,0,P|141:198|183:220,1,95.9999970703126,2|8,0:0|0:0,0:0:0:0:
258,332,50582,1,2,0:0:0:0:
317,211,50744,1,2,0:0:0:0:
392,322,50907,1,0,0:0:0:0:
183,220,51069,69,8,0:0:0:0:
183,220,51231,2,0,B|140:199|140:199|61:206,1,95.9999970703126,2|0,0:0|0:0,0:0:0:0:
268,168,51555,1,2,0:0:0:0:
268,168,51717,2,0,B|311:147|311:147|390:154,1,95.9999970703126,8|0,0:0|0:0,0:0:0:0:
425,244,52042,2,0,L|321:234,1,95.9999970703126,0|2,0:0|0:0,0:0:0:0:
396,329,52366,2,0,L|292:319,1,95.9999970703126,8|2,0:0|0:0,0:0:0:0:
241,254,52690,5,2,0:0:0:0:
329,235,52853,1,2,0:0:0:0:
209,103,53015,1,8,0:0:0:0:
269,169,53177,1,2,0:0:0:0:
93,207,53339,1,2,0:0:0:0:
181,188,53501,2,0,P|203:233|255:258,1,95.9999970703126,2|8,0:0|0:0,0:0:0:0:
357,150,53826,70,0,P|307:146|259:179,1,95.9999970703126,2|8,0:0|0:0,0:0:0:0:
300,319,54150,2,0,P|327:281|328:233,1,95.9999970703126,2|8,0:0|0:0,0:0:0:0:
268,167,54474,1,2,0:0:0:0:
259,294,54636,5,10,0:0:0:0:
300,319,54717,1,2,0:0:0:0:
347,322,54798,1,2,0:0:0:0:
390,301,54880,1,2,0:0:0:0:
415,261,54961,1,10,0:0:0:0:
418,213,55042,1,2,0:0:0:0:
397,171,55123,1,4,0:0:0:0:
256,192,55204,12,8,59501,0:0:0:0:
344,189,59826,70,0,P|357:210|433:221,1,95.9999970703126,2|8,0:0|0:0,0:0:0:0:
377,301,60312,6,0,B|349:303|305:267|305:267|285:317|259:328,1,160,4|0,0:0|0:0,0:0:0:0:
239,216,60798,2,0,P|223:260|176:284,1,80,8|2,0:0|0:0,0:0:0:0:
117,268,61123,1,2,0:0:0:0:
239,216,61285,1,2,0:0:0:0:
133,137,61447,1,8,0:0:0:0:
223,347,61609,70,0,B|278:342|278:342|316:314|316:314|380:309,1,160,2|0,0:0|0:0,0:0:0:0:
497,220,62096,2,0,L|409:227,1,80,8|2,0:0|0:0,0:0:0:0:
323,228,62420,1,2,0:0:0:0:
404,74,62582,1,2,0:0:0:0:
497,220,62744,1,8,0:0:0:0:
300,120,62907,6,0,B|257:133|234:163|234:163|197:140|149:150,1,160,2|0,0:0|0:0,0:0:0:0:
251,55,63393,2,0,B|233:62|217:76|217:76|186:69|178:71,1,80,8|2,0:0|0:0,0:0:0:0:
252,257,63717,1,2,0:0:0:0:
157,148,63880,1,2,0:0:0:0:
300,120,64042,1,8,0:0:0:0:
111,285,64204,70,0,B|159:278|188:310|188:310|223:352|284:335,1,160,2|0,0:0|0:0,0:0:0:0:
327,236,64690,2,0,P|287:238|251:256,1,80,8|0,0:0|0:0,0:0:0:0:
103,213,65015,2,0,P|142:208|180:218,1,80
251,256,65339,1,8,0:0:0:0:
291,112,65501,6,0,P|258:53|213:105,1,160,4|0,0:0|0:0,0:0:0:0:
364,124,65988,2,0,P|369:85|358:46,1,80,8|2,0:0|0:0,0:0:0:0:
317,182,66312,1,2,0:0:0:0:
455,149,66474,1,0,0:0:0:0:
358,46,66636,1,8,0:0:0:0:
414,285,66798,70,0,B|358:289|358:289|316:268|316:268|252:274,1,160,2|0,0:0|0:0,0:0:0:0:
122,207,67285,2,0,L|209:198,1,80,8|2,0:0|0:0,0:0:0:0:
377,205,67609,1,2,0:0:0:0:
300,352,67771,1,0,0:0:0:0:
295,187,67934,1,8,0:0:0:0:
166,287,68096,6,0,P|79:291|35:219,1,160,2|0,0:0|0:0,0:0:0:0:
139,131,68582,2,0,P|139:171|121:206,1,80,8|2,0:0|0:0,0:0:0:0:
37,238,68907,1,2,0:0:0:0:
51,148,69069,1,0,0:0:0:0:
166,287,69231,1,8,0:0:0:0:
229,118,69393,70,0,P|305:102|373:142,1,160,2|0,0:0|0:0,0:0:0:0:
445,207,69880,2,0,L|435:310,1,80,8|2,0:0|0:0,0:0:0:0:
353,237,70204,2,0,L|345:316,1,80,2|2,0:0|0:0,0:0:0:0:
263,267,70528,1,10,0:0:0:0:
373,142,70690,6,0,B|336:167|297:157|297:157|243:138|197:177,1,160,4|0,0:0|0:0,0:0:0:0:
72,256,71177,2,0,P|112:261|150:251,1,80,8|2,0:0|0:0,0:0:0:0:
219,161,71501,1,2,0:0:0:0:
232,351,71663,1,2,0:0:0:0:
219,161,71826,1,8,0:0:0:0:
232,351,71988,70,0,B|288:345|288:345|330:366|330:366|386:362,1,160,2|0,0:0|0:0,0:0:0:0:
429,256,72474,2,0,L|333:264,1,80,8|2,0:0|0:0,0:0:0:0:
264,246,72798,1,2,0:0:0:0:
356,109,72961,1,2,0:0:0:0:
429,256,73123,1,8,0:0:0:0:
265,151,73285,6,0,B|221:148|187:190|187:190|161:218|105:215,1,160,2|0,0:0|0:0,0:0:0:0:
48,115,73771,2,0,P|87:110|124:123,1,80,8|2,0:0|0:0,0:0:0:0:
264,246,74096,2,0,P|316:260|347:250,1,80,2|2,0:0|0:0,0:0:0:0:
411,216,74420,1,8,0:0:0:0:
311,103,74582,70,0,B|263:115|248:150|248:150|210:112|164:129,1,160,2|0,0:0|0:0,0:0:0:0:
5,170,75069,2,0,P|35:195|74:201,1,80,8|0,0:0|0:0,0:0:0:0:
177,125,75393,1,10,0:0:0:0:
112,322,75555,1,10,0:0:0:0:
281,201,75717,1,10,0:0:0:0:
74,200,75880,1,6,0:0:0:0:
208,184,85934,21,2,0:0:0:0:
264,262,86096,1,2,0:0:0:0:
169,270,86258,1,2,0:0:0:0:
303,175,86420,6,0,P|346:178|390:182,1,80,4|0,0:0|0:0,0:0:0:0:
429,265,86744,1,8,0:0:0:0:
429,265,86907,2,0,B|395:278|395:278|339:273,1,80,2|0,0:0|0:0,0:0:0:0:
303,175,87231,1,2,0:0:0:0:
208,184,87393,1,8,0:0:0:0:
111,192,87555,70,0,P|104:239|118:279,1,80,2|0,0:0|0:0,0:0:0:0:
152,103,87880,2,0,P|159:64|150:25,1,80,2|8,0:0|0:0,0:0:0:0:
208,184,88204,2,0,B|315:176|315:176|371:197,1,160,2|0,0:0|0:0,0:0:0:0:
302,259,88690,1,8,0:0:0:0:
327,91,88853,6,0,L|167:104,1,160,2|0,0:0|0:0,0:0:0:0:
71,111,89339,1,8,0:0:0:0:
28,197,89501,2,0,P|66:206|105:200,1,80,2|0,0:0|0:0,0:0:0:0:
125,292,89826,2,0,P|161:275|188:246,1,80,2|8,0:0|0:0,0:0:0:0:
265,303,90150,70,0,B|291:269|298:239|261:200|283:172|315:134,1,160,2|0,0:0|0:0,0:0:0:0:
442,209,90636,2,0,P|403:218|364:210,1,80,8|0,0:0|0:0,0:0:0:0:
300,152,90961,1,2,0:0:0:0:
215,163,91123,1,2,0:0:0:0:
265,303,91285,2,0,L|344:309,1,80,8|0,0:0|0:0,0:0:0:0:
207,245,91609,6,0,L|127:238,1,80,4|0,0:0|0:0,0:0:0:0:
31,229,91934,1,8,0:0:0:0:
86,150,92096,2,0,B|129:153|129:153|163:140,1,80,2|0,0:0|0:0,0:0:0:0:
288,46,92420,2,0,B|245:43|245:43|211:56,1,80,2|8,0:0|0:0,0:0:0:0:
259,134,92744,70,0,L|354:142,1,80,2|0,0:0|0:0,0:0:0:0:
230,222,93069,2,0,L|309:228,1,80,2|8,0:0|0:0,0:0:0:0:
201,310,93393,2,0,B|321:321|321:321|365:305,1,160,2|0,0:0|0:0,0:0:0:0:
402,226,93880,1,8,0:0:0:0:
309,228,94042,1,2,0:0:0:0:
451,305,94204,6,0,P|488:255|495:213,1,80,2|2,0:0|0:0,0:0:0:0:
458,155,94528,1,8,0:0:0:0:
358,307,94690,2,0,L|278:313,1,80,2|0,0:0|0:0,0:0:0:0:
309,228,95015,2,0,L|229:234,1,80,2|8,0:0|0:0,0:0:0:0:
186,316,95339,70,0,P|147:281|162:171,1,160,2|0,0:0|0:0,0:0:0:0:
237,141,95826,2,0,L|332:149,1,80,8|0,0:0|0:0,0:0:0:0:
356,234,96150,1,2,0:0:0:0:
411,155,96312,1,2,0:0:0:0:
452,243,96474,1,2,0:0:0:0:
316,147,96636,6,0,B|277:144|277:144|238:164,1,80,4|0,0:0|0:0,0:0:0:0:
87,204,96961,2,0,B|126:200|126:200|163:219,1,80,2|8,0:0|0:0,0:0:0:0:
251,258,97285,2,0,B|297:230|297:230|428:248,1,160,2|2,0:0|0:0,0:0:0:0:
496,263,97771,1,8,0:0:0:0:
432,334,97934,70,0,B|326:319|326:319|280:347,1,160,2|0,0:0|0:0,0:0:0:0:
188,328,98420,2,0,P|160:288|162:231,1,80,8|2,0:0|0:0,0:0:0:0:
293,194,98744,2,0,P|279:230|249:256,1,80,2|0,0:0|0:0,0:0:0:0:
156,257,99069,1,8,0:0:0:0:
198,176,99231,1,2,0:0:0:0:
297,334,99393,6,0,L|377:328,1,80,2|2,0:0|0:0,0:0:0:0:
472,317,99717,1,8,0:0:0:0:
416,240,99880,2,0,L|336:246,1,80,2|0,0:0|0:0,0:0:0:0:
446,154,100204,2,0,L|367:161,1,80,2|8,0:0|0:0,0:0:0:0:
336,246,100528,70,0,P|281:197|304:97,1,160,2|0,0:0|0:0,0:0:0:0:
367,161,101015,1,8,0:0:0:0:
199,227,101177,2,0,P|159:229|122:214,1,80,2|2,0:0|0:0,0:0:0:0:
97,120,101501,2,0,P|136:117|173:132,1,80,2|8,0:0|0:0,0:0:0:0:
269,158,101826,6,0,B|319:155|319:155|375:180|375:180|445:177,1,160,4|0,0:0|0:0,0:0:0:0:
473,83,102312,2,0,L|393:89,1,80,8|2,0:0|0:0,0:0:0:0:
299,246,102636,1,2,0:0:0:0:
423,177,102798,1,2,0:0:0:0:
269,158,102961,1,8,0:0:0:0:
453,265,103123,70,0,B|388:266|385:303|382:351|287:345,1,160,2|0,0:0|0:0,0:0:0:0:
220,237,103609,2,0,P|260:233|298:245,1,80,8|2,0:0|0:0,0:0:0:0:
322,344,103934,1,2,0:0:0:0:
387,125,104096,2,0,L|308:132,1,80,2|8,0:0|0:0,0:0:0:0:
211,121,104420,6,0,L|132:114,1,80,2|0,0:0|0:0,0:0:0:0:
35,104,104744,1,0,0:0:0:0:
75,191,104907,1,8,0:0:0:0:
187,35,105069,2,0,L|346:48,1,160,2|2,0:0|0:0,0:0:0:0:
442,60,105555,1,8,0:0:0:0:
311,197,105717,70,0,P|290:163|288:124,1,80,2|0,0:0|0:0,0:0:0:0:
346,48,106042,1,0,0:0:0:0:
384,136,106204,1,8,0:0:0:0:
238,260,106366,2,0,P|198:191|193:112,1,160,2|2,0:0|0:0,0:0:0:0:
255,36,106853,1,8,0:0:0:0:
361,101,107015,6,0,P|327:122|288:127,1,80,4|0,0:0|0:0,0:0:0:0:
200,120,107339,1,2,0:0:0:0:
200,120,107420,1,2,0:0:0:0:
200,120,107501,1,8,0:0:0:0:
99,131,107663,1,2,0:0:0:0:
99,131,107744,1,2,0:0:0:0:
99,131,107826,2,0,P|86:168|90:208,1,80,2|2,0:0|0:0,0:0:0:0:
118,299,108150,1,8,0:0:0:0:
181,230,108312,70,0,P|220:225|259:237,1,80,2|0,0:0|0:0,0:0:0:0:
384,327,108636,1,2,0:0:0:0:
384,327,108798,2,0,P|345:331|307:320,1,80,8|0,0:0|0:0,0:0:0:0:
323,164,109123,2,0,P|346:197|354:235,1,80,2|0,0:0|0:0,0:0:0:0:
211,299,109447,2,0,P|228:263|257:237,1,80,8|2,0:0|0:0,0:0:0:0:
354,235,109771,6,0,L|442:227,1,80,2|2,0:0|0:0,0:0:0:0:
475,140,110096,1,8,0:0:0:0:
379,148,110258,2,0,B|323:152|323:152|285:180|285:180|221:185,1,160,2|2,0:0|0:0,0:0:0:0:
255,93,110744,1,8,0:0:0:0:
195,275,110907,70,0,P|139:221|144:141,1,160,2|0,0:0|0:0,0:0:0:0:
255,93,111393,1,8,0:0:0:0:
379,148,111555,2,0,B|323:152|323:152|285:180|285:180|221:185,1,160,2|0,0:0|0:0,0:0:0:0:
142,143,112042,1,8,0:0:0:0:
195,275,112204,6,0,L|274:268,1,80,4|0,0:0|0:0,0:0:0:0:
370,258,112528,1,0,0:0:0:0:
370,258,112609,1,2,0:0:0:0:
370,258,112690,1,8,0:0:0:0:
313,180,112853,1,2,0:0:0:0:
313,180,112934,1,2,0:0:0:0:
313,180,113015,2,0,L|234:187,1,80,2|0,0:0|0:0,0:0:0:0:
137,195,113339,1,8,0:0:0:0:
118,291,113501,70,0,P|158:292|194:274,1,80,2|0,0:0|0:0,0:0:0:0:
308,169,113826,1,2,0:0:0:0:
308,169,113988,2,0,P|268:168|232:186,1,80,8|0,0:0|0:0,0:0:0:0:
379,232,114312,2,0,P|399:197|401:158,1,80,2|0,0:0|0:0,0:0:0:0:
289,263,114636,2,0,P|308:297|341:319,1,80,8|2,0:0|0:0,0:0:0:0:
308,169,114961,6,0,P|268:168|232:186,1,80,2|0,0:0|0:0,0:0:0:0:
162,251,115285,1,8,0:0:0:0:
70,223,115447,2,0,P|46:174|54:124,1,80,2|0,0:0|0:0,0:0:0:0:
100,72,115771,1,2,0:0:0:0:
140,158,115934,1,8,0:0:0:0:
195,81,116096,70,0,L|354:94,1,160,2|2,0:0|0:0,0:0:0:0:
449,103,116582,1,8,0:0:0:0:
408,16,116744,1,0,0:0:0:0:
394,181,116907,5,4,3:0:0:0:
360,202,116988,1,4,3:0:0:0:
322,213,117069,1,4,3:0:0:0:
282,213,117150,1,4,3:0:0:0:
243,202,117231,2,0,L|199:198,3,40,8|8|8|8,3:0|3:0|3:0|3:0,0:0:0:0:
166,173,117555,22,0,P|143:237|177:300,1,128,4|2,0:0|0:0,0:0:0:0:
243,333,118042,2,0,B|284:312|284:312|372:320,1,128,2|0,0:0|0:0,0:0:0:0:
447,283,118528,2,0,P|456:255|452:219,1,64,2|0,0:0|0:0,0:0:0:0:
422,122,118853,70,0,B|358:116|358:116|303:148,1,128,2|2,0:0|0:0,0:0:0:0:
239,227,119339,2,0,P|206:174|210:111,1,128,2|0,0:0|0:0,0:0:0:0:
339,241,119826,2,0,P|310:299|289:317,1,64,2|2,0:0|0:0,0:0:0:0:
214,325,120150,6,0,P|153:305|91:316,1,128,2|2,0:0|0:0,0:0:0:0:
25,377,120636,2,0,B|5:329|5:329|13:241,1,128,2|0,0:0|0:0,0:0:0:0:
22,163,121123,2,0,L|85:157,1,64,2|0,0:0|0:0,0:0:0:0:
167,194,121447,70,0,P|228:214|290:203,1,128
365,155,121934,1,2,0:0:0:0:
448,184,122096,2,0,B|456:264,1,64,2|0,0:0|0:0,0:0:0:0:
463,336,122420,1,2,0:0:0:0:
381,299,122582,54,0,P|309:273|243:314,1,160,4|0,0:0|0:0,0:0:0:0:
155,301,123069,2,0,P|138:260|146:205,1,80,8|0,0:0|0:0,0:0:0:0:
178,146,123393,2,0,B|218:149|218:149|262:135,1,80,2|0,0:0|0:0,0:0:0:0:
338,106,123717,1,8,0:0:0:0:
419,141,123880,6,0,P|445:213|404:279,1,160,2|0,0:0|0:0,0:0:0:0:
323,332,124366,2,0,P|287:314|247:314,1,80,8|0,0:0|0:0,0:0:0:0:
152,324,124690,1,0,0:0:0:0:
57,334,124853,1,2,0:0:0:0:
95,246,125015,1,8,0:0:0:0:
133,158,125177,1,2,0:0:0:0:
190,236,125339,69,2,0:0:0:0:
190,236,125501,2,0,L|277:228,1,80,2|8,0:0|0:0,0:0:0:0:
327,306,125826,1,2,0:0:0:0:
327,306,125988,2,0,L|240:314,1,80,2|0,0:0|0:0,0:0:0:0:
290,142,126312,5,8,0:0:0:0:
290,142,126474,2,0,L|377:150,1,80,2|0,0:0|0:0,0:0:0:0:
190,236,126798,1,2,0:0:0:0:
190,236,126961,2,0,L|103:244,1,80,8|0,0:0|0:0,0:0:0:0:
233,151,127285,2,0,L|145:158,1,80,2|0,0:0|0:0,0:0:0:0:
276,66,127609,2,0,L|188:73,1,80,8|0,0:0|0:0,0:0:0:0:
329,146,127934,69,2,0:0:0:0:
329,146,128096,2,0,L|417:153,1,80,2|8,0:0|0:0,0:0:0:0:
493,322,128420,1,2,0:0:0:0:
493,322,128582,2,0,L|414:315,1,80,2|0,0:0|0:0,0:0:0:0:
249,139,128907,5,8,0:0:0:0:
249,139,129069,2,0,L|329:146,1,80,2|2,0:0|0:0,0:0:0:0:
215,242,129393,1,0,0:0:0:0:
215,242,129555,2,0,L|135:234,1,80,8|0,0:0|0:0,0:0:0:0:
39,223,129880,1,2,0:0:0:0:
144,81,130042,1,2,0:0:0:0:
215,242,130204,70,0,P|270:228|298:204,1,71.9999978027344,8|0,0:0|0:0,0:0:0:0:
317,187,130528,54,0,L|325:282,1,80,4|0,0:0|0:0,0:0:0:0:
432,297,130853,2,0,L|424:202,1,80,8|0,0:0|0:0,0:0:0:0:
397,108,131177,1,2,0:0:0:0:
317,187,131339,1,2,0:0:0:0:
289,79,131501,1,8,0:0:0:0:
344,294,131663,6,0,B|279:306|260:284|239:240|160:282,1,160,2|0,0:0|0:0,0:0:0:0:
118,298,132150,2,0,P|79:305|42:293,1,80,8|0,0:0|0:0,0:0:0:0:
85,226,132474,1,2,0:0:0:0:
156,368,132636,1,2,0:0:0:0:
190,269,132798,1,8,0:0:0:0:
41,293,132961,70,0,P|4:235|43:157,1,160,2|0,0:0|0:0,0:0:0:0:
144,118,133447,2,0,P|191:148|242:151,1,80,8|0,0:0|0:0,0:0:0:0:
325,138,133771,1,2,0:0:0:0:
286,241,133934,1,0,0:0:0:0:
395,224,134096,1,8,0:0:0:0:
214,152,134258,6,0,B|181:189|176:220|176:220|144:201|95:213,1,160,2|0,0:0|0:0,0:0:0:0:
131,125,134744,1,8,0:0:0:0:
286,213,134907,2,0,P|250:222|257:258,1,80,2|0,0:0|0:0,0:0:0:0:
103,304,135231,2,0,P|131:281|156:308,1,80,2|8,0:0|0:0,0:0:0:0:
249,368,135555,70,0,B|304:372|304:372|354:353|354:353|426:359,1,160,4|0,0:0|0:0,0:0:0:0:
488,264,136042,2,0,L|400:271,1,80,8|0,0:0|0:0,0:0:0:0:
324,98,136366,1,2,0:0:0:0:
316,208,136528,1,2,0:0:0:0:
416,160,136690,1,8,0:0:0:0:
224,146,136853,6,0,P|207:212|261:305,1,160,2|0,0:0|0:0,0:0:0:0:
291,175,137339,2,0,P|280:221|305:249,1,80,8|0,0:0|0:0,0:0:0:0:
354,203,137663,1,2,0:0:0:0:
224,146,137826,1,2,0:0:0:0:
244,292,137988,1,8,0:0:0:0:
107,236,138150,70,0,B|154:235|160:197|160:197|127:153|156:98,1,160,2|0,0:0|0:0,0:0:0:0:
289,98,138636,2,0,P|303:134|297:173,1,80,8|0,0:0|0:0,0:0:0:0:
244,292,138961,1,2,0:0:0:0:
224,146,139123,1,0,0:0:0:0:
244,292,139285,1,8,0:0:0:0:
224,146,139447,6,0,B|289:134|308:156|329:200|408:158,1,160,2|0,0:0|0:0,0:0:0:0:0
431,90,139934,2,0,P|394:75|354:75,1,80,8|0,0:0|0:0,0:0:0:0:
224,146,140258,1,2,0:0:0:0:
237,55,140420,1,2,0:0:0:0:
255,231,140582,1,8,0:0:0:0:
237,55,140744,70,0,P|182:65|133:155,1,160,4|0,0:0|0:0,0:0:0:0:
243,219,141231,2,0,P|245:180|226:145,1,80,8|2,0:0|0:0,0:0:0:0:
95,19,141555,1,2,0:0:0:0:
132,149,141717,1,0,0:0:0:0:
237,55,141880,1,8,0:0:0:0:
243,219,142042,6,0,B|305:231|324:209|341:175|404:198,1,160,2|0,0:0|0:0,0:0:0:0:
450,293,142528,2,0,P|410:293|373:278,1,80,8|0,0:0|0:0,0:0:0:0:
270,139,142853,1,2,0:0:0:0:
275,308,143015,1,2,0:0:0:0:
243,219,143177,1,8,0:0:0:0:
373,278,143339,70,0,P|455:253|471:158,1,160,2|0,0:0|0:0,0:0:0:0:
300,138,143826,2,0,L|309:241,1,80,8|0,0:0|0:0,0:0:0:0:
373,278,144150,1,2,0:0:0:0:
215,163,144312,1,0,0:0:0:0:
385,113,144474,1,8,0:0:0:0:
373,278,144636,6,0,B|329:321|278:302|278:302|247:321|236:362,1,160,2|0,0:0|0:0,0:0:0:0:
180,249,145123,1,8,0:0:0:0:
318,195,145285,2,0,P|300:237|286:202,1,80,2|0,0:0|0:0,0:0:0:0:
216,145,145609,2,0,P|233:107|247:142,1,80,2|8,0:0|0:0,0:0:0:0:
180,249,145934,70,0,P|139:286|40:239,1,160,4|0,0:0|0:0,0:0:0:0:
105,133,146420,2,0,L|112:213,1,80,8|0,0:0|0:0,0:0:0:0:
126,366,146744,1,2,0:0:0:0:
180,249,146907,1,0,0:0:0:0:
48,255,147069,1,8,0:0:0:0:
105,133,147231,6,0,P|146:96|245:143,1,160,2|0,0:0|0:0,0:0:0:0:
275,231,147717,2,0,B|316:236|316:236|384:215,1,80,8|0,0:0|0:0,0:0:0:0:
503,184,148042,2,0,B|462:179|462:179|426:191,1,80,2|2,0:0|0:0,0:0:0:0:
352,224,148366,1,8,0:0:0:0:
354,69,148528,70,0,B|344:97|360:140|360:140|410:146|426:191,1,160,2|0,0:0|0:0,0:0:0:0:
337,302,149015,2,0,P|301:287|279:254,1,80,8|0,0:0|0:0,0:0:0:0:
218,160,149339,2,0,L|122:168,1,80,2|0,0:0|0:0,0:0:0:0:
26,175,149663,1,8,0:0:0:0:
79,45,149826,6,0,B|138:69|138:69|234:59,1,160,2|0,0:0|0:0,0:0:0:0:
218,160,150312,2,0,L|122:168,1,80,8|0,0:0|0:0,0:0:0:0:
202,260,150636,1,10,0:0:0:0:
296,223,150798,1,2,0:0:0:0:
390,186,150961,1,10,0:0:0:0:
234,60,151123,1,4,0:0:0:0:
256,192,151204,12,8,155501,0:0:0:0:
117,134,155826,70,0,P|190:100|199:73,1,95.9999970703126,2|8,0:0|0:0,0:0:0:0:
256,138,156312,6,0,P|231:171|113:210,1,160,4|0,0:0|0:0,0:0:0:0:
65,307,156798,2,0,P|103:321|171:311,1,80,8|2,0:0|0:0,0:0:0:0:
253,304,157123,2,0,L|259:375,1,40,2|0,0:0|0:0,0:0:0:0:
300,309,157285,2,0,L|306:380,1,40,0|0,0:0|0:0,0:0:0:0:
347,314,157447,2,0,L|350:353,1,40,8|0,0:0|0:0,0:0:0:0:
437,247,157609,70,0,P|366:201|293:215,1,160,0|2,0:0|0:0,0:0:0:0:
197,269,158096,2,0,P|183:231|193:163,1,80,8|2,0:0|0:0,0:0:0:0:
258,106,158420,2,0,L|264:35,1,40,2|0,0:0|0:0,0:0:0:0:
305,101,158582,2,0,L|311:30,1,40,2|0,0:0|0:0,0:0:0:0:
352,96,158744,2,0,L|355:56,1,40,8|0,0:0|0:0,0:0:0:0:
399,91,158907,1,2,0:0:0:0:
342,220,159069,6,0,L|246:228,1,80,4|2,0:0|0:0,0:0:0:0:
178,112,159393,2,0,L|273:103,1,80,4|2,0:0|0:0,0:0:0:0:
358,236,159717,2,0,L|243:247,1,80,4|2,0:0|0:0,0:0:0:0:
162,96,160042,2,0,L|277:85,1,80,4|2,0:0|0:0,0:0:0:0:
321,82,160366,69,4,0:0:0:0:
199,250,160528,1,2,0:0:0:0:
162,96,160690,1,4,0:0:0:0:
358,236,160853,1,2,0:0:0:0:
402,25,161015,1,4,0:0:0:0:
368,3,161096,1,2,0:0:0:0:
331,11,161177,1,2,0:0:0:0:
311,45,161258,1,2,0:0:0:0:
321,82,161339,1,8,0:0:0:0:
413,181,161501,6,0,P|434:220|375:313,1,160,4|0,0:0|0:0,0:0:0:0:
264,271,161988,1,8,0:0:0:0:
264,271,162150,2,0,B|216:275|216:275|158:248|158:248|110:252,1,160,2|0,0:0|0:0,0:0:0:0:
234,174,162636,1,8,0:0:0:0:
234,174,162798,70,0,P|300:179|352:230,1,120,2|0,0:0|0:0,0:0:0:0:
377,248,163123,2,0,P|369:164|433:114,1,160,2|2,0:0|0:0,0:0:0:0:
449,200,163609,1,2,0:0:0:0:
377,248,163771,1,2,0:0:0:0:
305,296,163934,2,0,L|225:289,1,80,8|2,0:0|0:0,0:0:0:0:
122,277,164258,5,2,0:0:0:0:
122,277,164339,1,2,0:0:0:0:
122,277,164420,1,2,0:0:0:0:
81,182,164582,2,0,P|93:115|116:89,1,80,8|0,0:0|0:0,0:0:0:0:
185,165,164907,1,2,0:0:0:0:
185,165,164988,1,2,0:0:0:0:
185,165,165069,1,2,0:0:0:0:
280,206,165231,2,0,P|347:194|373:171,1,80,8|0,0:0|0:0,0:0:0:0:
322,40,165555,70,0,P|303:75|300:115,1,80,2|0,0:0|0:0,0:0:0:0:
445,157,165880,2,0,P|424:123|391:100,1,80,8|0,0:0|0:0,0:0:0:0:
216,42,166204,1,2,0:0:0:0:
280,206,166366,1,2,0:0:0:0:
391,100,166528,1,8,0:0:0:0:
136,141,166690,6,0,P|70:118|-10:182,1,160,4|0,0:0|0:0,0:0:0:0:
76,209,167177,2,0,P|140:232|174:225,1,80,8|0,0:0|0:0,0:0:0:0:
253,217,167501,1,2,0:0:0:0:
214,314,167663,1,0,0:0:0:0:
317,300,167826,1,8,0:0:0:0:
150,231,167988,70,0,P|174:148|244:112,1,160,2|0,0:0|0:0,0:0:0:0:
337,125,168474,2,0,B|379:128|379:128|443:102,1,80,8|0,0:0|0:0,0:0:0:0:
365,32,168798,1,2,0:0:0:0:
393,223,168961,1,0,0:0:0:0:
460,31,169123,1,8,0:0:0:0:
337,125,169285,6,0,P|276:126|235:145,1,80,2|0,0:0|0:0,0:0:0:0:
170,200,169609,1,0,0:0:0:0:
160,238,169690,1,2,0:0:0:0:
167,277,169771,1,8,0:0:0:0:
191,308,169853,1,2,0:0:0:0:
227,326,169934,1,2,0:0:0:0:
266,327,170015,1,2,0:0:0:0:
302,311,170096,2,0,P|351:293|395:308,1,80,2|2,0:0|0:0,0:0:0:0:
483,335,170420,1,8,0:0:0:0:
462,224,170582,70,0,L|448:64,1,160,2|0,0:0|0:0,0:0:0:0:
368,143,171069,2,0,P|327:175|273:170,1,80,8|0,0:0|0:0,0:0:0:0:
219,127,171393,5,2,0:0:0:0:
216,222,171555,1,2,0:0:0:0:
137,76,171717,1,8,0:0:0:0:
131,266,171880,70,0,B|157:323|241:337|287:285|287:285|311:313|348:316|352:312|380:308|416:348,1,320,4|0,0:0|0:0,0:0:0:0:
