osu file format v14

[General]
AudioFilename: audio.mp3
AudioLeadIn: 0
PreviewTime: 33252
Countdown: 0
SampleSet: Soft
StackLeniency: 0.7
Mode: 0
LetterboxInBreaks: 0
WidescreenStoryboard: 0

[Editor]
Bookmarks: 107036,117738
DistanceSpacing: 0.4
BeatDivisor: 4
GridSize: 4
TimelineZoom: 2.459999

[Metadata]
Title:Kimi no Yozora Shoukaihan
TitleUnicode:キミノヨゾラ哨戒班
Artist:Orangestar
ArtistUnicode:Orangestar
Creator:kanor
Version:sunflower's Insane
Source:
Tags:ia vocaloid asu [_abhor_] -Sunflower- Hakurei Yoru Awaken アスノヨゾラ哨戒班 Lobelia Japanese lobelia sunflower
BeatmapID:1031773
BeatmapSetID:480945

[Difficulty]
HPDrainRate:6
CircleSize:4
OverallDifficulty:7
ApproachRate:9
SliderMultiplier:1.4
SliderTickRate:1

[Events]
//Background and Video events
0,0,"BG.jpg",0,0
//Break Periods
2,76101,85192
//Storyboard Layer 0 (Background)
//Storyboard Layer 1 (Fail)
//Storyboard Layer 2 (Pass)
//Storyboard Layer 3 (Foreground)
//Storyboard Layer 4 (Overlay)
//Storyboard Sound Samples

[TimingPoints]
820,324.324324324324,4,2,17,20,1,0
820,-133.333333333333,4,2,17,20,0,0
11198,-100,4,2,17,40,0,0
21090,-200,4,2,17,40,0,0
21252,-100,4,2,17,40,0,0
21576,-100,4,2,17,30,0,0
22225,-200,4,2,17,30,0,0
26765,-100,4,2,17,65,0,0
31955,-100,4,2,17,65,0,0
32279,-100,4,2,17,65,0,0
33901,-74.0740740740741,4,2,17,65,0,0
34387,-83.3333333333333,4,2,17,65,0,1
44117,-83.3333333333333,4,2,17,65,0,0
44765,-83.3333333333333,4,2,17,65,0,1
55144,-83.3333333333333,4,2,17,65,0,0
55630,-83.3333333333333,4,2,17,70,0,0
85792,-133.333333333333,4,2,17,70,0,0
86441,-83.3333333333333,4,2,17,60,0,0
128603,-100,4,2,17,60,0,0
129252,-100,4,2,17,60,0,0
129901,-100,4,2,17,60,0,0
130549,-74.0740740740741,4,2,17,65,0,1
140117,-74.0740740740741,4,2,17,65,0,0
140765,-74.0740740740741,4,2,17,65,0,1
151144,-100,4,2,17,70,0,1
151306,-74.0740740740741,4,2,17,70,0,0
152603,-100,4,2,17,70,0,0
156171,-74.0740740740741,4,2,17,70,0,0
171901,-100,4,2,17,70,0,0
171982,-100,4,2,17,5,0,0

[Colours]
Combo1 : 117,117,123
Combo2 : 177,172,63
Combo3 : 81,88,153
Combo4 : 154,88,86

[HitObjects]
128,64,820,6,0,L|120:136,1,52.5000020027161,2|0,0:0|0:0,0:0:0:0:
160,192,1144,1,0,0:0:0:0:
160,192,1306,2,0,P|208:208|264:192,1,105.000004005432,2|2,0:0|0:0,0:0:0:0:
212,128,1792,1,0,0:0:0:0:
160,280,1955,2,0,L|48:272,1,105.000004005432,0|0,0:0|0:0,0:0:0:0:
232,336,2603,5,2,0:0:0:0:
312,320,2765,2,0,L|376:328,2,52.5000020027161,0|2|0,0:0|0:0|0:0,0:0:0:0:
256,256,3252,2,0,P|256:192|280:152,1,105.000004005432,0|0,0:0|0:0,0:0:0:0:
176,272,3901,5,2,0:0:0:0:
104,216,4063,2,0,L|32:208,2,52.5000020027161,0|2|0,0:0|0:0|0:0,0:0:0:0:
184,192,4549,2,0,P|184:128|160:88,1,105.000004005432,0|0,0:0|0:0,0:0:0:0:
84,56,5036,1,0,0:0:0:0:
96,144,5198,1,0,0:0:0:0:
164,93,5360,2,0,L|236:93,1,52.5000020027161,2|0,0:0|0:0,0:0:0:0:
288,144,5684,1,0,0:0:0:0:
368,96,5847,6,0,P|368:192|352:216,1,105.000004005432,2|0,0:0|0:0,0:0:0:0:
312,264,6333,1,0,0:0:0:0:
312,264,6495,2,0,L|244:256,2,52.5000020027161,2|0|2,0:0|0:0|0:0,0:0:0:0:
392,312,6982,1,0,0:0:0:0:
444,236,7144,2,0,P|456:188|440:120,1,105.000004005432,0|0,0:0|0:0,0:0:0:0:
64,176,7792,5,2,0:0:0:0:
184,144,7955,1,0,0:0:0:0:
80,248,8117,1,2,0:0:0:0:
112,120,8279,1,0,0:0:0:0:
200,216,8441,2,0,P|256:232|312:208,1,105.000004005432
260,96,8928,2,0,P|252:128|252:160,1,52.5000020027161,0|2,0:0|0:0,0:0:0:0:
372,264,9252,1,0,0:0:0:0:
372,264,9414,2,0,P|376:208|372:192,1,52.5000020027161,2|0,0:0|0:0,0:0:0:0:
276,316,9738,2,0,B|232:296|200:324|200:324|172:288,1,105.000004005432,2|2,0:0|0:0,0:0:0:0:
220,232,10225,2,0,P|228:180|196:132,1,105.000004005432,2|0,0:0|0:0,0:0:0:0:
80,212,10711,5,0,0:0:0:0:
100,124,10874,1,0,3:0:0:0:
16,152,11036,1,0,0:0:0:0:
176,180,11198,6,0,L|320:164,1,140,4|0,0:0|1:0,0:0:0:0:
376,108,11684,2,0,B|360:148|360:148|376:264,1,140,0|0,0:0|0:0,0:0:0:0:
440,360,12171,2,0,P|452:304|444:268,1,70,0|0,1:0|0:0,0:0:0:0:
373,244,12495,1,2,0:1:0:0:
300,369,12657,2,0,L|468:357,1,140,0|0,0:0|0:0,0:0:0:0:
232,244,13144,6,0,P|228:292|232:332,1,70,2|0,0:1|0:0,0:0:0:0:
296,180,13468,1,0,1:0:0:0:
208,156,13630,2,0,L|60:148,1,140,0|0,0:0|0:0,0:0:0:0:
288,112,14117,2,0,P|299:161|292:192,1,70,0|0,1:0|0:0,0:0:0:0:
163,256,14441,5,2,0:1:0:0:
163,256,14603,2,0,P|211:244|263:248,1,70,0|0,0:0|1:0,0:0:0:0:
324,268,14928,2,0,P|388:300|452:272,1,140,0|0,0:0|0:0,0:0:0:0:
456,188,15414,1,0,1:0:0:0:
456,188,15576,2,0,P|392:156|328:184,1,140,0|0,0:0|0:0,0:0:0:0:
231,243,16063,1,0,1:0:0:0:
231,243,16144,1,0,0:0:0:0:
231,243,16225,6,0,L|219:95,1,140,0|0,0:0|0:0,0:0:0:0:
172,16,16711,2,0,B|160:56|160:56|200:4|272:44,1,140,0|2,1:0|0:1,0:0:0:0:
376,100,17360,1,0,1:0:0:0:
376,100,17522,2,0,L|284:88,1,70,0|2,0:0|0:1,0:0:0:0:
80,114,17847,2,0,L|219:102,1,140,0|2,0:0|0:0,0:0:0:0:
356,332,18495,6,0,P|372:288|368:256,1,70,0|0,0:0|1:0,0:0:0:0:
152,292,18819,2,0,L|291:280,1,140,2|0,0:0|0:0,0:0:0:0:
369,265,19306,1,0,1:0:0:0:
369,265,19468,2,0,P|383:297|384:332,1,70,2|2,0:0|0:1,0:0:0:0:
312,204,19792,2,0,L|324:40,1,140,0|0,0:0|0:0,0:0:0:0:
322,64,20279,5,2,0:1:0:0:
312,204,20441,1,0,0:0:0:0:
244,104,20603,1,0,1:0:0:0:
456,120,20765,1,2,0:0:0:0:
456,120,21090,6,0,L|496:124,2,35,4|4|4,0:3|0:3|0:3,1:0:0:0:
456,120,21576,1,4,0:0:0:0:
368,256,22225,2,0,B|324:240|296:252|296:252|264:272|220:252,1,140,0|2,0:0|0:0,0:0:0:0:
176,128,23522,2,0,P|168:168|168:200,1,70,0|0,0:0|0:0,0:0:0:0:
232,256,24171,5,2,0:0:0:0:
368,176,24819,1,0,0:0:0:0:
167,197,25468,1,2,0:0:0:0:
332,256,26117,1,2,0:0:0:0:
160,52,26765,6,0,B|148:104|156:148|156:148,1,70,4|0,0:0|0:0,0:0:0:0:
216,188,27090,1,0,1:0:0:0:
320,124,27252,2,0,P|272:108|248:108,1,70,0|2,0:0|0:1,0:0:0:0:
209,257,27576,2,0,P|217:209|213:173,1,70,0|0,0:0|1:0,0:0:0:0:
153,121,27901,1,0,0:0:0:0:
64,216,28063,6,0,L|140:204,1,70,2|0,0:1|0:0,0:0:0:0:
253,107,28387,1,0,1:0:0:0:
372,204,28549,2,0,L|304:192,1,70,0|2,0:0|0:1,0:0:0:0:
253,107,28874,1,0,0:0:0:0:
253,107,28955,1,0,0:0:0:0:
253,107,29036,2,0,P|244:56|252:20,1,70,0|0,1:1|0:0,0:0:0:0:
168,224,29360,5,2,0:1:0:0:
168,224,29522,2,0,P|177:173|169:137,1,70,2|0,0:0|1:0,0:0:0:0:
104,92,29847,1,2,0:0:0:0:
16,192,30009,2,0,L|92:180,1,70,2|0,0:1|0:0,0:0:0:0:
212,76,30333,1,0,1:0:0:0:
344,156,30495,2,0,L|268:144,1,70,2|2,0:0|0:1,0:0:0:0:
212,76,30819,5,2,0:0:0:0:
236,224,30982,1,0,1:0:0:0:
304,64,31144,1,0,0:0:0:0:
120,168,31306,2,0,L|188:156,1,70,2|0,1:0|0:0,0:0:0:0:
212,76,31630,1,2,1:0:0:0:
52,112,31792,1,0,0:0:0:0:
256,192,31874,12,0,33576,0:0:0:0:
168,340,33901,5,0,1:0:0:0:
196,176,34063,1,0,0:0:0:0:
96,264,34225,1,0,3:0:0:0:
256,240,34387,6,0,L|396:220,1,125.999996154785,4|0,0:0|0:0,0:0:0:0:
416,252,34711,2,0,L|408:352,1,83.9999974365235,2|8,0:3|0:3,0:0:0:0:
255,239,35036,1,0,0:0:0:0:
255,239,35117,1,0,0:0:0:0:
255,239,35198,2,0,L|252:156,1,83.9999974365235,2|2,0:3|0:3,0:0:0:0:
248,20,35522,1,8,0:3:0:0:
328,76,35684,6,0,P|288:104|168:76,1,167.999994873047,2|2,0:3|0:3,0:0:0:0:
20,144,36171,2,0,P|92:132|128:136,1,83.9999974365235,8|0,0:3|0:0,0:0:0:0:
180,172,36495,2,0,L|164:348,1,167.999994873047,2|8,0:3|0:3,0:0:0:0:
164,339,36982,1,2,0:3:0:0:
180,172,37144,5,0,0:0:0:0:
88,248,37306,1,2,0:3:0:0:
256,264,37468,1,8,0:3:0:0:
196,90,37630,2,0,P|180:142|180:182,1,83.9999974365235,0|2,0:0|0:3,0:0:0:0:
256,264,37955,1,2,0:3:0:0:
468,184,38117,1,8,0:3:0:0:
468,184,38198,1,0,0:0:0:0:
468,184,38279,6,0,L|280:160,1,167.999994873047,2|2,0:3|0:3,0:0:0:0:
212,220,38765,2,0,P|136:264|44:208,1,167.999994873047,8|2,0:3|0:3,0:0:0:0:
112,92,39252,2,0,P|132:160|128:200,1,83.9999974365235,2|8,0:3|0:3,0:0:0:0:
208,320,39495,1,0,0:0:0:0:
208,320,39576,6,0,L|216:140,1,167.999994873047,4|2,0:0|0:3,0:0:0:0:
218,68,40063,1,8,0:3:0:0:
218,68,40387,2,0,L|214:176,1,83.9999974365235,2|2,0:3|0:3,0:0:0:0:
208,300,40711,1,8,0:3:0:0:
136,212,40874,6,0,B|184:192|224:212|224:212|268:232|328:216,1,167.999994873047,2|2,0:3|0:3,0:0:0:0:
360,160,41360,2,0,P|340:244|388:308,1,167.999994873047,8|2,0:3|0:3,0:0:0:0:
428,112,41847,1,2,0:3:0:0:
428,112,41928,1,0,0:0:0:0:
428,112,42009,2,0,P|396:84|344:80,1,83.9999974365235,8|2,0:3|0:3,0:0:0:0:
192,175,42333,6,0,L|368:159,1,167.999994873047,0|8,0:0|0:3,0:0:0:0:
424,216,42819,2,0,B|396:180|396:180|408:24,1,167.999994873047,2|2,0:3|0:3,0:0:0:0:
476,16,43306,1,8,0:3:0:0:
476,100,43468,6,0,P|436:132|324:84,1,167.999994873047,2|2,0:1|0:1,0:0:0:0:
192,175,43955,1,0,1:0:0:0:
192,175,44117,2,0,P|256:159|284:159,1,83.9999974365235,2|2,0:1|0:3,0:0:0:0:
356,192,44441,1,4,0:3:0:0:
277,326,44603,1,4,0:3:0:0:
277,326,44684,1,0,0:0:0:0:
277,326,44765,6,0,L|273:138,1,167.999994873047,4|2,0:0|0:3,0:0:0:0:
272,44,45252,1,8,0:3:0:0:
424,192,45576,2,0,P|463:204|505:208,1,83.9999974365235,2|2,0:3|0:3,0:0:0:0:
392,80,45901,1,8,0:3:0:0:
305,158,46063,6,0,L|301:325,1,167.999994873047,2|2,0:3|0:3,0:0:0:0:
228,356,46549,2,0,P|184:344|136:352,1,83.9999974365235,8|0,0:3|0:0,0:0:0:0:
40,264,46874,2,0,P|124:268|176:172,1,167.999994873047,2|8,0:3|0:3,0:0:0:0:
88,92,47360,1,2,0:3:0:0:
88,92,47441,1,0,0:0:0:0:
88,92,47522,6,0,L|84:184,1,83.9999974365235,0|2,0:0|0:3,0:0:0:0:
80,320,47847,1,8,0:3:0:0:
250,198,48009,2,0,L|70:174,1,167.999994873047,0|2,0:0|0:3,0:0:0:0:
200,308,48495,1,8,0:3:0:0:
200,308,48657,6,0,L|380:284,1,167.999994873047,2|2,0:3|0:3,0:0:0:0:
436,340,49144,2,0,B|412:300|412:300|420:140,1,167.999994873047,8|2,0:3|0:3,0:0:0:0:
424,56,49630,1,2,0:3:0:0:
92,56,49955,6,0,L|292:36,1,167.999994873047,4|2,0:0|0:3,0:0:0:0:
420,104,50441,2,0,P|368:76|324:72,1,83.9999974365235,8|0,0:3|0:0,0:0:0:0:
272,132,50684,1,0,0:0:0:0:
272,132,50765,2,0,L|268:308,1,167.999994873047,2|8,0:3|0:3,0:0:0:0:
200,348,51252,6,0,B|240:320|284:340|284:340|324:372|384:352,1,167.999994873047,2|2,0:3|0:3,0:0:0:0:
424,296,51738,2,0,P|440:248|436:208,1,83.9999974365235,8|0,0:3|0:0,0:0:0:0:
360,160,52063,1,2,0:3:0:0:
366,76,52225,2,0,L|358:184,1,83.9999974365235,2|8,0:3|0:3,0:0:0:0:
296,256,52549,1,2,0:3:0:0:
306,339,52711,6,0,L|294:239,1,83.9999974365235,0|2,0:0|0:3,0:0:0:0:
240,156,53036,1,8,0:3:0:0:
408,260,53198,1,0,0:0:0:0:
366,76,53360,2,0,P|358:172|358:172,1,83.9999974365235,2|2,0:3|0:3,0:0:0:0:
408,260,53684,1,8,0:3:0:0:
340,40,53847,6,0,L|324:248,1,167.999994873047,2|0,0:3|0:0,0:0:0:0:
389,339,54333,2,0,P|409:271|397:227,1,83.9999974365235,0|0,1:0|0:0,0:0:0:0:
328,208,54657,1,0,1:0:0:0:
240,308,54819,2,0,P|296:304|336:288,1,83.9999974365235,0|0,1:0|1:0,0:0:0:0:
80,124,55144,6,0,P|55:215|84:296,1,167.999994873047,4|0,1:2|1:0,0:0:0:0:
243,287,55630,2,0,P|203:263|163:251,1,83.9999974365235,0|0,1:0|0:0,0:0:0:0:
147,343,55955,1,0,0:0:0:0:
331,311,56117,1,0,0:0:0:0:
147,343,56279,1,0,1:0:0:0:
331,311,56441,6,0,B|399:291|471:327|471:327|439:283,1,167.999994873047,0|0,0:0|0:0,0:0:0:0:
395,147,56928,2,0,P|383:207|391:259,1,83.9999974365235,0|0,1:0|0:0,0:0:0:0:
487,211,57252,1,0,0:0:0:0:
443,71,57414,2,0,P|399:59|343:75,1,83.9999974365235,0|0,0:0|1:0,0:0:0:0:
275,111,57738,6,0,B|223:95|191:127|191:127|147:103|83:127,1,167.999994873047,0|0,0:0|0:0,0:0:0:0:
143,199,58225,1,0,1:0:0:0:
179,43,58387,1,0,0:0:0:0:
275,111,58549,1,0,0:0:0:0:
115,119,58711,1,0,0:0:0:0:
343,55,58874,2,0,P|363:111|351:159,1,83.9999974365235,0|0,1:0|0:0,0:0:0:0:
256,272,59198,5,0,0:0:0:0:
275,111,59360,1,0,0:0:0:0:
416,208,59522,1,0,1:0:0:0:
256,272,59684,1,0,0:0:0:0:
256,272,59765,1,0,0:0:0:0:
256,272,59847,2,0,P|184:280|160:300,1,83.9999974365235,0|0,1:0|1:0,0:0:0:0:
104,344,60171,1,2,0:1:0:0:
312,340,60333,6,0,P|340:296|288:188,1,167.999994873047,4|2,0:0|0:1,0:0:0:0:
248,48,60819,2,0,P|236:108|248:156,1,83.9999974365235,0|0,1:0|0:0,0:0:0:0:
416,124,61144,1,2,0:1:0:0:
416,124,61225,1,0,0:0:0:0:
416,124,61306,2,0,P|340:112|312:116,1,83.9999974365235,0|0,0:0|1:0,0:0:0:0:
134,207,61630,6,0,L|301:195,1,167.999994873047,2|0,0:0|0:0,0:0:0:0:
456,144,62117,2,0,P|396:132|348:144,1,83.9999974365235,0|0,1:0|0:0,0:0:0:0:
380,312,62442,1,2,0:1:0:0:
380,312,62523,1,0,0:0:0:0:
380,312,62604,2,0,P|392:236|388:208,1,83.9999974365235,0|0,0:0|1:0,0:0:0:0:
320,49,62928,6,0,P|276:121|332:217,1,167.999994873047,2|0,0:0|0:0,0:0:0:0:
456,144,63414,2,0,P|396:132|348:144,1,83.9999974365235,0|0,1:0|0:0,0:0:0:0:
385,313,63738,1,2,0:1:0:0:
385,313,63819,1,0,0:0:0:0:
385,313,63901,2,0,L|393:209,1,83.9999974365235,0|0,0:0|1:0,0:0:0:0:
336,20,64225,6,0,P|300:84|340:184,1,167.999994873047,2|0,0:0|0:0,0:0:0:0:
392,228,64630,1,0,0:0:0:0:
392,228,64711,2,0,L|452:232,2,41.9999987182618,0|0|0,1:0|0:0|0:0,0:0:0:0:
300,256,65036,1,2,0:1:0:0:
416,144,65198,1,0,0:0:0:0:
372,320,65360,1,0,1:0:0:0:
325,170,65522,6,0,P|298:92|335:19,1,167.999994873047,4|2,0:0|0:1,0:0:0:0:
400,216,66009,2,0,P|344:252|296:252,1,83.9999974365235,0|0,1:0|0:0,0:0:0:0:
168,216,66333,1,2,0:1:0:0:
168,216,66414,1,0,0:0:0:0:
168,216,66495,2,0,L|268:212,1,83.9999974365235,0|0,0:0|1:0,0:0:0:0:
128,304,66819,6,0,P|80:252|116:144,1,167.999994873047,2|0,0:0|0:0,0:0:0:0:
164,112,67306,2,0,P|180:64|160:8,1,83.9999974365235,0|0,1:0|0:0,0:0:0:0:
0,88,67630,1,2,0:1:0:0:
0,88,67711,1,0,0:0:0:0:
0,88,67792,2,0,L|88:84,1,83.9999974365235,0|0,0:0|1:0,0:0:0:0:
331,125,68117,6,0,L|139:109,1,167.999994873047,2|0,0:0|0:0,0:0:0:0:
24,184,68603,2,0,P|84:184|124:168,1,83.9999974365235,0|0,1:0|0:0,0:0:0:0:
92,12,68928,1,2,0:1:0:0:
92,12,69009,1,0,0:0:0:0:
92,12,69090,2,0,L|84:100,1,83.9999974365235,0|0,0:0|1:0,0:0:0:0:
104,284,69414,5,2,0:0:0:0:
196,184,69576,2,0,L|200:136,2,41.9999987182618,2|0|0,0:1|0:0|0:0,0:0:0:0:
256,260,69901,2,0,L|264:316,2,41.9999987182618,0|0|0,1:0|0:0|0:0,0:0:0:0:
336,164,70225,1,2,0:1:0:0:
364,168,70306,1,0,0:0:0:0:
392,180,70387,1,2,0:1:0:0:
416,196,70468,1,0,0:0:0:0:
440,216,70549,1,0,1:0:0:0:
456,240,70630,1,0,0:0:0:0:
468,268,70711,6,0,L|480:64,1,167.999994873047,4|2,0:0|0:1,0:0:0:0:
428,344,71198,2,0,P|480:348|516:340,1,83.9999974365235,0|0,1:0|0:0,0:0:0:0:
384,272,71522,1,2,0:1:0:0:
384,272,71603,1,0,0:0:0:0:
384,272,71684,2,0,P|332:264|292:272,1,83.9999974365235,0|0,0:0|1:0,0:0:0:0:
228,328,72009,6,0,P|264:260|228:156,1,167.999994873047,2|0,0:0|0:0,0:0:0:0:
80,236,72495,2,0,P|132:244|200:236,1,83.9999974365235,0|0,1:0|0:0,0:0:0:0:
148,56,72819,1,2,0:1:0:0:
148,56,72901,1,0,0:0:0:0:
148,56,72982,2,0,P|136:108|144:148,1,83.9999974365235,0|0,0:0|1:0,0:0:0:0:
406,176,73306,6,0,P|362:160|226:184,1,167.999994873047,2|0,0:0|0:0,0:0:0:0:
316,324,73792,2,0,P|324:264|316:232,1,83.9999974365235,0|0,1:0|0:0,0:0:0:0:
140,276,74117,1,2,0:1:0:0:
140,276,74198,1,0,0:0:0:0:
140,276,74279,2,0,P|196:276|240:264,1,83.9999974365235,0|0,0:0|1:0,0:0:0:0:
406,176,74603,5,2,0:0:0:0:
240,76,74765,1,2,0:1:0:0:
240,76,74847,1,0,0:0:0:0:
240,76,74928,1,0,0:0:0:0:
224,272,75090,1,0,1:0:0:0:
224,272,75171,1,0,0:0:0:0:
224,272,75252,1,0,0:0:0:0:
406,176,75414,6,0,P|414:128|410:80,1,83.9999974365235,0|4,1:0|0:3,0:0:0:0:
412,92,75657,1,0,0:0:0:0:
412,92,75738,1,4,0:3:0:0:
144,176,75901,1,4,0:0:0:0:
200,232,85792,6,0,L|192:356,1,105.000004005432,0|0,0:0|0:0,0:0:0:0:
193,336,86441,6,0,L|297:328,1,83.9999974365235,4|0,0:0|0:0,0:0:0:0:
388,276,86765,1,0,1:0:0:0:
288,136,86928,2,0,P|280:188|284:228,1,83.9999974365235,0|2,0:0|0:1,0:0:0:0:
388,276,87252,1,0,0:0:0:0:
384,168,87414,1,0,1:0:0:0:
276,329,87576,6,0,P|228:349|192:353,1,83.9999974365235,0|2,0:0|0:1,0:0:0:0:
40,248,87901,2,0,P|81:254|119:271,1,83.9999974365235,0|0,0:0|1:0,0:0:0:0:
288,136,88225,2,0,L|112:156,1,167.999994873047,0|0,0:0|0:0,0:0:0:0:
212,224,88711,1,0,1:0:0:0:
284,40,88874,1,0,0:0:0:0:
394,192,89036,6,0,L|386:288,1,83.9999974365235,2|0,0:1|0:0,0:0:0:0:
288,352,89360,1,0,1:0:0:0:
184,240,89522,2,0,L|304:252,1,83.9999974365235,0|2,0:0|0:1,0:0:0:0:
124,300,89847,2,0,P|104:256|108:208,1,83.9999974365235,0|0,0:0|1:0,0:0:0:0:
172,76,90171,6,0,L|164:164,1,83.9999974365235,0|2,0:0|0:1,0:0:0:0:
252,24,90495,1,0,0:0:0:0:
312,88,90657,2,0,P|368:96|400:92,1,83.9999974365235,0|0,1:0|0:0,0:0:0:0:
472,32,90982,1,2,0:1:0:0:
408,180,91144,1,0,1:0:0:0:
256,128,91306,2,0,L|264:28,1,83.9999974365235,0|0,1:0|0:0,0:0:0:0:
296,216,91630,6,0,L|191:209,1,83.9999974365235,4|0,0:0|0:0,0:0:0:0:
56,128,91955,1,0,1:0:0:0:
112,288,92117,2,0,L|120:192,1,83.9999974365235,0|2,0:0|0:1,0:0:0:0:
132,60,92441,1,0,0:0:0:0:
212,232,92603,1,0,1:0:0:0:
24,216,92765,1,0,0:0:0:0:
196,136,92928,6,0,L|296:128,1,83.9999974365235,2|0,0:1|0:0,0:0:0:0:
440,188,93252,1,0,1:0:0:0:
388,88,93414,1,0,0:0:0:0:
332,232,93576,2,0,L|336:328,1,83.9999974365235,2|0,0:1|0:0,0:0:0:0:
279,129,93901,2,0,L|282:45,1,83.9999974365235,0|0,1:0|0:0,0:0:0:0:
216,224,94225,6,0,P|140:200|40:228,1,167.999994873047,2|0,0:1|1:0,0:0:0:0:
140,292,94711,1,0,0:0:0:0:
279,129,94874,1,2,0:1:0:0:
292,280,95036,2,0,L|284:364,1,83.9999974365235,0|0,0:0|1:0,0:0:0:0:
220,200,95360,1,0,0:0:0:0:
400,232,95522,5,2,0:1:0:0:
220,200,95684,1,0,0:0:0:0:
192,296,95847,2,0,L|76:288,1,83.9999974365235,0|0,1:0|0:0,0:0:0:0:
264,348,96171,2,0,P|280:296|272:260,1,83.9999974365235,2|0,0:1|0:0,0:0:0:0:
156,120,96495,2,0,P|144:168|148:208,1,83.9999974365235,0|0,1:0|1:0,0:0:0:0:
275,267,96819,5,4,0:0:0:0:
52,216,96982,1,0,0:0:0:0:
192,336,97144,1,0,1:0:0:0:
156,120,97306,2,0,L|148:204,1,83.9999974365235,0|2,0:0|0:1,0:0:0:0:
232,72,97630,1,0,0:0:0:0:
408,176,97792,1,0,1:0:0:0:
304,208,97955,6,0,L|320:28,1,167.999994873047,2|2,0:0|0:0,0:0:0:0:
384,276,98441,2,0,L|372:372,1,83.9999974365235,0|2,1:0|0:0,0:0:0:0:
284,304,98765,1,2,0:1:0:0:
408,176,98928,1,0,0:0:0:0:
220,152,99090,2,0,L|120:144,1,83.9999974365235,0|2,1:0|0:0,0:0:0:0:
24,184,99414,5,2,0:1:0:0:
140,40,99576,1,0,0:0:0:0:
142,228,99738,2,0,P|134:156|138:132,1,83.9999974365235,0|2,1:0|0:0,0:0:0:0:
220,284,100063,2,0,P|168:316|124:320,1,83.9999974365235,2|2,0:1|0:0,0:0:0:0:
240,192,100387,1,0,1:0:0:0:
268,364,100549,1,2,0:0:0:0:
58,219,100711,6,0,L|170:231,1,83.9999974365235,2|0,0:1|0:0,0:0:0:0:
240,192,101036,1,0,1:0:0:0:
420,136,101198,2,0,L|308:148,1,83.9999974365235,2|2,0:0|0:1,0:0:0:0:
240,192,101522,2,0,L|240:104,1,83.9999974365235,0|0,1:0|1:0,0:0:0:0:
320,48,101847,1,2,0:0:0:0:
320,256,102009,5,4,0:0:0:0:
376,164,102171,1,0,0:0:0:0:
239,191,102333,2,0,L|156:202,1,83.9999974365235,0|0,1:0|0:0,0:0:0:0:
320,256,102657,1,2,0:1:0:0:
376,164,102819,1,0,0:0:0:0:
298,25,102982,2,0,P|290:66|296:108,1,83.9999974365235,0|2,1:0|0:0,0:0:0:0:
320,256,103306,5,2,0:1:0:0:
376,164,103468,1,2,0:0:0:0:
239,193,103630,2,0,L|156:202,1,83.9999974365235,0|0,1:0|0:0,0:0:0:0:
321,339,103955,2,0,P|317:283|321:243,1,83.9999974365235,2|0,0:1|0:0,0:0:0:0:
376,164,104279,1,0,1:0:0:0:
486,265,104441,6,0,L|290:253,1,167.999994873047,2|2,0:0|0:0,0:0:0:0:
168,316,104928,2,0,P|228:320|272:308,1,83.9999974365235,0|0,1:0|0:0,0:0:0:0:
92,240,105252,1,2,0:1:0:0:
251,315,105414,1,0,0:0:0:0:
172,136,105576,1,0,1:0:0:0:
0,334,105738,6,0,L|184:314,1,167.999994873047,2|2,0:0|0:0,0:0:0:0:
244,260,106225,2,0,P|260:324|256:356,1,83.9999974365235,0|2,1:0|0:0,0:0:0:0:
160,228,106549,2,0,L|168:140,2,83.9999974365235,2|0|0,0:1|1:0|1:0,0:0:0:0:
248,104,107036,6,0,P|319:123|413:62,1,167.999994873047,0|2,0:0|0:0,0:0:0:0:
486,54,107441,1,2,0:0:0:0:
486,54,107522,2,0,L|477:155,1,83.9999974365235,0|2,1:0|0:0,0:0:0:0:
389,288,107847,2,0,L|397:196,1,83.9999974365235,2|0,0:1|0:0,0:0:0:0:
314,43,108171,1,0,1:0:0:0:
274,210,108333,6,0,P|182:210|118:285,1,167.999994873047,2|2,0:0|0:0,0:0:0:0:
15,195,108819,1,0,1:0:0:0:
117,66,108982,1,0,0:0:0:0:
117,66,109144,2,0,L|105:168,1,83.9999974365235,2|0,0:1|0:0,1:0:0:0:
226,371,109468,2,0,L|216:287,1,83.9999974365235,0|0,1:0|0:0,1:0:0:0:
257,127,109792,6,0,L|350:137,1,83.9999974365235,2|0,0:1|0:0,0:0:0:0:
419,200,110117,1,0,1:0:0:0:
498,34,110279,2,0,L|330:47,1,167.999994873047,2|2,0:0|0:0,0:0:0:0:
330,47,110684,1,0,0:0:0:0:
330,47,110765,1,0,1:0:0:0:
180,110,110928,6,0,P|164:30|168:10,1,83.9999974365235,2|2,0:0|0:1,0:0:0:0:
349,197,111252,2,0,P|346:246|329:282,1,83.9999974365235,2|0,0:0|1:0,0:0:0:0:
227,209,111576,1,2,0:0:0:0:
361,104,111738,2,0,L|461:96,1,83.9999974365235,2|0,0:1|0:0,0:0:0:0:
444,97,111982,1,0,0:0:0:0:
444,97,112063,1,0,1:0:0:0:
331,277,112225,6,0,B|281:271|281:271|229:295|229:295|169:291,1,167.999994873047,0|2,1:0|0:0,0:0:0:0:
168,290,112630,1,2,0:0:0:0:
168,290,112711,1,0,1:0:0:0:
295,356,112874,1,2,0:0:0:0:
211,217,113036,2,0,L|203:129,1,83.9999974365235,2|0,0:1|0:0,0:0:0:0:
118,195,113360,1,0,1:0:0:0:
119,93,113522,6,0,P|212:101|265:34,1,167.999994873047,2|2,0:0|0:0,0:0:0:0:
259,51,113928,1,0,0:0:0:0:
258,50,114009,1,0,1:0:0:0:
377,138,114171,1,0,0:0:0:0:
283,188,114333,2,0,L|273:287,1,83.9999974365235,2|0,0:1|0:0,0:0:0:0:
462,354,114657,2,0,L|453:270,1,83.9999974365235,0|0,1:0|0:0,0:0:0:0:
228,352,114982,6,0,P|290:357|373:279,1,167.999994873047,2|0,0:1|1:0,0:0:0:0:
138,199,115468,2,0,P|130:247|130:287,1,83.9999974365235,2|2,0:0|0:1,0:0:0:0:
280,189,115792,2,0,P|279:147|271:105,1,83.9999974365235,2|0,0:0|1:0,0:0:0:0:
252,328,116117,6,0,L|444:312,1,167.999994873047,2|0,0:0|0:0,0:0:0:0:
419,314,116522,1,0,0:0:0:0:
419,314,116603,1,0,1:0:0:0:
498,250,116765,1,2,0:1:0:0:
426,179,116928,5,0,1:0:0:0:
428,158,117009,1,0,1:0:0:0:
431,137,117090,1,0,1:0:0:0:
434,116,117171,1,0,1:0:0:0:
435,95,117252,2,0,L|428:24,3,41.9999987182618,2|2|0|2,0:1|0:1|0:0|0:1,0:0:0:0:
282,138,117576,5,4,1:0:0:0:
498,250,117738,1,0,1:0:0:0:
368,120,118549,6,0,L|360:204,1,83.9999974365235,0|0,0:0|0:0,0:0:0:0:
288,268,118874,1,0,1:0:0:0:
504,156,119036,1,0,1:0:0:0:
164,112,120171,5,0,1:0:0:0:
348,272,120333,1,0,1:0:0:0:
348,112,121468,5,0,1:0:0:0:
164,272,121630,1,0,1:0:0:0:
216,200,122117,5,0,1:0:0:0:
96,348,122279,1,0,1:0:0:0:
252,280,122441,1,4,1:0:0:0:
128,104,122765,6,0,L|120:204,1,83.9999974365235,2|0,0:1|0:0,0:0:0:0:
258,363,123090,2,0,L|251:279,1,83.9999974365235,0|0,1:0|0:0,0:0:0:0:
344,216,123414,2,0,P|424:216|456:204,1,83.9999974365235,2|2,0:1|0:0,0:0:0:0:
256,92,123738,2,0,P|248:148|252:196,1,83.9999974365235,0|0,1:0|0:0,0:0:0:0:
184,36,124063,6,0,L|84:32,1,83.9999974365235,2|0,0:1|0:0,0:0:0:0:
340,124,124387,2,0,L|440:120,1,83.9999974365235,0|0,1:0|0:0,0:0:0:0:
232,228,124711,2,0,P|224:168|232:132,1,83.9999974365235,2|2,0:1|0:0,0:0:0:0:
320,276,125036,1,0,1:0:0:0:
140,152,125198,1,0,0:0:0:0:
65,246,125360,6,0,L|241:226,1,167.999994873047,2|0,0:1|1:0,0:0:0:0:
364,208,125847,1,2,0:0:0:0:
292,296,126009,2,0,P|252:224|276:132,1,167.999994873047,2|0,0:1|1:0,0:0:0:0:
340,88,126495,6,0,L|516:72,1,167.999994873047,2|2,0:0|0:0,0:0:0:0:
250,63,126982,2,0,P|254:115|270:147,1,83.9999974365235,0|0,1:0|0:0,0:0:0:0:
332,264,127306,2,0,P|348:225|349:183,1,83.9999974365235,2|0,1:0|0:0,0:0:0:0:
268,144,127630,5,2,1:0:0:0:
184,264,127792,1,0,0:0:0:0:
332,264,127955,1,2,0:1:0:0:
256,192,128036,12,0,129901,0:0:0:0:
373,259,130063,5,0,0:0:0:0:
256,76,130225,1,0,0:0:0:0:
137,260,130387,1,0,0:0:0:0:
392,112,130549,6,0,L|488:96,1,94.5000003604889,4|0,0:0|0:0,0:0:0:0:
280,240,130874,1,8,0:3:0:0:
120,172,131036,2,0,L|12:156,1,94.5000003604889,0|2,0:0|0:3,0:0:0:0:
232,300,131360,1,2,0:3:0:0:
388,232,131522,2,0,L|488:216,1,94.5000003604889,8|2,0:3|0:3,0:0:0:0:
276,360,131847,5,0,0:0:0:0:
288,340,131928,1,0,0:0:0:0:
292,316,132009,1,2,0:3:0:0:
292,292,132090,1,0,0:0:0:0:
280,272,132171,6,0,L|156:296,1,94.5000003604889,8|0,0:3|0:0,0:0:0:0:
40,316,132495,1,2,0:3:0:0:
152,140,132657,1,2,0:3:0:0:
187,289,132819,1,8,0:3:0:0:
11,177,132981,1,2,0:3:0:0:
160,28,133144,6,0,B|176:64|176:64|168:148,1,94.5000003604889,0|2,0:0|0:3,0:0:0:0:
100,232,133468,1,8,0:3:0:0:
264,172,133630,2,0,B|328:160|308:200|388:172,1,94.5000003604889,0|2,0:0|0:3,0:0:0:0:
460,128,133955,1,2,0:3:0:0:
424,320,134117,2,0,B|416:260|416:260|444:200,1,94.5000003604889,8|2,0:3|0:3,0:0:0:0:
460,128,134441,6,0,L|320:136,1,94.5000003604889,0|2,0:0|0:3,0:0:0:0:
272,68,134765,1,8,0:3:0:0:
248,64,134847,1,0,0:0:0:0:
224,64,134928,1,0,0:0:0:0:
204,76,135009,1,0,1:0:0:0:
188,92,135090,2,0,L|172:212,1,94.5000003604889,2|2,0:3|0:3,0:0:0:0:
224,280,135414,1,8,0:3:0:0:
96,232,135576,6,0,P|48:224|-12:220,1,94.5000003604889,4|0,0:0|0:0,0:0:0:0:
156,340,135901,1,2,0:3:0:0:
300,324,136063,2,0,P|347:320|393:312,1,94.5000003604889,8|0,0:3|0:0,0:0:0:0:
472,236,136387,1,2,0:3:0:0:
380,120,136549,2,0,B|360:152|360:152|372:244,1,94.5000003604889,2|8,0:3|0:3,0:0:0:0:
440,32,136874,6,0,L|332:40,1,94.5000003604889,2|0,0:3|0:0,0:0:0:0:
224,120,137198,1,2,0:3:0:0:
120,92,137360,2,0,P|120:156|148:204,1,94.5000003604889,8|0,0:3|0:0,0:0:0:0:
208,36,137684,1,2,0:3:0:0:
328,152,137847,2,0,P|328:88|300:40,1,94.5000003604889,2|8,0:3|0:3,0:0:0:0:
64,240,138171,6,0,P|128:268|160:264,1,94.5000003604889,2|0,0:3|0:0,0:0:0:0:
224,120,138495,1,2,0:3:0:0:
156,348,138657,2,0,P|208:332|236:292,1,94.5000003604889,8|0,0:3|0:0,0:0:0:0:
131,183,138982,1,2,0:3:0:0:
328,300,139144,2,0,L|340:176,1,94.5000003604889,2|8,0:3|0:3,0:0:0:0:
316,60,139468,6,0,B|200:108|240:32|120:88,1,189.000000720978,2|2,0:1|0:1,0:0:0:0:
48,160,139955,2,0,L|40:268,1,94.5000003604889,0|2,1:0|0:1,0:0:0:0:
192,176,140279,1,2,0:3:0:0:
20,84,140441,1,4,0:3:0:0:
168,272,140603,1,4,0:3:0:0:
224,76,140765,6,0,B|176:92|176:92|132:80,1,94.5000003604889,4|0,0:0|0:0,0:0:0:0:
76,28,141090,1,2,0:3:0:0:
128,156,141252,2,0,B|176:168|176:168|224:152,1,94.5000003604889,8|0,0:3|0:0,0:0:0:0:
276,16,141576,1,2,0:3:0:0:
272,204,141738,1,2,0:3:0:0:
224,76,141901,1,8,0:3:0:0:
344,184,142063,1,2,0:3:0:0:
440,68,142225,6,0,P|396:44|346:42,1,94.5000003604889,0|2,0:0|0:3,0:0:0:0:
272,204,142549,1,8,0:3:0:0:
148,92,142711,1,0,0:0:0:0:
184,208,142874,1,2,0:3:0:0:
248,16,143036,1,2,0:3:0:0:
32,72,143198,1,8,0:3:0:0:
184,208,143360,6,0,L|192:96,1,94.5000003604889,2|0,0:3|0:0,0:0:0:0:
128,8,143684,1,2,0:3:0:0:
296,56,143847,2,0,B|364:60|320:36|428:44,1,94.5000003604889,8|0,0:3|0:0,0:0:0:0:
508,188,144171,1,2,0:3:0:0:
476,0,144333,1,2,0:3:0:0:
404,228,144495,1,8,0:3:0:0:
492,96,144657,1,2,0:3:0:0:
512,208,144819,5,0,0:0:0:0:
384,148,144982,1,2,0:3:0:0:
300,256,145144,1,8,0:3:0:0:
508,376,145306,2,0,P|492:324|500:244,1,94.5000003604889,0|2,0:0|0:3,0:0:0:0:
396,348,145630,1,2,0:3:0:0:
404,252,145792,1,8,0:3:0:0:
292,384,145955,6,0,P|299:329|280:256,1,94.5000003604889,4|0,0:0|0:0,0:0:0:0:
224,192,146279,1,2,0:3:0:0:
124,252,146441,2,0,P|52:264|16:252,1,94.5000003604889,8|0,0:3|0:0,0:0:0:0:
224,192,146765,2,0,L|216:304,2,94.5000003604889,2|2|8,0:3|0:3|0:3,0:0:0:0:
280,120,147252,6,0,P|228:104|172:120,1,94.5000003604889,2|0,0:3|0:0,0:0:0:0:
316,208,147576,1,2,0:3:0:0:
376,128,147738,2,0,L|392:28,1,94.5000003604889,8|0,0:3|0:0,0:0:0:0:
416,220,148063,2,0,L|516:212,2,94.5000003604889,2|0|8,0:3|0:0|0:3,0:0:0:0:
308,304,148549,6,0,B|240:296|240:296|184:308|184:308|80:292,1,189.000000720978,2|2,0:3|0:3,0:0:0:0:
40,344,149036,2,0,P|28:284|48:240,1,94.5000003604889,8|0,0:3|0:0,0:0:0:0:
120,112,149360,2,0,L|124:216,2,94.5000003604889,2|2|8,0:3|0:3|0:3,0:0:0:0:
184,32,149847,6,0,P|264:20|312:40,1,94.5000003604889,2|4,0:3|1:2,0:0:0:0:
400,88,150171,1,2,0:0:0:0:
292,136,150333,1,0,1:0:0:0:
484,24,150495,2,0,P|508:88|500:128,1,94.5000003604889,2|0,0:0|1:0,0:0:0:0:
420,288,150819,1,0,1:0:0:0:
428,192,150982,1,0,1:0:0:0:
500,340,151144,5,4,1:2:0:0:
256,192,151306,12,0,155847,0:0:0:0:
50,74,156171,1,0,1:0:0:0:
107,148,156333,6,0,L|95:266,1,94.5000003604889,4|0,0:0|0:0,0:0:0:0:
159,313,156657,2,0,L|166:386,2,47.2500001802444,2|0|8,0:3|0:0|0:3,0:0:0:0:
235,256,156982,1,0,0:0:0:0:
235,256,157063,1,0,0:0:0:0:
235,256,157144,2,0,P|313:270|344:277,1,94.5000003604889,2|2,3:3|3:3,0:0:0:0:
486,188,157468,2,0,P|439:197|393:205,1,94.5000003604889,8|2,0:3|0:3,0:0:0:0:
322,144,157792,5,0,0:0:0:0:
254,76,157955,1,2,0:3:0:0:
254,76,158036,1,0,0:0:0:0:
254,76,158117,2,0,L|152:79,1,94.5000003604889,8|0,0:3|0:0,0:0:0:0:
82,133,158360,1,0,0:0:0:0:
82,133,158441,2,0,P|57:208|57:245,1,94.5000003604889,2|2,0:3|3:0,0:0:0:0:
173,292,158765,2,0,P|165:245|147:202,1,94.5000003604889,8|2,0:3|0:3,0:0:0:0:
12,354,159090,6,0,L|131:344,1,94.5000003604889,4|2,1:2|0:3,0:0:0:0:
339,291,159414,2,0,P|332:245|314:202,1,94.5000003604889,0|2,1:3|0:3,0:0:0:0:
198,202,159738,2,0,P|179:245|172:291,1,94.5000003604889,4|2,1:2|0:3,0:0:0:0:
405,346,160063,2,0,L|500:354,1,94.5000003604889,0|2,1:0|0:3,0:0:0:0:
446,263,160387,5,0,1:0:0:0:
442,244,160468,1,0,1:0:0:0:
438,225,160549,1,0,1:0:0:0:
434,206,160630,1,0,1:0:0:0:
430,187,160711,2,0,L|360:194,3,47.2500001802444,0|0|0|0,1:0|1:0|1:0|1:0,1:0:0:0:
426,106,161036,2,0,L|494:115,3,47.2500001802444,2|0|2|0,0:3|1:0|0:1|1:0,1:0:0:0:
336,105,161360,1,0,1:0:0:0:
294,272,161522,6,0,B|286:200|286:200|258:144|258:144|244:69,1,189.000000720978,4|2,0:0|0:1,0:0:0:0:
308,25,162009,1,0,1:0:0:0:
336,105,162171,2,0,P|300:157|160:121,1,189.000000720978,0|0,0:0|0:0,0:0:0:0:
400,33,162657,6,0,P|444:93|392:217,1,189.000000720978,0|2,1:0|0:1,0:0:0:0:
348,345,163144,2,0,P|332:285|340:245,1,94.5000003604889,0|0,0:0|1:0,0:0:0:0:
417,197,163468,1,0,0:0:0:0:
417,197,163630,2,0,L|525:209,1,94.5000003604889,2|0,0:1|0:0,0:0:0:0:
441,334,163955,2,0,L|333:346,1,94.5000003604889,0|0,1:0|0:0,0:0:0:0:
248,225,164279,6,0,P|240:157|244:113,1,94.5000003604889,2|0,0:1|0:0,0:0:0:0:
320,173,164603,1,0,1:0:0:0:
268,313,164765,2,0,P|214:353|174:372,1,94.5000003604889,0|2,0:0|0:1,0:0:0:0:
176,277,165090,1,0,0:0:0:0:
336,253,165252,2,0,P|399:280|435:305,1,94.5000003604889,0|0,1:0|0:0,0:0:0:0:
348,345,165576,5,2,0:1:0:0:
320,173,165738,1,0,0:0:0:0:
176,277,165901,2,0,L|80:269,1,94.5000003604889,0|0,1:0|0:0,0:0:0:0:
320,173,166225,2,0,L|544:149,1,189.000000720978,2|0,0:1|1:0,0:0:0:0:
172,91,166711,6,0,B|156:143|156:143|180:311,1,189.000000720978,4|2,0:0|0:1,0:0:0:0:
320,173,167198,2,0,L|308:65,1,94.5000003604889,0|0,1:0|0:0,0:0:0:0:
252,225,167522,2,0,L|264:329,1,94.5000003604889,2|0,0:1|0:0,0:0:0:0:
344,369,167847,1,0,1:0:0:0:
424,309,168009,6,0,P|464:225|420:113,1,189.000000720978,2|2,0:0|0:0,0:0:0:0:
252,137,168495,2,0,P|308:161|356:169,1,94.5000003604889,0|0,1:0|0:0,0:0:0:0:
180,73,168819,2,0,P|116:85|72:113,1,94.5000003604889,2|0,0:1|0:0,0:0:0:0:
16,185,169144,1,0,1:0:0:0:
96,257,169306,6,0,L|84:376,1,94.5000003604889,2|0,0:0|0:0,0:0:0:0:
176,193,169630,2,0,L|172:121,3,47.2500001802444,2|0|0|0,0:0|0:0|1:0|0:0,0:0:0:0:
188,289,169955,5,0,0:0:0:0:
201,291,170036,1,0,0:1:0:0:
216,293,170117,2,0,L|274:297,1,47.2500001802444,2|0,0:1|0:0,0:0:0:0:
404,221,170279,5,0,0:0:0:0:
391,223,170360,1,0,0:0:0:0:
378,225,170441,2,0,P|344:233|292:237,1,47.2500001802444,0|0,1:0|0:0,0:0:0:0:
348,325,170603,6,0,L|352:373,3,47.2500001802444,2|0|0|0,0:0|0:0|1:0|1:0,0:0:0:0:
420,265,170928,6,0,L|420:193,1,47.2500001802444,0|0,1:0|1:0,0:0:0:0:
344,144,171090,1,0,1:0:0:0:
344,144,171171,1,0,1:0:0:0:
356,153,171252,1,0,1:0:0:0:
356,153,171333,1,0,1:0:0:0:
356,153,171414,6,0,P|344:85|356:25,1,94.5000003604889,2|2,0:3|0:3,0:0:0:0:
436,13,171738,1,0,1:0:0:0:
244,69,171901,1,4,0:1:0:0:
256,192,171982,12,0,172711,0:0:0:0:
