osu file format v14

[General]
AudioFilename: audio.mp3
AudioLeadIn: 0
PreviewTime: 33252
Countdown: 0
SampleSet: Soft
StackLeniency: 0.7
Mode: 0
LetterboxInBreaks: 0
WidescreenStoryboard: 0

[Editor]
Bookmarks: 164279,164928
DistanceSpacing: 1
BeatDivisor: 4
GridSize: 32
TimelineZoom: 2.999999

[Metadata]
Title:Kimi no Yozora Shoukaihan
TitleUnicode:キミノヨゾラ哨戒班
Artist:Orangestar
ArtistUnicode:Orangestar
Creator:kanor
Version:Yoru's Extra
Source:
Tags:ia vocaloid asu [_abhor_] -Sunflower- Hakurei Yoru Awaken アスノヨゾラ哨戒班 Lobelia Japanese lobelia sunflower
BeatmapID:1045663
BeatmapSetID:480945

[Difficulty]
HPDrainRate:6
CircleSize:4
OverallDifficulty:8
ApproachRate:9.3
SliderMultiplier:1.9
SliderTickRate:1

[Events]
//Background and Video events
0,0,"BG.jpg",0,0
//Break Periods
2,76101,85887
//Storyboard Layer 0 (Background)
//Storyboard Layer 1 (Fail)
//Storyboard Layer 2 (Pass)
//Storyboard Layer 3 (Foreground)
//Storyboard Layer 4 (Overlay)
//Storyboard Sound Samples

[TimingPoints]
820,324.324324324324,4,2,11,30,1,0
21252,-133.333333333333,4,2,11,30,0,0
21576,-200,4,2,11,30,0,0
21738,-200,4,2,11,5,0,0
22874,-200,4,2,11,60,0,0
23036,-200,4,2,11,5,0,0
24171,-200,4,2,11,60,0,0
24333,-200,4,2,11,5,0,0
25468,-200,4,2,11,60,0,0
25630,-200,4,2,11,5,0,0
26117,-200,4,2,11,60,0,0
26279,-200,4,2,11,5,0,0
26765,-100,4,2,11,65,0,0
31955,-83.3333333333333,4,2,11,65,0,0
32279,-100,4,2,11,65,0,0
33901,-125,4,2,11,65,0,0
33982,-125,4,2,11,5,0,0
34063,-100,4,2,11,65,0,0
34144,-100,4,2,11,5,0,0
34225,-71.4285714285714,4,2,11,65,0,0
34306,-71.4285714285714,4,2,11,5,0,0
34387,-90.9090909090909,4,2,11,100,0,1
55630,-153.846153846154,4,2,11,85,0,0
56928,-111.111111111111,4,2,11,85,0,0
57252,-153.846153846154,4,2,11,85,0,0
57901,-100,4,2,11,85,0,0
58549,-153.846153846154,4,2,11,85,0,0
59522,-100,4,2,11,85,0,0
59847,-66.6666666666667,4,2,11,85,0,0
59928,-66.6666666666667,4,2,11,5,0,0
60009,-100,4,2,11,85,0,0
60090,-100,4,2,11,5,0,0
60171,-133.333333333333,4,2,11,85,0,0
60252,-133.333333333333,4,2,11,5,0,0
60333,-100,4,2,11,85,0,0
117576,-133.333333333333,4,2,11,85,0,0
118874,-100,4,2,11,85,0,0
127955,-100,4,2,11,85,0,0
128036,-100,4,2,11,30,0,0
128117,-100,4,2,11,85,0,0
128198,-100,4,2,11,30,0,0
128441,-100,4,2,11,85,0,0
128522,-100,4,2,11,30,0,0
128603,-83.3333333333333,4,2,11,85,0,0
128684,-83.3333333333333,4,2,11,30,0,0
128765,-83.3333333333333,4,2,11,85,0,0
128847,-83.3333333333333,4,2,11,30,0,0
128928,-83.3333333333333,4,2,11,85,0,0
129009,-83.3333333333333,4,2,11,30,0,0
129090,-83.3333333333333,4,2,11,85,0,0
129171,-83.3333333333333,4,2,11,30,0,0
129252,-83.3333333333333,4,2,11,85,0,0
129333,-83.3333333333333,4,2,11,30,0,0
129414,-83.3333333333333,4,2,11,85,0,0
129495,-83.3333333333333,4,2,11,30,0,0
129576,-83.3333333333333,4,2,11,60,0,0
129901,-100,4,2,11,85,0,0
130549,-100,4,2,11,100,0,1
130874,-90.9090909090909,4,2,11,100,0,1
136387,-75.187969924812,4,2,11,100,0,1
136874,-83.3333333333333,4,2,11,100,0,1
137684,-75.187969924812,4,2,11,100,0,1
138171,-83.3333333333333,4,2,11,100,0,1
138657,-90.9090909090909,4,2,11,100,0,1
151144,-90.9090909090909,4,2,11,85,0,0
152603,-100,4,2,11,85,0,0
162982,-111.111111111111,4,2,11,85,0,0
166711,-100,4,2,11,85,0,0
171982,-100,4,2,11,5,0,0

[Colours]
Combo1 : 117,117,123
Combo2 : 177,172,63
Combo3 : 81,88,153
Combo4 : 154,88,86

[HitObjects]
117,72,10874,5,2,3:0:0:0:
117,72,11198,6,0,B|159:53|159:53|216:63,1,95,4|0,1:2|0:0,0:0:0:0:
34,128,11522,1,0,0:0:0:0:
218,168,11684,2,0,B|176:187|176:187|119:177,1,95
34,241,12009,1,0,0:0:0:0:
208,339,12171,1,0,0:0:0:0:
142,307,12333,1,0,0:0:0:0:
176,274,12414,1,0,0:0:0:0:
222,265,12495,6,0,P|258:280|284:349,1,95
364,251,12819,1,0,0:0:0:0:
442,318,12982,2,0,P|478:303|504:234,1,95
436,67,13306,2,0,L|426:187,1,95
364,251,13630,1,0,0:0:0:0:
364,251,13711,1,0,0:0:0:0:
364,251,13792,6,0,L|223:241,1,95
107,192,14117,1,0,0:0:0:0:
157,124,14279,2,0,B|114:108|114:108|55:119,1,95
56,263,14603,1,0,0:0:0:0:
56,263,14765,2,0,B|99:279|99:279|158:268,1,95
288,192,15090,5,0,0:0:0:0:
147,269,15252,1,0,0:0:0:0:
284,358,15414,1,0,0:0:0:0:
288,192,15576,1,0,0:0:0:0:
438,111,15738,1,0,0:0:0:0:
443,276,15901,1,0,0:0:0:0:
288,192,16063,1,0,0:0:0:0:
454,68,16225,1,0,0:0:0:0:
454,68,16306,1,0,0:0:0:0:
454,68,16387,6,0,L|355:79,1,95,4|0,1:2|0:0,0:0:0:0:
214,205,16711,2,0,B|204:250|204:250|225:304,1,95
274,123,17036,2,0,L|139:112,1,95
90,263,17360,1,0,0:0:0:0:
294,248,17522,1,0,0:0:0:0:
294,248,17603,1,0,0:0:0:0:
294,248,17684,6,0,L|388:240,1,95
498,294,18009,1,0,0:0:0:0:
388,240,18171,1,0,0:0:0:0:
509,160,18333,1,0,0:0:0:0:
284,50,18495,5,0,0:0:0:0:
449,87,18657,1,0,0:0:0:0:
221,192,18819,1,0,0:0:0:0:
221,192,18901,1,0,0:0:0:0:
221,192,18982,5,0,0:0:0:0:
94,135,19144,2,0,L|104:34,1,95
295,141,19468,1,0,0:0:0:0:
295,141,19549,1,0,0:0:0:0:
295,141,19630,2,0,B|309:185|309:185|293:238,1,95
188,345,19955,1,0,0:0:0:0:
277,318,20117,1,0,0:0:0:0:
277,318,20198,1,0,0:0:0:0:
277,318,20279,5,0,0:0:0:0:
208,256,20441,1,0,0:0:0:0:
119,285,20603,1,0,0:0:0:0:
188,345,20765,1,0,0:0:0:0:
362,295,20928,1,2,0:1:0:0:
415,122,21090,1,2,0:1:0:0:
342,88,21252,6,0,P|335:113|348:169,1,71.2500027179719
438,202,21495,1,0,0:0:0:0:
438,202,21576,6,0,P|468:187|483:167,1,47.5
164,263,22874,6,0,P|194:278|209:298,1,47.5
133,45,24171,6,0,L|80:37,1,47.5
365,337,25468,6,0,L|418:329,1,47.5
275,117,26117,6,0,L|328:125,1,47.5
97,343,26765,6,0,B|109:279|109:279|85:219,1,95,0|0,1:0|0:0,0:0:0:0:
14,137,27090,1,0,0:0:0:0:
159,37,27252,1,0,0:0:0:0:
146,125,27414,5,0,0:0:0:0:
65,32,27576,1,0,0:0:0:0:
275,117,27738,5,0,0:0:0:0:
137,213,27901,1,0,0:0:0:0:
123,167,27982,1,0,0:0:0:0:
146,125,28063,5,0,0:0:0:0:
254,335,28225,1,0,0:0:0:0:
203,266,28387,2,0,B|250:248|250:248|306:262,1,95
362,172,28711,1,0,0:0:0:0:
461,237,28874,1,0,0:0:0:0:
461,237,28955,1,0,0:0:0:0:
461,237,29036,1,0,0:0:0:0:
394,58,29198,1,0,0:0:0:0:
248,45,29360,6,0,L|179:39,1,47.5,0|0,1:0|0:0,0:0:0:0:
64,125,29522,2,0,P|125:112|180:148,1,95,2|0,0:0|0:0,0:0:0:0:
231,242,29847,2,0,L|224:170,1,47.5,0|0,1:0|0:0,0:0:0:0:
202,210,30009,2,0,L|192:323,1,95,2|0,0:0|0:0,0:0:0:0:
73,310,30333,6,0,L|1:317,1,47.5,0|0,1:0|0:0,0:0:0:0:
140,361,30495,2,0,P|189:353|252:393,1,95,0|0,1:0|0:0,0:0:0:0:
422,293,30819,5,0,1:0:0:0:
350,247,30982,2,0,B|336:290|336:290|352:354,1,95,2|0,0:0|0:0,0:0:0:0:
401,158,31306,2,0,L|307:163,1,95,2|0,0:0|0:0,0:0:0:0:
166,51,31630,2,0,L|260:56,1,95,2|0,0:0|0:0,0:0:0:0:
343,61,31874,1,0,0:0:0:0:
343,61,31955,6,0,L|354:3,1,56.9999982604981,0|0,1:0|0:0,0:0:0:0:
115,145,32117,2,0,L|126:227,1,56.9999982604981,0|0,1:0|0:0,0:0:0:0:
97,220,32279,2,0,L|108:354,1,95,0|0,0:0|1:0,0:0:0:0:
118,327,32522,5,0,0:0:0:0:
132,339,32603,1,2,1:2:0:0:
145,352,32684,1,2,0:0:0:0:
159,363,32765,1,2,0:0:0:0:
340,215,32928,1,0,1:0:0:0:
247,158,33090,1,0,1:0:0:0:
226,195,33171,1,0,0:0:0:0:
232,237,33252,5,0,1:0:0:0:
407,303,33414,1,2,1:2:0:0:
378,130,33576,1,0,1:0:0:0:
277,360,33738,1,2,1:2:0:0:
370,326,33901,6,0,P|386:299|391:266,1,38,0|0,1:0|0:0,0:0:0:0:
458,202,34063,6,0,P|446:172|426:143,1,47.5,0|0,1:0|0:0,0:0:0:0:
421,45,34225,6,0,P|379:28|317:40,1,66.4999979705811,0|0,1:0|0:0,0:0:0:0:
207,77,34387,6,0,B|179:104|179:104|323:86,1,156.750004783631,4|0,1:2|0:0,0:0:0:0:
295,89,34711,1,0,1:0:0:0:
136,242,34874,2,0,P|85:248|39:224,1,104.500003189087,8|0,0:0|0:0,0:0:0:0:
239,116,35198,1,2,0:1:0:0:
178,321,35360,1,2,0:1:0:0:
100,167,35522,1,8,0:0:0:0:
420,119,35684,5,2,1:0:0:0:
315,263,35847,1,0,0:0:0:0:
239,116,36009,1,2,1:0:0:0:
416,20,36171,6,0,B|434:65|434:65|416:136,1,104.500003189087,8|0,0:0|0:0,0:0:0:0:
348,166,36414,1,0,0:0:0:0:
348,166,36495,2,0,L|238:148,1,104.500003189087,0|0,1:0|0:0,0:0:0:0:
48,209,36819,1,8,0:0:0:0:
148,80,36982,1,0,1:0:0:0:
148,80,37063,1,0,1:0:0:0:
148,80,37144,6,0,L|142:185,1,104.500003189087,0|0,1:0|0:0,0:0:0:0:
41,289,37468,1,8,0:0:0:0:
255,290,37630,1,0,0:0:0:0:
135,366,37792,1,2,0:1:0:0:
348,166,37955,5,2,0:1:0:0:
172,294,38117,1,8,0:0:0:0:
338,342,38279,6,0,P|355:295|334:237,1,104.500003189087,2|0,1:0|0:0,0:0:0:0:
255,290,38603,1,2,1:0:0:0:
249,77,38765,2,0,L|401:64,1,104.500003189087,8|0,0:0|0:0,0:0:0:0:
77,142,39090,1,0,1:0:0:0:
115,125,39171,1,0,1:0:0:0:
156,127,39252,1,0,1:0:0:0:
195,141,39333,1,0,1:0:0:0:
220,174,39414,2,0,L|206:236,1,52.2500015945435,8|0,1:2|0:0,0:0:0:0:
101,374,39576,6,0,B|86:263|86:263|136:210,1,156.750004783631,4|0,1:2|0:0,0:0:0:0:
141,207,39901,1,0,1:0:0:0:
373,332,40063,2,0,L|494:320,1,104.500003189087,8|0,0:0|0:0,0:0:0:0:
330,145,40387,5,2,0:1:0:0:
440,200,40549,1,2,0:1:0:0:
303,220,40711,1,8,0:0:0:0:
460,43,40874,5,2,1:0:0:0:
440,200,41036,1,0,0:0:0:0:
261,89,41198,1,2,1:0:0:0:
349,49,41360,2,0,P|356:95|322:152,1,104.500003189087,8|0,0:0|0:0,0:0:0:0:
136,198,41684,1,2,0:1:0:0:
261,89,41847,1,2,0:1:0:0:
212,262,42009,1,8,0:0:0:0:
354,380,42171,6,0,P|377:312|357:260,1,104.500003189087,2|0,1:0|0:0,0:0:0:0:
252,382,42495,1,2,1:0:0:0:
324,183,42657,2,0,L|205:185,1,104.500003189087,8|0,0:0|0:0,0:0:0:0:
68,96,42982,5,2,0:1:0:0:
219,185,43144,1,2,0:1:0:0:
51,246,43306,2,0,B|43:312|43:312|64:365,1,104.500003189087,8|0,0:0|1:0,0:0:0:0:
333,351,43630,5,8,0:0:0:0:
219,185,43792,1,2,1:0:0:0:
117,302,43955,5,8,0:0:0:0:
324,183,44117,1,2,1:0:0:0:
162,30,44279,6,0,L|171:101,1,52.2500015945435,0|0,1:0|0:0,0:0:0:0:
262,303,44441,2,0,L|272:250,1,52.2500015945435,0|0,1:0|0:0,0:0:0:0:
316,110,44603,2,0,L|326:177,1,52.2500015945435,8|0,1:2|0:0,0:0:0:0:
324,183,44765,6,0,B|356:161|356:161|430:181|430:181|446:220,1,156.750004783631,4|0,1:2|0:0,0:0:0:0:
372,246,45090,1,0,1:0:0:0:
181,250,45252,2,0,P|134:221|74:232,1,104.500003189087,8|0,0:0|0:0,0:0:0:0:
15,329,45576,1,2,0:1:0:0:
144,103,45738,1,2,0:1:0:0:
117,302,45901,1,8,0:0:0:0:
30,117,46063,5,2,1:0:0:0:
232,147,46225,1,0,0:0:0:0:
30,117,46387,1,2,1:0:0:0:
298,64,46549,2,0,L|411:73,1,104.500003189087,8|0,0:0|0:0,0:0:0:0:
507,13,46874,1,2,0:1:0:0:
353,176,47036,1,2,0:1:0:0:
460,379,47198,2,0,B|480:323|480:323|466:263,1,104.500003189087,8|0,0:0|0:0,0:0:0:0:
394,246,47441,1,0,0:0:0:0:
394,246,47522,6,0,L|279:251,1,104.500003189087,2|2,0:1|0:1,0:1:0:0:
139,217,47847,5,8,0:0:0:0:
179,353,48009,1,2,1:0:0:0:
289,250,48171,1,0,0:0:0:0:
59,267,48333,2,0,P|43:206|72:159,1,104.500003189087,2|8,1:0|0:0,0:0:0:0:
178,55,48657,6,0,L|44:44,1,104.500003189087,4|0,1:2|0:0,0:0:0:0:
257,83,48982,2,0,L|247:141,1,52.2500015945435,0|0,1:0|0:0,0:0:0:0:
289,250,49144,2,0,L|423:239,1,104.500003189087,4|0,1:2|0:0,0:0:0:0:
480,45,49468,2,0,L|469:107,1,52.2500015945435,0|0,1:0|0:0,0:0:0:0:
368,165,49630,2,0,L|379:103,1,52.2500015945435,0|0,1:0|0:0,0:0:0:0:
496,180,49792,2,0,L|434:169,1,52.2500015945435,8|0,1:2|0:0,0:0:0:0:
291,26,49955,6,0,L|394:44,1,104.500003189087,4|0,1:2|0:0,0:0:0:0:
289,250,50279,1,2,1:0:0:0:
195,298,50441,2,0,P|141:279|81:302,1,104.500003189087,8|0,0:0|0:0,0:0:0:0:
370,277,50765,2,0,P|420:288|468:269,1,104.500003189087,2|2,0:1|0:1,0:1:0:0:
197,97,51090,1,8,0:0:0:0:
197,97,51171,1,0,0:0:0:0:
197,97,51252,6,0,L|71:88,1,104.500003189087,2|0,1:0|0:0,0:0:0:0:
142,199,51576,1,2,1:0:0:0:
270,145,51738,2,0,P|289:85|258:26,1,104.500003189087,8|0,0:0|0:0,0:0:0:0:
142,4,52063,1,2,0:1:0:0:
270,145,52225,1,2,0:1:0:0:
371,31,52387,1,8,0:0:0:0:
469,144,52549,6,0,B|414:135|414:135|356:161,1,104.500003189087,2|0,1:0|0:0,0:0:0:0:
457,55,52874,1,2,1:0:0:0:
331,241,53036,2,0,B|386:250|386:250|444:224,1,104.500003189087,8|0,0:0|0:0,0:0:0:0:
507,301,53360,1,2,0:1:0:0:
430,230,53522,1,2,0:1:0:0:
310,365,53684,1,8,0:0:0:0:
200,241,53847,1,0,0:0:0:0:
158,234,53928,1,0,0:0:0:0:
116,227,54009,5,8,1:2:0:0:
368,89,54171,1,2,1:2:0:0:
124,101,54333,5,8,1:2:0:0:
341,178,54495,1,2,1:2:0:0:
43,341,54657,5,8,0:0:0:0:
17,301,54738,1,8,0:0:0:0:
28,255,54819,1,8,0:0:0:0:
61,221,54901,1,8,0:0:0:0:
107,212,54982,2,8,L|169:229,1,52.2500015945435,8|8,1:2|0:0,0:0:0:0:
204,241,55144,6,0,B|163:229|163:229|180:375,1,156.750004783631,4|0,1:2|0:0,0:0:0:0:
182,375,55468,1,0,1:0:0:0:
450,236,55630,5,0,1:0:0:0:
249,135,55792,1,0,0:0:0:0:
296,358,55955,2,0,L|286:284,1,61.7499971733095
450,236,56279,2,0,L|460:162,1,61.7499971733095,0|0,1:0|0:0,0:0:0:0:
471,100,56522,1,0,0:0:0:0:
471,100,56603,5,0,0:0:0:0:
242,107,56765,1,0,0:0:0:0:
285,269,56928,2,0,P|299:228|291:187,1,85.4999973907472,0|0,1:0|0:0,0:0:0:0:
242,107,57252,2,0,L|161:101,1,61.7499971733095
130,31,57576,2,0,L|49:37,1,61.7499971733095,0|0,1:0|0:0,0:0:0:0:
64,163,57901,6,0,B|43:210|43:210|54:260,1,95
209,367,58225,1,0,1:0:0:0:
285,269,58387,1,0,0:0:0:0:
124,221,58549,2,0,L|201:227,1,61.7499971733095
351,347,58874,2,0,L|412:342,1,61.7499971733095,0|0,1:0|0:0,0:0:0:0:
469,284,59117,1,0,0:0:0:0:
469,284,59198,5,0,0:0:0:0:
468,64,59360,1,0,0:0:0:0:
504,203,59522,2,0,P|449:200|381:273,1,142.5,0|0,1:0|0:0,0:0:0:0:
379,288,59847,6,0,P|343:290|310:279,1,71.2500027179719,0|0,1:0|0:0,0:0:0:0:
257,180,60009,6,0,P|225:186|192:216,1,47.5,0|0,1:0|0:3,0:3:0:0:
140,263,60171,6,0,P|115:241|107:216,1,35.625001358986,0|0,1:0|0:3,0:3:0:0:
19,125,60333,6,0,P|80:94|140:127,1,142.5,4|0,1:2|0:0,0:0:0:0:
78,170,60657,1,0,1:0:0:0:
130,352,60819,2,0,P|121:309|145:257,1,95,4|0,1:2|0:0,0:0:0:0:
167,249,61063,1,0,0:0:0:0:
167,249,61144,2,0,L|273:261,1,95,0|0,1:0|0:0,0:0:0:0:
352,158,61468,5,0,1:0:0:0:
416,313,61630,2,0,L|310:325,1,95,2|0,0:0|0:0,0:0:0:0:
424,123,61955,2,0,B|435:166|435:166|409:226,1,95,2|0,0:0|1:0,0:0:0:0:
241,127,62279,1,0,0:0:0:0:
241,127,62360,1,0,0:0:0:0:
241,127,62441,2,0,B|230:84|230:84|256:24,1,95
322,90,62765,5,0,1:0:0:0:
81,171,62928,2,0,L|95:282,1,95
239,312,63252,1,2,0:0:0:0:
353,234,63414,1,0,1:0:0:0:
239,312,63576,1,2,0:0:0:0:
225,347,63657,1,0,0:0:0:0:
236,383,63738,1,0,0:0:0:0:
362,326,63901,1,0,0:0:0:0:
482,372,64063,5,0,1:0:0:0:
353,234,64225,2,0,L|359:134,1,95
455,30,64549,1,2,0:0:0:0:
359,140,64711,1,0,1:0:0:0:
500,108,64874,1,2,0:0:0:0:
273,80,65036,1,0,1:0:0:0:
228,63,65117,1,0,0:0:0:0:
180,63,65198,1,0,1:0:0:0:
138,85,65279,1,0,0:0:0:0:
108,122,65360,2,0,L|117:184,1,47.5,0|0,1:0|0:0,0:0:0:0:
174,383,65522,6,0,B|194:332|194:332|178:216,1,142.5,4|0,1:2|0:0,0:0:0:0:
178,218,65847,1,0,1:0:0:0:
353,234,66009,1,0,1:0:0:0:
258,192,66171,1,0,0:0:0:0:
265,238,66252,1,0,0:0:0:0:
273,284,66333,5,0,0:0:0:0:
461,224,66495,1,2,0:0:0:0:
364,353,66657,5,0,1:0:0:0:
400,111,66819,2,0,L|506:124,1,95,2|0,0:0|0:0,0:0:0:0:
465,33,67144,1,0,0:0:0:0:
262,101,67306,2,0,B|217:113|217:113|164:100,1,95,0|0,1:0|0:0,0:0:0:0:
116,45,67549,1,0,0:0:0:0:
116,45,67630,2,2,L|20:54,1,95
22,161,67955,5,0,1:0:0:0:
102,303,68117,2,0,P|88:228|111:195,1,95
196,164,68441,1,2,0:0:0:0:
237,287,68603,1,0,1:0:0:0:
328,253,68765,1,2,0:0:0:0:
340,360,68928,2,0,L|447:358,1,95
433,149,69252,5,0,1:0:0:0:
471,53,69414,2,0,B|424:43|424:43|362:68,1,95
433,149,69738,1,2,0:0:0:0:
402,282,69901,1,0,1:0:0:0:
280,217,70063,1,2,0:0:0:0:
239,191,70144,1,0,0:0:0:0:
191,187,70225,1,8,0:0:0:0:
147,205,70306,1,8,0:0:0:0:
105,228,70387,1,8,0:0:0:0:
57,224,70468,1,8,0:0:0:0:
18,196,70549,6,0,L|94:192,1,47.5,0|0,1:0|0:0,0:0:0:0:
276,335,70711,2,0,L|151:324,1,95,4|0,1:2|0:0,0:0:0:0:
280,217,71036,1,0,0:0:0:0:
87,154,71198,2,0,B|76:111|76:111|93:60,1,95,0|0,1:0|0:0,0:0:0:0:
227,42,71522,1,0,0:0:0:0:
365,94,71684,1,2,0:0:0:0:
209,125,71847,5,0,1:0:0:0:
444,57,72009,2,0,B|453:107|453:107|428:165,1,95,2|0,0:0|0:0,0:0:0:0:
363,310,72333,1,0,0:0:0:0:
374,215,72495,2,0,L|268:217,1,95,0|0,1:0|0:0,0:0:0:0:
169,283,72819,1,0,0:0:0:0:
279,216,72982,1,2,0:0:0:0:
281,334,73144,5,0,1:0:0:0:
86,329,73306,2,0,P|73:273|99:223,1,95,2|0,0:0|0:0,0:0:0:0:
235,92,73630,1,0,0:0:0:0:
149,152,73792,2,0,L|35:139,1,95,0|0,1:0|0:0,0:0:0:0:
235,92,74117,2,0,L|349:79,1,95,0|2,0:0|0:0,0:0:0:0:
279,216,74441,5,0,1:0:0:0:
405,33,74603,2,0,B|418:81|418:81|390:157,1,95,2|0,0:0|0:0,0:0:0:0:
279,216,74928,1,0,0:0:0:0:
483,232,75090,2,0,B|424:190|424:190|328:212,1,142.5,0|0,1:0|0:0,0:0:0:0:
279,216,75414,2,0,L|292:274,1,47.5,0|0,1:0|0:0,0:0:0:0:
171,383,75576,2,0,L|182:337,1,47.5,2|0,1:0|0:0,0:0:0:0:
183,171,75738,2,0,L|196:229,1,47.5,4|0,1:2|0:0,0:0:0:0:
115,269,75901,5,4,1:2:0:0:
32,265,86441,6,0,B|81:253|81:253|155:282,1,95,4|0,1:2|0:0,0:0:0:0:
208,145,86765,1,0,1:0:0:0:
198,240,86928,2,0,L|211:123,1,95
348,83,87252,1,2,0:0:0:0:
406,245,87414,2,0,B|357:257|357:257|283:228,1,95,0|2,1:0|0:0,0:0:0:0:
348,83,87738,6,0,L|358:177,1,95,2|0,0:1|0:0,0:0:0:0:
21,359,88063,2,0,L|31:264,1,95,0|0,1:0|0:0,0:0:0:0:
50,111,88387,1,0,0:0:0:0:
148,206,88549,1,2,0:0:0:0:
60,196,88711,1,0,1:0:0:0:
208,145,88874,1,2,0:0:0:0:
208,145,88955,1,0,0:0:0:0:
208,145,89036,5,2,0:1:0:0:
161,288,89198,1,0,0:0:0:0:
60,196,89360,5,0,1:0:0:0:
251,290,89522,1,0,0:0:0:0:
344,107,89684,2,0,L|337:13,1,95,0|2,0:0|0:0,0:0:0:0:
455,197,90009,2,0,B|475:244|475:244|451:310,1,95,0|2,1:0|0:0,0:0:0:0:
359,349,90333,5,2,0:1:0:0:
391,249,90495,1,0,0:0:0:0:
469,313,90657,5,0,1:0:0:0:
268,216,90819,1,0,0:0:0:0:
129,333,90982,2,0,B|84:345|84:345|37:337,1,95,0|2,0:0|0:0,0:0:0:0:
220,145,91306,2,0,B|266:134|266:134|313:142,1,95,0|2,1:0|0:0,0:0:0:0:
84,264,91630,6,0,P|56:163|102:68,1,190,4|0,1:2|1:0,0:0:0:0:
220,145,92117,2,0,L|214:50,1,95
342,168,92441,2,0,P|357:212|344:261,1,95,2|0,0:0|1:0,0:0:0:0:
262,345,92765,6,0,L|139:336,1,95,2|2,0:0|0:1,0:0:0:0:
440,251,93090,1,0,0:0:0:0:
345,258,93252,2,0,L|468:249,1,95,0|0,1:0|0:0,0:0:0:0:
485,88,93576,1,0,0:0:0:0:
440,251,93738,1,2,0:0:0:0:
306,81,93901,1,0,1:0:0:0:
220,150,94063,1,2,0:0:0:0:
220,150,94144,1,0,0:0:0:0:
220,150,94225,5,2,0:1:0:0:
393,130,94387,1,0,0:0:0:0:
345,258,94549,5,0,1:0:0:0:
219,67,94711,1,0,0:0:0:0:
91,257,94874,2,0,B|152:267|152:267|213:243,1,95,0|2,0:0|0:0,0:0:0:0:
392,334,95198,2,0,P|345:344|300:332,1,95,0|0,1:0|0:0,0:0:0:0:
264,230,95522,5,2,0:1:0:0:
393,130,95684,1,0,0:0:0:0:
345,258,95847,1,0,1:0:0:0:
441,63,96009,1,0,1:0:0:0:
469,100,96090,1,0,1:0:0:0:
470,147,96171,1,2,0:0:0:0:
345,258,96333,1,2,0:0:0:0:
231,152,96495,2,0,P|182:134|127:144,1,95,0|2,1:0|0:0,0:0:0:0:
76,204,96819,5,4,1:2:0:0:
163,336,96982,1,0,0:0:0:0:
76,204,97144,1,0,1:0:0:0:
129,40,97306,1,0,0:0:0:0:
129,40,97387,1,0,0:0:0:0:
129,40,97468,1,0,0:1:0:0:
147,138,97630,1,2,0:0:0:0:
45,105,97792,1,0,1:0:0:0:
234,70,97955,1,2,0:0:0:0:
252,177,98117,6,0,P|259:243|232:284,1,95,2|0,0:1|0:0,0:0:0:0:
85,381,98441,2,0,P|78:315|105:274,1,95,0|0,1:0|0:0,0:0:0:0:
153,256,98684,1,0,0:0:0:0:
153,256,98765,2,0,L|253:268,1,95,0|2,0:0|0:0,0:0:0:0:
412,318,99090,2,0,L|312:330,1,95,0|0,1:0|0:0,0:0:0:0:
461,144,99414,6,0,B|473:196|473:196|451:244,1,95,2|0,0:1|0:0,0:0:0:0:
412,49,99738,1,0,1:0:0:0:
386,190,99901,2,0,L|286:202,1,95
106,95,100225,2,0,L|206:107,1,95,2|0,0:0|1:0,0:0:0:0:
38,150,100549,1,2,0:0:0:0:
38,150,100630,1,0,0:0:0:0:
38,150,100711,6,0,B|20:112|20:112|32:60,1,95,2|0,0:1|0:0,0:0:0:0:
110,17,101036,1,0,1:0:0:0:
202,187,101198,1,0,0:0:0:0:
108,209,101360,5,0,0:1:0:0:
282,105,101522,1,2,0:0:0:0:
386,190,101684,2,0,P|400:235|373:289,1,95,0|2,1:0|0:0,0:0:0:0:
302,333,102009,6,0,L|97:305,1,190,4|0,1:2|1:0,0:0:0:0:
202,187,102495,1,0,0:0:0:0:
86,70,102657,2,0,L|205:57,1,95,0|2,0:1|0:0,0:0:0:0:
282,105,102982,1,0,1:0:0:0:
448,241,103144,6,0,B|469:196|469:196|454:148,1,95,2|2,0:0|0:1,0:0:0:0:
202,187,103468,2,0,B|188:230|188:230|209:275,1,95,0|0,0:0|1:0,0:0:0:0:
280,229,103792,1,0,0:0:0:0:
282,105,103955,2,0,L|164:97,1,95,0|2,0:0|0:0,0:0:0:0:
0,358,104279,2,0,L|118:350,1,95,0|2,1:0|0:0,0:0:0:0:
158,301,104522,1,0,0:0:0:0:
158,301,104603,6,0,P|168:241|151:199,1,95,2|0,0:1|0:0,0:0:0:0:
51,71,104928,1,0,1:0:0:0:
282,105,105090,1,0,0:0:0:0:
282,105,105171,1,0,0:0:0:0:
282,105,105252,2,0,L|382:96,1,95,0|2,0:1|0:0,0:0:0:0:
445,257,105576,2,0,L|454:352,1,95,0|2,1:0|0:0,0:0:0:0:
321,269,105901,5,2,0:1:0:0:
407,193,106063,1,2,0:0:0:0:
328,285,106225,1,0,1:0:0:0:
212,204,106387,1,2,0:0:0:0:
212,204,106468,1,0,0:0:0:0:
212,204,106549,5,0,1:0:0:0:
145,307,106711,1,2,0:0:0:0:
84,178,106874,1,0,1:0:0:0:
147,320,107036,1,2,0:0:0:0:
224,126,107198,6,0,L|214:15,1,95,4|0,1:2|0:0,0:0:0:0:
293,179,107522,1,0,1:0:0:0:
110,98,107684,2,0,P|69:94|12:129,1,95
271,281,108009,1,2,0:0:0:0:
271,281,108090,1,0,0:0:0:0:
271,281,108171,2,0,P|312:303|359:300,1,95,0|2,1:0|0:0,0:0:0:0:
415,215,108495,5,0,1:0:0:0:
445,316,108657,1,0,0:0:0:0:
471,134,108819,1,0,1:0:0:0:
459,330,108982,1,0,0:0:0:0:
512,224,109144,5,0,0:1:0:0:
369,132,109306,1,2,0:0:0:0:
480,44,109468,2,0,P|488:85|463:145,1,95,0|2,1:0|0:0,0:0:0:0:
415,215,109711,1,0,0:0:0:0:
415,215,109792,6,0,L|291:202,1,95,2|0,0:1|0:0,0:0:0:0:
78,189,110117,2,0,B|65:134|65:134|79:81,1,95,0|0,1:0|0:0,0:0:0:0:
247,127,110441,2,0,L|153:137,1,95,0|2,0:1|0:0,0:0:0:0:
96,287,110765,1,0,1:0:0:0:
232,234,110928,1,2,0:0:0:0:
232,234,111009,1,0,1:0:0:0:
232,234,111090,5,0,1:0:0:0:
232,373,111252,1,2,0:0:0:0:
232,234,111414,1,0,1:0:0:0:
369,307,111576,1,2,0:0:0:0:
486,182,111738,5,0,1:0:0:0:
360,129,111901,1,2,0:0:0:0:
486,182,112063,1,0,1:0:0:0:
325,222,112225,1,2,0:0:0:0:
432,52,112387,6,0,L|297:29,1,95,4|0,1:2|0:0,0:0:0:0:
66,193,112711,2,0,L|201:170,1,95,0|0,1:0|0:0,0:0:0:0:
232,234,112955,1,0,0:0:0:0:
232,234,113036,2,0,P|248:286|218:341,1,95,0|2,0:0|0:0,0:0:0:0:
66,193,113360,2,0,P|53:148|69:104,1,95,0|2,1:0|0:0,0:0:0:0:
146,37,113684,5,0,1:0:0:0:
69,104,113847,1,2,0:0:0:0:
206,116,114009,1,0,1:0:0:0:
146,37,114171,1,2,0:0:0:0:
283,49,114333,1,0,0:0:0:0:
206,116,114496,1,2,0:0:0:0:
343,128,114657,1,0,1:0:0:0:
283,49,114819,1,2,0:0:0:0:
299,202,114982,6,0,L|307:303,1,95,0|0,1:0|0:0,0:0:0:0:
57,353,115306,2,0,P|46:296|77:250,1,95,0|0,1:0|0:0,0:0:0:0:
101,239,115549,1,0,1:0:0:0:
148,243,115630,1,0,1:0:0:0:
210,318,115792,1,2,0:0:0:0:
299,202,115955,1,0,1:0:0:0:
402,259,116117,1,2,0:0:0:0:
402,259,116198,1,0,0:0:0:0:
402,259,116279,5,4,1:2:0:0:
487,93,116441,1,2,0:0:0:0:
278,94,116603,1,0,1:0:0:0:
489,199,116765,1,2,0:0:0:0:
318,23,116928,5,8,0:0:0:0:
270,16,117009,1,8,0:0:0:0:
227,36,117090,1,8,0:0:0:0:
204,77,117171,1,0,0:0:0:0:
210,124,117252,1,2,3:1:0:0:
197,169,117333,1,2,3:1:0:0:
158,197,117414,1,2,3:1:0:0:
111,207,117495,1,2,3:1:0:0:
66,190,117576,6,0,L|75:98,1,71.2500027179719,4|0,1:2|0:0,0:0:0:0:
408,214,118874,5,0,1:0:0:0:
280,172,119036,1,0,1:0:0:0:
156,274,120171,5,0,1:0:0:0:
408,214,120333,1,0,1:0:0:0:
188,369,121468,5,0,1:0:0:0:
158,196,121630,1,0,1:0:0:0:
247,266,122117,5,0,1:0:0:0:
319,108,122279,1,0,1:0:0:0:
249,59,122441,2,0,B|236:106|236:106|255:170,1,95,4|0,1:3|0:0,0:0:0:0:
327,187,122684,1,0,0:0:0:0:
327,187,122765,6,0,L|427:178,1,95,0|0,1:2|0:0,0:0:0:0:
208,290,123090,2,0,L|108:281,1,95,0|0,1:0|0:0,0:0:0:0:
0,219,123414,1,2,1:0:0:0:
129,189,123576,1,2,0:0:0:0:
121,235,123657,1,0,0:0:0:0:
114,281,123738,1,0,1:0:0:0:
41,113,123901,1,2,0:0:0:0:
208,291,124063,6,0,B|255:278|255:278|314:289,1,95,2|0,1:0|0:0,0:0:0:0:
512,107,124387,2,0,B|465:120|465:120|406:109,1,95,0|0,1:0|0:0,0:0:0:0:
256,62,124711,1,0,1:0:0:0:
330,13,124874,1,2,0:0:0:0:
346,57,124955,1,0,0:0:0:0:
333,102,125036,1,0,1:0:0:0:
224,149,125198,1,2,0:0:0:0:
79,69,125360,6,0,L|182:74,1,95,0|2,1:0|0:0,0:0:0:0:
172,212,125684,1,0,0:0:0:0:
173,73,125847,1,0,1:0:0:0:
108,159,126009,2,0,P|90:201|117:266,1,95,2|0,0:0|0:0,0:0:0:0:
255,316,126333,1,0,1:0:0:0:
411,247,126495,2,0,P|422:202|404:159,1,95,2|0,0:0|0:0,0:0:0:0:
346,57,126819,2,0,L|422:43,1,47.5,0|0,1:0|0:0,0:0:0:0:
318,157,126982,2,0,L|211:147,1,95,2|0,0:0|0:0,0:0:0:0:
108,159,127306,5,0,1:0:0:0:
173,73,127468,1,2,0:0:0:0:
73,8,127630,5,0,1:0:0:0:
188,245,127792,1,2,0:0:0:0:
416,279,127955,5,0,1:0:0:0:
373,256,128036,1,0,0:0:0:0:
325,254,128117,1,0,1:0:0:0:
281,272,128198,1,0,0:0:0:0:
252,309,128279,1,0,0:0:0:0:
208,328,128360,1,0,0:0:0:0:
160,324,128441,1,0,1:0:0:0:
122,295,128522,1,0,0:0:0:0:
106,250,128603,6,0,L|21:256,1,56.9999982604981,4|0,1:2|0:0,0:0:0:0:
318,157,128765,2,0,L|403:163,1,56.9999982604981
173,73,128928,6,0,L|258:79,1,56.9999982604981,0|0,1:2|0:0,0:0:0:0:
373,256,129090,2,0,L|429:251,1,56.9999982604981,0|0,1:0|0:0,0:0:0:0:
459,46,129252,1,0,1:0:0:0:
421,72,129333,1,0,0:0:0:0:
407,115,129414,1,0,1:0:0:0:
423,157,129495,1,0,0:0:0:0:
463,177,129576,1,8,1:2:0:0:
499,203,129657,1,8,0:0:0:0:
510,247,129738,1,8,0:0:0:0:
498,291,129819,1,8,0:0:0:0:
463,321,129901,6,0,B|405:343|365:308|365:308|321:355|268:352|226:318|260:250|312:273|333:323,1,285,2|0,1:0|0:0,0:0:0:0:
296,309,130549,6,0,L|161:317,1,95,4|0,1:2|0:0,0:0:0:0:
60,134,130874,2,0,B|125:121|125:121|173:132,1,104.500003189087,8|0,0:0|0:0,0:0:0:0:
256,158,131198,1,2,0:1:0:0:
126,210,131360,1,2,0:1:0:0:
214,6,131522,1,8,0:0:0:0:
377,197,131684,2,0,L|365:327,1,104.500003189087,6|0,1:0|0:0,0:0:0:0:
465,250,132009,1,2,0:1:0:0:
248,284,132171,2,0,L|121:288,1,104.500003189087,8|2,0:0|0:0,0:0:0:0:
126,210,132414,1,0,1:0:0:0:
126,210,132495,6,0,L|136:127,1,52.2500015945435,0|0,1:0|0:0,0:0:0:0:
36,48,132657,2,0,L|44:102,1,52.2500015945435,4|0,1:2|0:0,0:0:0:0:
216,133,132819,2,0,L|210:184,1,52.2500015945435,0|0,1:0|0:0,0:0:0:0:
17,350,132982,6,0,B|73:321|73:321|113:363|204:351,1,156.750004783631,4|0,1:0|0:0,0:0:0:0:
193,350,133306,1,2,0:1:0:0:
409,304,133468,2,0,P|475:328|527:304,1,104.500003189087,8|0,0:0|0:0,0:0:0:0:
512,120,133792,1,2,0:1:0:0:
465,250,133955,1,2,0:1:0:0:
439,42,134117,1,8,0:0:0:0:
352,252,134279,5,6,1:0:0:0:
322,80,134441,1,0,0:0:0:0:
211,121,134603,1,2,0:1:0:0:
154,42,134765,6,0,L|43:36,1,104.500003189087,8|0,0:0|0:0,0:0:0:0:
0,208,135090,2,0,L|111:202,1,104.500003189087,0|0,1:0|0:0,0:0:0:0:
211,121,135414,2,0,L|203:193,1,52.2500015945435,8|0,0:0|0:0,0:0:0:0:
173,379,135576,6,0,B|151:315|151:315|176:259,1,104.500003189087,4|0,1:0|0:0,0:0:0:0:
368,199,135901,1,0,1:0:0:0:
471,285,136063,2,0,B|397:251|397:307|311:262,1,156.750004783631,8|0,0:0|0:0,0:0:0:0:
300,252,136387,2,0,P|284:221|292:169,1,63.1749973972703,2|0,1:0|0:0,0:0:0:0:
415,32,136549,2,0,B|429:56|429:56|420:97,1,63.1749973972703,2|0,1:0|0:0,0:0:0:0:
211,113,136711,2,0,L|131:101,1,63.1749973972703,8|0,1:2|0:0,0:0:0:0:
368,199,136874,6,0,B|440:187|440:187|506:219,1,113.999996520996,4|0,1:0|0:0,0:0:0:0:
311,65,137198,1,2,1:0:0:0:
156,376,137360,2,0,P|145:295|194:239,1,113.999996520996,8|0,0:0|0:0,0:0:0:0:
224,222,137603,1,0,1:0:0:0:
224,222,137684,2,0,L|335:237,1,63.1749973972703,0|0,1:0|0:0,0:0:0:0:
470,110,137847,2,0,L|358:122,1,63.1749973972703,0|0,1:2|0:0,0:0:0:0:
422,316,138009,2,0,B|433:294|433:294|425:238,1,63.1749973972703,8|0,1:2|0:0,0:0:0:0:
311,65,138171,6,0,B|284:93|284:93|305:236,1,170.999994781494,4|0,1:0|0:0,0:0:0:0:
311,256,138495,1,2,1:0:0:0:
212,128,138657,2,0,L|105:114,1,104.500003189087,8|0,0:0|0:0,0:0:0:0:
0,98,138982,1,2,1:0:0:0:
216,241,139144,1,2,1:0:0:0:
179,35,139306,1,8,0:0:0:0:
60,306,139468,5,6,1:0:0:0:
332,226,139630,1,0,1:0:0:0:
179,35,139792,1,2,0:1:0:0:
203,318,139955,1,8,0:0:0:0:
441,160,140117,1,2,0:1:0:0:
388,42,140279,5,0,1:0:0:0:
332,226,140441,1,2,0:1:0:0:
195,146,140603,1,8,0:0:0:0:
36,268,140765,6,0,B|66:293|105:290|105:290|161:263|225:314,1,156.750004783631,4|0,1:0|0:0,0:0:0:0:
203,318,141090,1,2,1:0:0:0:
438,314,141252,2,0,B|318:293|318:293|343:350,1,156.750004783631,4|0,1:2|0:0,0:0:0:0:
345,350,141576,2,0,L|352:208,1,104.500003189087,2|0,1:0|1:0,0:0:0:0:
246,66,141901,1,8,0:0:0:0:
435,122,142063,1,0,1:0:0:0:
435,122,142144,1,0,1:0:0:0:
435,122,142225,6,0,P|382:108|318:149,1,104.500003189087,4|0,1:0|0:0,0:0:0:0:
91,222,142549,2,0,P|155:254|239:211,1,156.750004783631,8|0,0:0|1:0,0:0:0:0:
247,150,142874,2,0,L|240:98,1,52.2500015945435,0|0,1:0|0:0,0:0:0:0:
321,279,143036,2,0,L|315:331,1,52.2500015945435,4|0,1:2|0:0,0:0:0:0:
415,209,143198,2,0,L|412:127,1,52.2500015945435,8|0,1:2|0:0,0:0:0:0:
422,31,143360,6,0,B|446:61|446:61|314:46,1,156.750004783631,4|0,1:0|0:0,0:0:0:0:
292,42,143684,1,2,1:0:0:0:
20,47,143847,2,0,L|136:43,1,104.500003189087,8|0,0:0|0:0,0:0:0:0:
196,84,144090,1,0,0:0:0:0:
196,84,144171,2,0,P|207:144|171:196,1,104.500003189087,2|2,1:0|1:0,0:0:0:0:
196,334,144495,1,8,0:0:0:0:
130,281,144657,6,0,B|180:253|180:253|317:266,1,156.750004783631,4|0,1:0|0:0,0:0:0:0:
311,266,144982,1,2,1:0:0:0:
447,123,145144,2,0,P|461:60|433:12,1,104.500003189087,8|0,0:0|0:0,0:0:0:0:
374,5,145387,1,0,1:0:0:0:
374,5,145468,2,0,L|306:11,1,52.2500015945435,0|0,1:0|0:0,0:0:0:0:
151,112,145630,2,0,L|219:118,1,52.2500015945435,4|0,1:2|0:0,0:0:0:0:
396,213,145792,2,0,L|341:220,1,52.2500015945435,8|0,1:2|0:0,0:0:0:0:
113,131,145955,6,0,B|105:242|105:242|139:294,1,156.750004783631,4|0,1:0|0:0,0:0:0:0:
148,298,146279,1,2,1:0:0:0:
390,311,146441,2,0,B|411:260|411:260|391:199,1,104.500003189087,8|0,0:0|0:0,0:0:0:0:
297,23,146765,2,0,B|276:74|276:74|296:135,1,104.500003189087,0|0,1:0|1:0,0:0:0:0:
390,311,147090,1,8,0:0:0:0:
470,65,147252,6,0,L|347:76,1,104.500003189087,6|0,1:0|0:0,0:0:0:0:
303,258,147576,1,2,1:0:0:0:
128,234,147738,2,0,P|184:220|261:262,1,104.500003189087,8|0,0:0|0:0,0:0:0:0:
54,362,148063,2,0,L|40:309,1,52.2500015945435,0|0,1:0|0:0,0:0:0:0:
125,209,148225,2,0,L|126:152,1,52.2500015945435,0|0,1:0|0:0,0:0:0:0:
233,107,148387,2,0,L|267:24,1,52.2500015945435,8|0,0:0|0:0,0:0:0:0:
400,198,148549,6,0,B|298:187|298:187|242:222,1,156.750004783631,4|0,1:0|0:0,0:0:0:0:
227,232,148874,1,2,1:0:0:0:
458,251,149036,2,0,P|481:198|459:145,1,104.500003189087,8|0,0:0|0:0,0:0:0:0:
306,104,149360,2,0,L|179:111,1,104.500003189087,2|2,1:0|1:0,0:0:0:0:
120,44,149684,1,8,0:0:0:0:
185,195,149847,5,4,1:0:0:0:
90,306,150009,1,0,1:0:0:0:
227,379,150171,5,6,1:0:0:0:
74,165,150333,1,0,1:0:0:0:
349,156,150495,5,6,1:0:0:0:
191,312,150657,1,8,1:2:0:0:
224,287,150738,1,8,1:2:0:0:
265,283,150819,1,8,1:2:0:0:
306,291,150901,1,2,1:0:0:0:
337,318,150982,1,2,1:0:0:0:
378,322,151063,1,2,1:0:0:0:
416,305,151144,6,0,B|447:234|447:234|432:130,1,156.750004783631,4|0,1:0|0:0,0:0:0:0:
427,122,151468,1,2,1:0:0:0:
384,34,151630,2,0,L|279:41,1,104.500003189087,6|0,1:0|0:0,0:0:0:0:
203,145,151955,5,0,0:0:0:0:
103,139,152117,1,2,0:0:0:0:
40,210,152279,1,0,1:0:0:0:
46,306,152441,1,2,0:0:0:0:
120,376,152603,6,0,P|147:317|122:254,1,95
17,123,152928,2,0,P|16:169|40:210,1,95,0|0,1:0|0:0,0:0:0:0:
212,238,153252,2,0,L|344:229,1,95,0|2,0:0|0:0,0:0:0:0:
391,143,153576,1,0,1:0:0:0:
408,289,153738,1,2,0:0:0:0:
408,289,153819,1,0,0:0:0:0:
408,289,153901,5,0,1:0:0:0:
391,143,154063,1,2,0:0:0:0:
269,321,154225,5,0,1:0:0:0:
398,136,154387,1,2,0:0:0:0:
170,174,154549,5,0,1:0:0:0:
407,130,154711,1,2,0:0:0:0:
258,34,154874,1,0,1:0:0:0:
187,275,155036,6,0,L|80:264,1,95,2|0,0:1|0:0,0:0:0:0:
46,107,155360,1,2,1:0:0:0:
66,259,155522,1,0,1:0:0:0:
270,230,155684,2,0,P|282:275|268:320,1,95
197,360,155928,1,0,1:0:0:0:
197,360,156009,2,0,L|142:351,1,47.5,0|0,1:2|0:0,0:0:0:0:
390,292,156171,2,0,L|445:283,1,47.5,0|0,1:0|0:0,0:0:0:0:
281,152,156333,6,0,B|225:143|225:143|187:159|187:159|109:143,1,142.5,4|0,1:2|0:0,0:0:0:0:
99,90,156657,1,0,1:0:0:0:
69,132,156738,1,0,1:0:0:0:
76,183,156819,1,0,0:0:0:0:
114,219,156901,1,0,0:0:0:0:
133,267,156982,1,0,0:0:0:0:
126,318,157063,1,0,0:0:0:0:
85,351,157144,5,0,1:0:0:0:
237,211,157306,1,2,0:0:0:0:
222,60,157468,5,0,1:0:0:0:
322,293,157630,1,2,0:0:0:0:
374,168,157792,6,0,L|473:173,1,95,0|0,1:0|0:0,0:0:0:0:
229,304,158117,2,0,B|172:317|172:317|125:302,1,95,0|0,1:0|0:0,0:0:0:0:
67,23,158441,1,2,0:1:0:0:
42,51,158522,1,2,0:0:0:0:
33,87,158603,1,2,1:2:0:0:
39,124,158684,1,2,0:0:0:0:
66,150,158765,2,0,L|130:138,1,47.5,0|0,1:0|0:0,0:0:0:0:
229,276,158928,6,0,L|404:299,1,142.5,6|0,1:2|0:0,0:0:0:0:
392,300,159252,1,2,1:0:0:0:
463,79,159414,5,0,1:0:0:0:
404,324,159576,1,2,0:1:0:0:
253,54,159738,5,0,1:0:0:0:
275,364,159901,1,2,0:1:0:0:
140,30,160063,5,0,1:0:0:0:
90,349,160225,1,2,0:1:0:0:
27,286,160387,5,8,1:2:0:0:
73,261,160468,1,8,0:2:0:0:
125,265,160549,1,8,0:2:0:0:
169,292,160630,1,0,1:0:0:0:
197,337,160711,1,2,0:1:0:0:
244,359,160792,1,2,0:1:0:0:
296,353,160874,1,2,0:1:0:0:
339,323,160955,1,2,0:1:0:0:
359,274,161036,6,0,L|353:213,1,47.5,0|0,1:0|0:0,0:0:0:0:
318,68,161198,2,0,L|322:20,1,47.5,2|0,0:1|0:0,0:0:0:0:
229,227,161360,2,0,L|225:180,1,47.5,0|0,1:0|0:0,0:0:0:0:
127,309,161522,6,0,P|172:328|246:228,1,190,4|0,1:2|0:0,0:0:0:0:
289,113,162009,1,0,0:0:0:0:
194,20,162171,6,0,P|175:65|275:139,1,190,4|0,1:2|0:0,0:0:0:0:
431,220,162657,2,0,P|385:198|326:214,1,95,0|0,1:0|0:0,0:0:0:0:
164,337,162982,6,0,L|149:252,1,85.4999973907472,0|0,1:0|0:0,0:0:0:0:
362,252,163306,2,0,L|348:337,1,85.4999973907472,0|0,1:0|0:0,0:0:0:0:
298,164,163630,5,0,1:0:0:0:
364,83,163792,1,2,0:0:0:0:
405,182,163955,5,0,1:0:0:0:
107,182,164117,1,2,0:0:0:0:
148,83,164279,5,0,1:0:0:0:
178,126,164360,1,0,1:0:0:0:
214,164,164441,1,2,1:2:0:0:
71,276,164603,1,0,1:0:0:0:
107,182,164765,1,2,0:0:0:0:
298,216,164928,5,0,1:0:0:0:
307,263,165009,1,0,1:0:0:0:
315,310,165090,1,2,1:2:0:0:
386,245,165253,1,0,1:0:0:0:
225,269,165415,1,2,0:0:0:0:
103,312,165576,5,0,1:0:0:0:
120,218,165738,1,2,0:0:0:0:
32,247,165901,1,0,1:0:0:0:
193,271,166063,1,2,0:0:0:0:
207,48,166225,5,8,0:0:0:0:
177,78,166306,1,8,0:0:0:0:
167,119,166387,1,8,0:0:0:0:
178,160,166468,1,8,0:0:0:0:
206,191,166549,2,0,L|280:188,1,42.7499986953736,0|0,1:0|0:0,0:0:0:0:
392,128,166711,6,0,B|354:160|354:160|374:278,1,142.5,4|0,1:2|0:0,0:0:0:0:
379,282,167036,1,0,1:0:0:0:
144,354,167198,2,0,B|178:380|178:380|154:252,1,142.5,4|0,1:2|0:0,0:0:0:0:
154,253,167522,1,2,1:0:0:0:
255,121,167684,1,2,1:0:0:0:
379,282,167847,1,0,1:0:0:0:
255,121,168009,6,0,P|247:73|269:28,1,95,2|0,1:0|0:0,0:0:0:0:
368,198,168333,1,2,1:0:0:0:
155,72,168495,1,0,1:0:0:0:
107,77,168576,1,0,1:0:0:0:
59,82,168657,1,0,1:0:0:0:
154,253,168819,1,0,1:0:0:0:
155,72,168982,1,2,0:0:0:0:
67,172,169144,1,0,1:0:0:0:
445,172,169306,6,0,L|436:274,1,95,2|2,1:2|0:0,0:0:0:0:
391,301,169549,1,8,0:0:0:0:
335,314,169630,1,8,0:0:0:0:
281,295,169711,1,8,0:0:0:0:
255,243,169792,1,0,1:0:0:0:
231,295,169874,1,2,0:1:0:0:
177,314,169955,1,2,0:1:0:0:
121,301,170036,1,2,0:1:0:0:
75,266,170117,6,0,L|67:172,1,95,2|2,1:0|1:0,0:0:0:0:
132,38,170441,1,0,1:0:0:0:
67,171,170603,1,4,1:2:0:0:
302,147,170765,5,8,0:0:0:0:
324,100,170846,1,8,0:0:0:0:
306,51,170927,1,8,0:0:0:0:
258,29,171008,1,8,0:0:0:0:
209,47,171089,1,2,1:0:0:0:
188,95,171170,1,2,1:0:0:0:
206,144,171251,1,2,1:0:0:0:
254,166,171333,1,2,1:0:0:0:
302,147,171414,6,0,L|388:158,1,47.5,0|0,1:0|0:0,0:0:0:0:
454,296,171576,2,0,L|401:301,1,47.5,4|0,1:2|0:0,0:0:0:0:
275,313,171738,2,0,L|282:261,1,47.5,0|0,1:0|0:0,0:0:0:0:
512,61,171901,6,0,P|513:150|450:19,1,475,6|0,1:0|0:0,0:0:0:0:
