osu file format v14

[General]
AudioFilename: audio.mp3
AudioLeadIn: 0
PreviewTime: 33252
Countdown: 0
SampleSet: Soft
StackLeniency: 0.7
Mode: 0
LetterboxInBreaks: 0
WidescreenStoryboard: 0

[Editor]
DistanceSpacing: 1
BeatDivisor: 4
GridSize: 4
TimelineZoom: 3.199999

[Metadata]
Title:Kimi no Yozora Shoukaihan
TitleUnicode:キミノヨゾラ哨戒班
Artist:Orangestar
ArtistUnicode:Orangestar
Creator:kanor
Version:Normal
Source:
Tags:ia vocaloid asu [_abhor_] -Sunflower- Hakurei Yoru Awaken アスノヨゾラ哨戒班 Lobelia Japanese lobelia sunflower
BeatmapID:1026641
BeatmapSetID:480945

[Difficulty]
HPDrainRate:3
CircleSize:3
OverallDifficulty:3
ApproachRate:5
SliderMultiplier:0.9
SliderTickRate:1

[Events]
//Background and Video events
0,0,"BG.jpg",0,0
//Break Periods
2,21776,25565
2,60533,64322
2,76100,80052
2,81452,85241
2,156533,160322
//Storyboard Layer 0 (Background)
//Storyboard Layer 1 (Fail)
//Storyboard Layer 2 (Pass)
//Storyboard Layer 3 (Foreground)
//Storyboard Layer 4 (Overlay)
//Storyboard Sound Samples

[TimingPoints]
820,324.324324324324,4,2,17,20,1,0
11198,-100,4,2,17,40,0,0
21576,-100,4,2,17,30,0,0
26765,-100,4,2,17,65,0,0
34387,-100,4,2,17,65,0,1
55630,-100,4,2,17,70,0,0
60333,-100,4,2,17,70,0,0
86441,-100,4,2,17,60,0,0
129252,-100,4,2,17,60,0,0
129901,-100,4,2,17,60,0,0
130549,-100,4,2,17,65,0,1
151144,-100,4,2,17,70,0,0
171982,-100,4,2,17,5,0,0

[Colours]
Combo1 : 117,117,123
Combo2 : 177,172,63
Combo3 : 81,88,153
Combo4 : 154,88,86

[HitObjects]
361,160,820,6,0,P|429:160|485:200,2,135,2|2|0,0:0|0:0|0:0,0:0:0:0:
271,170,2117,2,0,L|271:35,2,135,0|0|2,0:0|0:0|0:0,0:0:0:0:
232,251,3413,2,0,P|186:225|136:235,1,90
168,316,4063,2,0,L|24:316,2,135,0|0|0,0:0|0:0|0:0,0:0:0:0:
255,294,5360,1,2,0:0:0:0:
369,222,5847,6,0,P|354:293|385:358,2,135,2|0|2,0:0|0:0|0:0,0:0:0:0:
399,136,7144,2,0,P|447:165|452:208,2,90,0|0|2,0:0|0:0|0:0,0:0:0:0:
356,121,7955,2,0,P|312:110|270:124,1,90,0|0,0:0|0:0,0:0:0:0:
191,80,8603,6,0,L|183:224,2,135,2|2|0,0:0|0:0|0:0,0:0:0:0:
107,44,9901,2,0,L|100:188,2,135,0|0|0,0:0|0:0|3:0,0:0:0:0:
22,12,11198,6,0,L|16:110,1,90,4|0,0:0|1:0,0:0:0:0:
12,191,11847,2,0,L|6:289,1,90,2|0,0:1|1:0,0:0:0:0:
82,328,12495,2,0,P|130:319|184:339,1,90,2|0,0:1|1:0,0:0:0:0:
257,347,13144,2,0,P|305:356|359:336,1,90,2|0,0:1|1:0,0:0:0:0:
425,307,13792,6,0,P|456:276|466:228,1,90,2|0,0:1|1:0,0:0:0:0:
512,154,14441,2,0,P|469:141|423:156,1,90,2|0,0:1|1:0,0:0:0:0:
336,150,15090,2,0,P|346:192|382:225,2,90,2|0|2,0:1|1:0|0:1,0:0:0:0:
377,69,16063,1,0,1:0:0:0:
287,72,16387,6,0,P|209:66|103:0,1,180,4|2,0:0|0:1,0:0:0:0:
51,75,17360,1,0,1:0:0:0:
59,164,17684,2,0,P|137:170|182:237,2,135,2|2|0,0:1|0:0|1:0,0:0:0:0:
92,248,18982,6,0,L|109:359,1,90,2|0,0:1|1:0,0:0:0:0:
195,333,19630,2,0,P|242:326|301:343,1,90,2|0,0:1|1:0,0:0:0:0:
373,340,20279,2,0,L|390:229,2,90,2|0|2,0:1|1:0|0:1,0:0:0:0:
463,334,21252,6,0,L|480:223,1,90,4|4,0:3|0:0,0:0:0:0:
475,65,26765,6,0,L|486:182,1,90,4|0,0:0|1:0,0:0:0:0:
393,158,27414,2,0,L|404:275,1,90,2|0,0:1|1:0,0:0:0:0:
347,319,28063,2,0,L|230:308,1,90,2|0,0:1|1:0,0:0:0:0:
196,243,28711,2,0,L|79:232,1,90,2|0,0:1|1:1,0:0:0:0:
256,192,29360,12,2,33252,0:1:0:0:
40,72,34387,6,0,P|92:106|194:75,1,135,4|8,0:0|0:3,0:0:0:0:
228,38,35198,2,0,P|252:78|236:142,1,90,2|8,0:3|0:3,0:0:0:0:
234,208,35847,2,0,P|210:248|226:312,2,90,0|8|2,0:0|0:3|0:3,0:0:0:0:
319,178,36819,1,8,0:3:0:0:
404,205,37144,6,0,L|388:358,2,135,0|0|8,0:0|0:0|0:3,0:0:0:0:
460,134,38441,2,0,P|419:112|364:122,1,90,0|8,0:0|0:3,0:0:0:0:
292,147,39090,2,0,P|248:158|201:143,1,90,2|8,0:3|0:3,0:0:0:0:
163,131,39576,6,0,P|187:195|155:259,1,135,4|8,0:0|0:3,0:0:0:0:
94,313,40387,2,0,P|72:235|123:171,2,135,2|2|8,0:3|0:3|0:3,0:0:0:0:
180,339,41684,2,0,P|232:339|262:307,1,90,2|8,0:3|0:3,0:0:0:0:
327,256,42333,6,0,P|374:247|416:268,1,90,0|8,0:0|0:3,0:0:0:0:
476,201,42982,2,0,P|444:164|441:117,1,90,2|8,0:3|0:3,0:0:0:0:
352,104,43630,2,0,P|336:149|297:175,1,90,4|0,1:2|1:0,0:0:0:0:
213,167,44279,2,0,P|161:152|120:170,1,90,2|4,0:3|0:3,0:0:0:0:
103,200,44765,6,0,L|96:357,1,135,4|8,0:0|0:3,0:0:0:0:
187,339,45576,2,0,L|190:236,1,90,2|8,0:3|0:3,0:0:0:0:
279,253,46225,2,0,L|279:343,2,90,0|8|2,0:0|0:3|0:3,0:0:0:0:
304,166,47198,1,8,0:3:0:0:
332,80,47522,6,0,P|404:47|476:80,2,135,0|0|8,0:0|0:0|0:3,0:0:0:0:
402,136,48819,2,0,P|418:176|403:232,1,90,0|8,0:0|0:3,0:0:0:0:
328,184,49468,2,0,P|315:226|259:251,1,90,2|8,0:3|0:3,0:0:0:0:
237,270,49955,6,0,P|177:292|109:262,1,135,4|8,0:0|0:3,0:0:0:0:
57,196,50765,2,0,P|120:175|186:211,2,135,2|2|8,0:3|0:3|0:3,0:0:0:0:
9,119,52063,2,0,L|54:10,1,90,2|8,0:3|0:3,0:0:0:0:
132,19,52711,6,0,L|166:102,1,90,0|8,0:0|0:3,0:0:0:0:
201,185,53360,2,0,P|271:190|318:126,2,135,2|2|0,0:3|0:3|1:0,0:0:0:0:
133,244,54657,2,0,L|126:333,1,90,0|0,1:0|1:0,0:0:0:0:
256,192,55144,12,4,60333,1:2:0:0:
184,256,65522,6,0,P|240:296|328:256,1,135,4|0,0:0|1:0,0:0:0:0:
256,208,66333,2,0,P|280:168|280:112,1,90,2|0,0:1|1:0,0:0:0:0:
224,56,66982,2,0,P|200:96|200:152,2,90,2|0|2,0:1|1:0|0:1,0:0:0:0:
282,125,67955,1,0,1:0:0:0:
368,104,68279,6,0,P|345:63|296:35,2,90,2|0|2,0:1|1:0|0:1,0:0:0:0:
344,192,69252,1,0,1:0:0:0:
308,274,69576,2,0,P|260:282|212:266,1,90,2|0,0:1|1:0,0:0:0:0:
146,321,70225,2,0,P|98:313|50:329,1,90,2|0,0:1|1:0,0:0:0:0:
24,353,70711,6,0,L|20:218,1,135,4|0,0:0|1:0,0:0:0:0:
108,199,71522,2,0,L|106:110,1,90,2|0,0:1|1:0,0:0:0:0:
195,102,72171,2,0,L|199:215,2,90,2|0|2,0:1|1:0|0:1,0:0:0:0:
273,57,73144,1,0,1:0:0:0:
329,127,73468,6,0,L|333:240,2,90,2|0|2,0:1|1:0|0:1,0:0:0:0:
406,80,74441,1,0,1:0:0:0:
462,150,74765,2,0,L|465:241,1,90,2|0,0:1|1:0,0:0:0:0:
448,328,75414,2,0,P|380:308|309:337,1,135,0|4,1:0|0:0,0:0:0:0:
321,327,81252,5,4,0:1:0:0:
51,64,86441,6,0,P|94:53|138:61,1,90,4|0,0:0|1:0,0:0:0:0:
220,96,87090,2,0,P|263:107|306:99,1,90,2|0,0:1|1:0,0:0:0:0:
388,62,87738,2,0,P|431:50|474:58,2,90,2|0|2,0:1|1:0|0:1,0:0:0:0:
306,99,88711,1,0,1:0:0:0:
381,148,89036,6,0,L|380:258,1,90,2|0,0:1|1:0,0:0:0:0:
465,209,89684,2,0,L|464:298,1,90,2|0,0:1|1:0,0:0:0:0:
377,324,90333,2,0,P|337:332|287:318,1,90,2|0,0:1|1:0,0:0:0:0:
202,296,90982,1,2,0:1:0:0:
119,330,91306,1,0,1:0:0:0:
32,304,91630,6,0,P|21:252|41:206,1,90,4|0,0:0|1:0,0:0:0:0:
59,132,92279,2,0,P|111:121|157:141,1,90,2|0,0:1|1:0,0:0:0:0:
217,186,92928,2,0,P|269:197|315:177,1,90,2|0,0:1|1:0,0:0:0:0:
374,131,93576,2,0,P|363:79|383:33,1,90,2|0,0:1|1:0,0:0:0:0:
453,88,94225,6,0,P|464:130|453:173,1,90,2|0,0:1|1:0,0:0:0:0:
419,257,94874,2,0,L|509:267,1,90,2|0,0:1|1:0,0:0:0:0:
481,352,95522,2,0,L|392:342,1,90,2|0,0:1|1:0,0:0:0:0:
327,277,96171,1,2,0:1:0:0:
237,268,96495,1,0,1:0:0:0:
148,284,96819,6,0,L|131:166,1,90,4|0,0:0|1:0,0:0:0:0:
45,198,97468,2,0,L|62:80,1,90,2|0,0:1|1:0,0:0:0:0:
133,59,98117,2,0,P|189:53|246:70,1,90,2|0,0:1|1:0,0:0:0:0:
297,107,98765,2,0,P|353:113|410:96,1,90,2|0,0:1|1:0,0:0:0:0:
474,92,99414,6,0,L|470:206,1,90,2|0,0:1|1:0,0:0:0:0:
471,272,100063,2,0,L|467:386,1,90,2|0,0:1|1:0,0:0:0:0:
381,338,100711,2,0,P|332:322|282:331,1,90,2|0,0:1|1:0,0:0:0:0:
209,356,101360,1,2,0:1:0:0:
171,274,101684,1,0,1:0:0:0:
130,193,102009,6,0,P|126:148|145:108,1,90,4|0,0:0|1:0,0:0:0:0:
202,38,102657,2,0,P|246:34|286:53,1,90,2|0,0:1|1:0,0:0:0:0:
368,91,103306,2,0,P|371:135|352:175,1,90,2|0,0:1|1:0,0:0:0:0:
304,252,103955,2,0,P|259:255|219:236,1,90,2|0,0:1|1:0,0:0:0:0:
178,222,104441,6,0,L|29:225,1,135,2|0,0:0|1:0,0:0:0:0:
67,311,105252,2,0,L|187:310,1,90,2|0,0:1|1:0,0:0:0:0:
199,324,105738,2,0,P|261:342|365:313,1,135,2|0,0:0|1:0,0:0:0:0:
415,302,106549,1,2,0:1:0:0:
471,231,106874,1,0,1:0:0:0:
490,143,107198,6,0,P|447:130|393:143,1,90,4|0,0:0|1:0,0:0:0:0:
338,75,107847,2,0,P|295:88|241:75,1,90,2|0,0:1|1:0,0:0:0:0:
210,60,108333,2,0,B|226:102|226:102|201:219,1,135,2|0,0:0|1:0,0:0:0:0:
132,139,109144,2,0,L|110:240,1,90,2|0,0:1|1:0,0:0:0:0:
37,177,109792,6,0,L|15:278,1,90,2|0,0:1|1:0,0:0:0:0:
86,323,110441,2,0,P|137:315|202:333,1,90,2|0,0:1|1:0,0:0:0:0:
217,334,110928,2,0,P|288:347|361:327,1,135,2|0,0:0|1:0,0:0:0:0:
437,344,111738,1,2,0:1:0:0:
401,261,112063,1,0,1:0:0:0:
489,275,112387,6,0,L|505:172,1,90,4|0,0:0|1:0,0:0:0:0:
414,169,113036,2,0,L|427:80,1,90,2|0,0:1|1:0,0:0:0:0:
384,68,113522,2,0,P|312:49|243:69,1,135,2|0,0:0|1:0,0:0:0:0:
164,59,114333,2,0,P|119:52|75:60,1,90,2|0,0:1|1:0,0:0:0:0:
34,141,114982,6,0,L|37:246,1,90,2|0,0:1|1:0,0:0:0:0:
126,224,115630,2,0,L|128:313,1,90,2|0,0:1|1:0,0:0:0:0:
169,333,116117,2,0,P|241:320|311:347,1,135,2|0,0:0|1:0,0:0:0:0:
382,306,116928,2,0,P|434:320|501:298,2,90,0|2|4,1:0|0:1|1:0,0:0:0:0:
48,170,118874,5,0,1:0:0:0:
370,10,120171,1,0,1:0:0:0:
473,354,121468,1,0,1:0:0:0:
419,182,122117,2,0,L|317:182,1,90,0|4,1:0|1:0,0:0:0:0:
323,92,122765,6,0,P|274:108|247:150,1,90,2|0,0:1|1:0,0:0:0:0:
208,57,123414,2,0,P|174:94|170:152,1,90,2|0,0:1|1:0,0:0:0:0:
89,87,124063,2,0,P|78:136|104:188,1,90,2|0,0:1|1:0,0:0:0:0:
1,169,124711,2,0,P|16:217|65:249,1,90,2|0,0:1|1:0,0:0:0:0:
136,248,125360,6,0,P|212:216|304:264,1,180,2|2,0:1|0:1,0:0:0:0:
350,325,126333,2,0,P|404:357|518:317,1,180,0|0,1:0|1:0,0:0:0:0:
508,236,127306,2,0,L|509:129,1,90,2|2,1:0|1:0,0:0:0:0:
256,192,127955,12,2,129252,0:1:0:0:
264,243,130549,6,0,P|313:255|370:233,1,90,4|8,0:0|0:3,0:0:0:0:
435,214,131198,2,0,P|447:165|425:108,1,90,2|8,0:3|0:3,0:0:0:0:
423,84,131684,2,0,B|371:67|371:67|296:98,1,135,2|8,0:3|0:3,0:0:0:0:
218,142,132495,2,0,P|230:191|208:248,1,90,2|8,0:3|0:3,0:0:0:0:
206,272,132981,6,0,B|154:289|154:289|79:258,1,135,2|8,0:3|0:3,0:0:0:0:
31,182,133792,2,0,P|21:138|33:95,1,90,2|8,0:3|0:3,0:0:0:0:
64,63,134278,2,0,B|118:86|118:86|191:49,1,135,2|8,0:3|0:3,0:0:0:0:
279,53,135090,2,0,P|327:45|375:55,1,90,2|8,0:3|0:3,0:0:0:0:
405,75,135576,6,0,L|399:220,1,135,4|8,0:0|0:3,0:0:0:0:
395,299,136387,2,0,P|347:307|299:297,1,90,2|8,0:3|0:3,0:0:0:0:
269,277,136873,2,0,L|275:132,1,135,2|8,0:3|0:3,0:0:0:0:
184,145,137684,2,0,P|136:137|88:147,1,90,2|8,0:3|0:3,0:0:0:0:
58,167,138170,6,0,L|64:312,1,135,2|8,0:3|0:3,0:0:0:0:
145,340,138982,2,0,P|201:327|247:346,1,90,2|8,0:3|0:3,0:0:0:0:
272,354,139468,2,0,B|338:368|338:368|417:352,1,135,2|0,0:1|1:0,0:0:0:0:
475,298,140279,2,0,L|484:206,1,90,2|4,0:3|0:3,0:0:0:0:
491,164,140765,6,0,P|425:138|351:163,1,135,4|8,0:0|0:3,0:0:0:0:
279,182,141576,2,0,L|288:90,1,90,2|8,0:3|0:3,0:0:0:0:
295,48,142062,2,0,P|229:22|155:47,1,135,2|8,0:3|0:3,0:0:0:0:
84,69,142874,2,0,L|75:161,1,90,2|8,0:3|0:3,0:0:0:0:
68,203,143360,6,0,P|134:229|208:204,1,135,2|8,0:3|0:3,0:0:0:0:
283,199,144171,2,0,L|274:291,1,90,2|8,0:3|0:3,0:0:0:0:
267,333,144657,2,0,P|333:359|407:334,1,135,2|8,0:3|0:3,0:0:0:0:
464,289,145468,2,0,L|472:199,1,90,2|8,0:3|0:3,0:0:0:0:
469,154,145955,6,0,B|403:172|403:172|330:147,1,135,4|8,0:0|0:3,0:0:0:0:
272,91,146765,2,0,P|223:82|175:92,1,90,2|8,0:3|0:3,0:0:0:0:
151,119,147252,2,0,B|129:181|129:181|147:247,1,135,2|8,0:3|0:3,0:0:0:0:
174,334,148063,2,0,P|223:343|271:333,1,90,2|8,0:3|0:3,0:0:0:0:
295,306,148550,6,0,B|316:243|316:243|298:177,1,135,2|8,0:3|0:3,0:0:0:0:
362,113,149360,2,0,P|411:104|459:114,1,90,2|8,0:3|0:3,0:0:0:0:
483,141,149847,2,0,B|504:203|504:203|486:269,1,135,2|0,0:3|1:0,0:0:0:0:
443,348,150657,2,0,P|395:338|340:357,1,90,0|0,1:0|1:0,0:0:0:0:
256,192,151144,12,4,156333,1:2:0:0:
31,71,161522,6,0,P|95:60|168:88,1,135,4|0,0:0|1:0,0:0:0:0:
179,170,162333,2,0,L|158:269,1,90,2|0,0:1|1:0,0:0:0:0:
250,263,162982,2,0,L|268:174,1,90,2|0,0:1|1:0,0:0:0:0:
341,227,163630,1,2,0:1:0:0:
431,225,163955,1,0,1:0:0:0:
498,165,164279,6,0,P|507:118|496:73,1,90,2|0,0:1|1:0,0:0:0:0:
420,31,164928,2,0,P|410:74|420:118,1,90,2|0,0:1|1:0,0:0:0:0:
330,106,165576,2,0,L|226:107,1,90,2|0,0:1|1:0,0:0:0:0:
155,76,166225,2,0,L|51:77,1,90,2|0,0:1|1:0,0:0:0:0:
30,105,166711,6,0,P|13:172|41:247,1,135,4|0,0:0|1:0,0:0:0:0:
73,313,167522,2,0,L|177:312,1,90,2|0,0:1|1:0,0:0:0:0:
198,284,168008,2,0,P|215:217|187:142,1,135,2|0,0:0|1:0,0:0:0:0:
270,103,168819,2,0,L|374:104,1,90,2|0,0:1|1:0,0:0:0:0:
395,132,169305,6,0,P|412:199|384:274,1,135,2|0,0:0|1:0,0:0:0:0:
329,324,170117,2,0,P|278:312|230:322,1,90,2|0,0:1|1:0,0:0:0:0:
197,328,170603,2,0,P|146:316|61:340,1,135,2|0,0:0|1:0,0:0:0:0:
58,246,171414,2,0,P|132:228|206:242,1,135,2|4,0:3|0:1,0:0:0:0:
