osu file format v14

[General]
AudioFilename: audio.mp3
AudioLeadIn: 0
PreviewTime: 33252
Countdown: 0
SampleSet: Soft
StackLeniency: 0.7
Mode: 0
LetterboxInBreaks: 0
WidescreenStoryboard: 0

[Editor]
DistanceSpacing: 1.2
BeatDivisor: 4
GridSize: 4
TimelineZoom: 3.399999

[Metadata]
Title:Kimi no Yozora Shoukaihan
TitleUnicode:キミノヨゾラ哨戒班
Artist:Orangestar
ArtistUnicode:Orangestar
Creator:kanor
Version:Insane
Source:
Tags:ia vocaloid asu [_abhor_] -Sunflower- Hakurei Yoru Awaken アスノヨゾラ哨戒班 Lobelia Japanese lobelia sunflower
BeatmapID:1026640
BeatmapSetID:480945

[Difficulty]
HPDrainRate:5
CircleSize:3.8
OverallDifficulty:8
ApproachRate:9
SliderMultiplier:1.5
SliderTickRate:1

[Events]
//Background and Video events
0,0,"BG.jpg",0,0
//Break Periods
2,76100,80651
2,81451,85841
//Storyboard Layer 0 (Background)
//Storyboard Layer 1 (Fail)
//Storyboard Layer 2 (Pass)
//Storyboard Layer 3 (Foreground)
//Storyboard Layer 4 (Overlay)
//Storyboard Sound Samples

[TimingPoints]
820,324.324324324324,4,2,17,20,1,0
820,-111.111111111111,4,2,17,20,0,0
11198,-100,4,2,17,40,0,0
21576,-133.333333333333,4,2,17,30,0,0
26765,-111.111111111111,4,2,17,65,0,0
33901,-133.333333333333,4,2,17,65,0,0
34387,-90.9090909090909,4,2,17,65,0,1
55630,-90.9090909090909,4,2,17,70,0,0
59928,-90.9090909090909,4,2,17,70,0,0
60009,-90.9090909090909,4,2,17,70,0,0
60090,-90.9090909090909,4,2,17,70,0,0
60171,-90.9090909090909,4,2,17,70,0,0
60252,-90.9090909090909,4,2,17,70,0,0
60333,-90.9090909090909,4,2,17,70,0,0
86441,-90.9090909090909,4,2,17,60,0,0
129252,-90.9090909090909,4,2,17,60,0,0
129901,-200,4,2,17,60,0,0
130549,-90.9090909090909,4,2,17,65,0,1
151144,-90.9090909090909,4,2,17,70,0,0
171982,-90.9090909090909,4,2,17,5,0,0

[Colours]
Combo1 : 117,117,123
Combo2 : 177,172,63
Combo3 : 81,88,153
Combo4 : 154,88,86

[HitObjects]
264,64,657,5,0,0:0:0:0:
264,64,820,2,0,P|272:100|256:152,1,67.4999979400635,2|0,0:0|0:0,0:0:0:0:
192,104,1143,1,0,0:0:0:0:
344,136,1305,2,0,P|332:171|293:208,1,67.4999979400635,2|0,0:0|0:0,0:0:0:0:
372,252,1630,2,0,P|339:269|284:267,1,67.4999979400635,2|0,0:0|0:0,0:0:0:0:
240,232,1954,6,0,P|176:216|119:258,1,134.999995880127,0|0,0:0|0:0,0:0:0:0:
188,360,2441,2,0,P|196:324|188:292,1,67.4999979400635,0|2,0:0|0:0,0:0:0:0:
131,151,2765,1,0,0:0:0:0:
43,195,2927,1,2,0:0:0:0:
122,252,3089,1,0,0:0:0:0:
192,96,3251,6,0,P|129:67|71:93,1,134.999995880127,0|0,0:0|0:0,0:0:0:0:
240,232,3738,2,0,P|272:238|305:230,1,67.4999979400635,0|2,0:0|0:0,0:0:0:0:
384,124,4062,1,0,0:0:0:0:
384,208,4224,1,2,0:0:0:0:
464,232,4387,1,0,0:0:0:0:
440,64,4549,6,0,P|372:44|316:76,1,134.999995880127,0|0,0:0|0:0,0:0:0:0:
240,232,5035,2,0,P|272:238|305:230,1,67.4999979400635,0|0,0:0|0:0,0:0:0:0:
140,192,5359,2,0,P|108:186|75:194,1,67.4999979400635,2|0,0:0|0:0,0:0:0:0:
146,326,5684,1,0,0:0:0:0:
146,326,5846,6,0,L|139:170,1,134.999995880127,2|0,0:0|0:0,0:0:0:0:
241,299,6332,1,0,0:0:0:0:
241,299,6495,2,0,L|239:217,1,67.4999979400635,2|0,0:0|0:0,0:0:0:0:
348,144,6819,2,0,L|350:226,1,67.4999979400635,2|0,0:0|0:0,0:0:0:0:
226,43,7143,6,0,B|278:23|318:35|318:35|282:67,1,134.999995880127,0|0,0:0|0:0,0:0:0:0:
138,93,7630,2,0,P|122:64|118:31,1,67.4999979400635,0|2,0:0|0:0,0:0:0:0:
226,43,7954,1,0,0:0:0:0:
230,144,8116,1,2,0:0:0:0:
138,93,8278,1,0,0:0:0:0:
321,96,8441,6,0,P|337:125|341:158,1,67.4999979400635,0|2,0:0|0:0,0:0:0:0:
303,252,8765,1,0,0:0:0:0:
406,244,8927,1,0,0:0:0:0:
267,255,9089,2,0,P|225:254|196:241,1,67.4999979400635,2|0,0:0|0:0,0:0:0:0:
226,101,9414,2,0,P|246:137|249:169,1,67.4999979400635,2|0,0:0|0:0,0:0:0:0:
108,217,9738,6,0,P|129:181|155:162,1,67.4999979400635,2|0,0:0|0:0,0:0:0:0:
201,244,10062,1,2,0:0:0:0:
23,187,10224,2,0,P|81:157|169:177,1,134.999995880127,2|0,0:0|0:0,0:0:0:0:
296,244,10711,2,0,P|306:276|305:310,1,67.4999979400635,0|0,0:0|3:0,0:0:0:0:
308,170,11035,5,0,0:0:0:0:
308,170,11198,2,0,L|292:263,1,75,4|0,0:0|0:0,0:0:0:0:
212,88,11522,1,0,1:0:0:0:
392,132,11684,2,0,L|408:237,1,75,0|2,0:0|0:1,0:0:0:0:
340,48,12008,1,0,0:0:0:0:
308,170,12171,1,0,1:0:0:0:
212,88,12333,6,0,P|150:120|62:84,1,150,0|0,0:0|0:0,0:0:0:0:
212,88,12819,2,0,L|196:173,1,75,0|0,1:0|0:0,0:0:0:0:
168,308,13143,1,2,0:1:0:0:
124,200,13305,1,0,0:0:0:0:
252,224,13468,1,0,1:0:0:0:
144,336,13630,2,0,P|104:344|56:328,1,75,0|2,0:0|0:1,0:0:0:0:
276,200,13954,2,0,P|316:192|364:208,1,75,0|0,0:0|1:0,0:0:0:0:
432,283,14279,5,0,0:0:0:0:
432,283,14441,1,2,0:1:0:0:
324,327,14603,1,0,0:0:0:0:
348,199,14765,1,0,1:0:0:0:
460,307,14927,2,0,P|468:347|452:395,1,75,0|2,0:0|0:1,0:0:0:0:
324,175,15252,2,0,P|316:135|332:87,1,75,0|0,0:0|1:0,0:0:0:0:
252,224,15576,2,0,L|156:200,1,75,0|2,0:0|0:1,0:0:0:0:
252,64,15900,2,0,L|228:160,1,75,0|0,0:0|1:0,0:0:0:0:
124,264,16224,5,0,0:0:0:0:
84,120,16387,2,0,L|180:96,1,75,4|0,0:0|0:0,0:0:0:0:
24,188,16711,1,0,1:0:0:0:
32,52,16873,1,2,0:0:0:0:
124,264,17036,2,0,L|51:282,1,75,2|0,0:1|0:0,0:0:0:0:
84,120,17359,5,0,1:0:0:0:
208,208,17522,2,0,L|232:300,1,75,0|2,0:0|0:1,0:0:0:0:
300,144,17846,2,0,L|291:238,1,75,0|0,0:0|1:0,0:0:0:0:
408,100,18170,2,0,L|367:185,1,75,2|0,0:0|0:0,0:0:0:0:
216,124,18495,5,0,0:0:0:0:
144,49,18657,1,0,1:0:0:0:
244,22,18819,2,0,P|289:34|322:73,1,75,2|2,0:0|0:1,0:0:0:0:
372,219,19143,5,0,0:0:0:0:
300,144,19305,1,0,1:0:0:0:
400,117,19468,2,0,P|445:129|478:168,1,75,2|2,0:0|0:1,0:0:0:0:
452,300,19792,1,0,0:0:0:0:
452,300,19955,2,0,P|462:260|442:207,1,75,0|0,1:0|0:0,0:0:0:0:
272,240,20278,6,0,P|262:280|282:333,1,75,2|0,0:1|0:0,0:0:0:0:
372,219,20603,1,0,1:0:0:0:
312,152,20765,1,2,0:0:0:0:
220,144,20927,2,0,P|183:148|150:167,1,75,2|4,0:1|0:3,0:0:0:0:
140,256,21251,2,0,P|103:251|70:232,1,75,4|4,0:3|0:3,0:0:0:0:
16,168,21576,5,4,0:0:0:0:
468,112,22873,5,2,0:0:0:0:
56,76,24170,5,2,0:0:0:0:
428,8,25468,5,2,0:0:0:0:
180,112,26116,1,2,0:0:0:0:
180,112,26765,6,0,L|276:136,1,67.4999979400635,4|0,0:0|0:0,0:0:0:0:
100,128,27089,2,0,P|99:94|114:64,1,67.4999979400635,0|0,1:0|0:0,0:0:0:0:
80,208,27414,2,0,P|51:225|17:227,1,67.4999979400635,2|0,0:1|0:0,0:0:0:0:
156,188,27738,2,0,P|185:204|204:232,1,67.4999979400635,0|0,1:0|0:0,0:0:0:0:
288,316,28062,6,0,P|240:320|208:300,1,67.4999979400635,2|0,0:1|0:0,0:0:0:0:
375,318,28387,2,0,L|339:376,1,67.4999979400635,0|0,1:0|0:0,0:0:0:0:
450,269,28711,2,0,L|518:270,1,67.4999979400635,2|0,0:1|0:0,0:0:0:0:
366,230,29035,2,0,L|334:170,1,67.4999979400635,0|0,1:1|0:0,0:0:0:0:
320,40,29359,5,2,0:1:0:0:
216,112,29522,2,0,L|304:112,1,67.4999979400635,2|0,0:0|1:0,0:0:0:0:
283,112,29847,5,2,0:0:0:0:
176,188,30008,2,0,L|264:188,1,67.4999979400635,2|0,0:1|0:0,0:0:0:0:
243,188,30332,5,0,1:0:0:0:
136,264,30495,2,0,L|224:264,1,67.4999979400635,2|2,0:0|0:1,0:0:0:0:
203,264,30819,5,2,0:0:0:0:
100,340,30981,2,0,L|188:340,1,67.4999979400635,0|0,1:0|0:0,0:0:0:0:
440,360,31305,5,2,1:0:0:0:
427,233,31468,1,0,0:0:0:0:
370,303,31630,1,2,1:0:0:0:
498,290,31792,1,0,0:0:0:0:
284,244,31954,5,2,0:1:0:0:
436,156,32116,2,0,P|469:166|493:189,1,67.4999979400635,2|0,0:0|1:0,0:0:0:0:
493,189,32441,5,2,0:0:0:0:
372,108,32603,2,0,P|365:76|373:44,1,67.4999979400635,2|0,0:1|0:0,0:0:0:0:
373,44,32927,5,0,1:0:0:0:
352,184,33089,1,2,0:0:0:0:
352,184,33170,1,0,0:0:0:0:
352,184,33251,2,0,P|296:208|248:188,1,101.249996910095,2|0,0:1|0:0,0:0:0:0:
232,184,33576,2,0,P|196:172|148:180,1,67.4999979400635,0|0,1:0|0:0,0:0:0:0:
280,280,33901,2,0,P|308:286|338:278,1,56.2500021457673,0|0,1:0|0:0,0:0:0:0:
300,128,34224,1,0,3:0:0:0:
166,173,34387,6,0,B|74:141|94:201|-2:149,1,165.000005035401,4|2,0:0|0:3,0:0:0:0:
116,48,34873,2,0,P|160:36|216:44,1,82.5000025177003,8|0,0:3|0:0,0:0:0:0:
388,64,35197,1,2,0:3:0:0:
300,128,35359,1,2,0:3:0:0:
280,28,35522,1,8,0:3:0:0:
468,36,35684,6,0,L|462:151,1,82.5000025177003,2|0,0:3|0:0,0:0:0:0:
472,304,36008,1,2,0:3:0:0:
376,249,36170,1,8,0:3:0:0:
472,192,36332,1,0,0:0:0:0:
372,360,36495,2,0,P|324:371|268:351,1,82.5000025177003,2|2,0:3|0:3,0:0:0:0:
200,180,36819,2,0,P|248:169|304:189,1,82.5000025177003,8|2,0:3|0:3,0:0:0:0:
90,235,37143,6,0,P|101:187|81:131,1,82.5000025177003,0|2,0:0|0:3,0:0:0:0:
68,316,37468,1,8,0:3:0:0:
94,155,37630,2,0,L|13:144,1,82.5000025177003,0|2,0:0|0:3,0:0:0:0:
154,303,37954,2,0,L|236:292,1,82.5000025177003,2|8,0:3|0:3,0:0:0:0:
396,269,38278,6,0,P|407:317|372:373,1,82.5000025177003,2|0,0:3|0:0,0:0:0:0:
200,180,38603,1,2,0:3:0:0:
424,196,38765,2,0,P|417:244|365:285,1,82.5000025177003,8|0,0:3|0:0,0:0:0:0:
252,100,39089,1,2,0:3:0:0:
376,100,39251,1,2,0:3:0:0:
308,220,39414,1,8,0:3:0:0:
176,76,39576,6,0,P|240:24|320:56,1,165.000005035401,4|2,0:0|0:3,0:0:0:0:
328,192,40062,1,8,0:3:0:0:
236,292,40224,1,0,0:0:0:0:
177,156,40387,2,0,P|169:116|177:72,1,82.5000025177003,2|2,0:3|0:3,0:0:0:0:
256,188,40711,1,8,0:3:0:0:
116,216,40873,2,0,P|76:224|32:216,1,82.5000025177003,2|0,0:3|0:0,0:0:0:0:
175,75,41197,5,2,0:3:0:0:
192,244,41359,2,0,P|200:284|192:328,1,82.5000025177003,8|0,0:3|0:0,0:0:0:0:
256,188,41684,2,0,P|296:180|340:188,1,82.5000025177003,2|2,0:3|0:3,0:0:0:0:
480,156,42008,1,8,0:3:0:0:
428,284,42170,1,2,0:3:0:0:
304,104,42332,6,0,L|386:107,1,82.5000025177003,0|2,0:0|0:3,0:0:0:0:
296,256,42657,1,8,0:3:0:0:
288,80,42819,2,0,L|370:83,1,82.5000025177003,2|2,0:3|0:3,0:0:0:0:
272,56,43143,2,0,L|354:59,1,82.5000025177003,2|8,0:3|0:3,0:0:0:0:
204,96,43468,5,2,0:1:0:0:
204,96,43630,2,0,P|193:46|208:8,1,82.5000025177003,4|2,1:2|0:1,0:0:0:0:
292,176,43954,2,0,P|302:225|288:264,1,82.5000025177003,0|2,1:0|0:1,0:0:0:0:
96,260,44278,1,2,0:3:0:0:
208,176,44441,1,4,0:3:0:0:
220,308,44603,1,4,0:3:0:0:
220,308,44684,1,0,0:0:0:0:
220,308,44765,6,0,B|341:307|341:307|384:324,1,165.000005035401,4|2,0:0|0:3,0:0:0:0:
220,308,45251,2,0,P|210:268|221:229,1,82.5000025177003,8|0,0:3|0:0,0:0:0:0:
308,100,45576,1,2,0:3:0:0:
425,152,45738,1,2,0:3:0:0:
329,220,45900,1,8,0:3:0:0:
268,28,46062,2,0,P|312:20|356:32,1,82.5000025177003,2|0,0:3|0:0,0:0:0:0:
221,229,46387,5,2,0:3:0:0:
104,177,46549,1,8,0:3:0:0:
200,109,46711,1,0,0:0:0:0:
261,301,46873,2,0,P|217:309|173:297,1,82.5000025177003,2|2,0:3|0:3,0:0:0:0:
312,120,47197,2,0,L|324:216,1,82.5000025177003,8|2,0:3|0:3,0:0:0:0:
376,300,47522,6,0,P|420:292|464:304,1,82.5000025177003,0|2,0:0|0:3,0:0:0:0:
320,360,47846,1,8,0:3:0:0:
312,160,48008,2,0,L|324:256,1,82.5000025177003,0|2,0:0|0:3,0:0:0:0:
200,109,48332,2,0,L|212:13,1,82.5000025177003,2|8,0:3|0:3,0:0:0:0:
224,192,48657,6,0,L|142:195,1,82.5000025177003,2|0,0:3|0:0,0:0:0:0:
288,80,48981,1,2,0:3:0:0:
240,272,49143,2,0,L|157:274,1,82.5000025177003,8|0,0:3|0:0,0:0:0:0:
272,172,49468,1,2,0:3:0:0:
300,328,49630,1,2,0:3:0:0:
404,132,49792,1,8,0:3:0:0:
336,256,49954,6,0,P|408:292|484:248,1,165.000005035401,4|2,0:0|0:3,0:0:0:0:
404,132,50441,1,8,0:3:0:0:
408,216,50603,1,0,0:0:0:0:
468,88,50765,2,0,P|430:57|391:52,1,82.5000025177003,2|2,0:3|0:3,0:0:0:0:
252,64,51089,1,8,0:3:0:0:
338,174,51251,6,0,P|383:156|406:125,1,82.5000025177003,2|0,0:3|0:0,0:0:0:0:
320,20,51576,1,2,0:3:0:0:
256,228,51738,2,0,P|283:258|322:270,1,82.5000025177003,8|0,0:3|0:0,0:0:0:0:
172,188,52062,2,0,P|132:196|102:223,1,82.5000025177003,2|2,0:3|0:3,0:0:0:0:
245,136,52387,2,0,P|257:97|248:57,1,82.5000025177003,8|2,0:3|0:3,0:0:0:0:
102,223,52711,5,0,0:0:0:0:
168,346,52873,1,2,0:3:0:0:
184,206,53035,1,8,0:3:0:0:
90,311,53197,1,0,0:0:0:0:
227,282,53359,5,2,0:3:0:0:
370,247,53522,1,2,0:3:0:0:
273,356,53684,1,8,0:3:0:0:
288,211,53846,1,2,0:3:0:0:
358,340,54008,2,0,L|456:344,1,82.5000025177003,4|0,1:2|0:0,0:0:0:0:
480,168,54332,2,0,L|397:164,1,82.5000025177003,0|0,1:0|0:0,0:0:0:0:
296,114,54657,5,0,1:0:0:0:
264,110,54738,1,0,1:0:0:0:
232,122,54819,1,0,1:0:0:0:
208,142,54900,1,0,1:0:0:0:
192,170,54981,1,0,1:0:0:0:
184,206,55062,1,0,1:0:0:0:
188,242,55143,1,4,1:2:0:0:
256,192,55224,12,2,59846,0:1:0:0:
280,168,60170,5,2,0:1:0:0:
280,168,60332,2,0,P|360:144|424:208,1,165.000005035401,4|2,0:0|0:1,0:0:0:0:
344,304,60819,2,0,P|332:257|340:221,1,82.5000025177003,0|0,1:0|0:0,0:0:0:0:
500,272,61143,1,2,0:1:0:0:
436,344,61305,1,0,0:0:0:0:
418,191,61468,2,0,L|528:192,1,82.5000025177003,0|2,1:0|0:0,0:0:0:0:
356,128,61792,5,2,0:1:0:0:
428,1,61954,1,0,0:0:0:0:
455,101,62116,1,0,1:0:0:0:
329,28,62278,1,0,0:0:0:0:
338,224,62441,2,0,P|291:235|255:227,1,82.5000025177003,2|0,0:1|0:0,0:0:0:0:
184,100,62765,2,0,P|230:88|266:96,1,82.5000025177003,0|2,1:0|0:0,0:0:0:0:
176,276,63089,5,2,0:1:0:0:
104,149,63251,1,0,0:0:0:0:
77,249,63414,1,0,1:0:0:0:
200,176,63576,1,0,0:0:0:0:
276,304,63738,2,0,P|229:315|193:307,1,82.5000025177003,2|0,0:1|0:0,0:0:0:0:
4,124,64062,2,0,P|50:112|86:120,1,82.5000025177003,0|2,1:0|0:0,0:0:0:0:
52,348,64387,6,0,P|41:301|49:265,1,82.5000025177003,2|0,0:1|0:0,0:0:0:0:
228,80,64711,2,0,P|240:126|232:162,1,82.5000025177003,0|0,1:0|0:0,0:0:0:0:
152,76,65035,1,2,0:1:0:0:
312,56,65197,1,0,0:0:0:0:
272,228,65359,1,0,1:0:0:0:
272,228,65441,1,0,0:0:0:0:
272,228,65522,6,0,B|196:252|164:192|164:192|132:244,1,165.000005035401,4|2,0:0|0:1,0:0:0:0:
356,264,66008,2,0,L|352:181,1,82.5000025177003,0|0,1:0|0:0,0:0:0:0:
432,304,66332,1,2,0:1:0:0:
284,308,66495,1,0,0:0:0:0:
440,224,66657,2,0,L|436:141,1,82.5000025177003,0|2,1:0|0:0,0:0:0:0:
336,28,66981,5,2,0:1:0:0:
207,32,67143,1,0,0:0:0:0:
274,140,67305,1,0,1:0:0:0:
336,28,67468,1,0,0:0:0:0:
192,116,67630,2,0,L|188:199,1,82.5000025177003,2|0,0:1|0:0,0:0:0:0:
354,160,67954,2,0,L|242:132,1,82.5000025177003,0|2,1:0|0:0,0:0:0:0:
284,356,68278,5,2,0:1:0:0:
413,352,68441,1,0,0:0:0:0:
346,244,68603,1,0,1:0:0:0:
284,356,68765,1,0,0:0:0:0:
428,268,68927,2,0,L|432:185,1,82.5000025177003,2|0,0:1|0:0,0:0:0:0:
266,224,69251,2,0,L|378:252,1,82.5000025177003,0|2,1:0|0:0,0:0:0:0:
504,256,69576,6,0,L|508:173,1,82.5000025177003,2|0,0:1|0:0,0:0:0:0:
244,296,69900,2,0,L|356:324,1,82.5000025177003,0|0,1:0|0:0,0:0:0:0:
316,148,70224,1,2,0:1:0:0:
244,296,70387,1,2,0:1:0:0:
164,176,70549,1,0,1:0:0:0:
180,168,70630,1,0,0:0:0:0:
196,160,70711,6,0,B|258:135|322:143|322:143|290:179,1,165.000005035401,4|2,0:0|0:1,0:0:0:0:
88,152,71197,2,0,P|65:106|76:60,1,82.5000025177003,0|0,1:0|0:0,0:0:0:0:
172,172,71522,1,2,0:1:0:0:
152,300,71684,1,0,0:0:0:0:
24,248,71846,2,0,L|110:232,1,82.5000025177003,0|2,1:0|0:0,0:0:0:0:
260,208,72170,5,2,0:1:0:0:
332,300,72332,1,0,0:0:0:0:
380,204,72495,1,0,1:0:0:0:
352,328,72657,1,0,0:0:0:0:
256,128,72819,2,0,P|248:168|268:216,1,82.5000025177003,2|0,0:1|0:0,0:0:0:0:
451,161,73143,2,0,P|463:199|456:240,1,82.5000025177003,0|2,1:0|0:0,0:0:0:0:
288,48,73468,5,2,0:1:0:0:
408,24,73630,1,0,0:0:0:0:
248,44,73792,1,0,1:0:0:0:
360,128,73954,1,0,0:0:0:0:
208,40,74116,2,0,P|167:34|129:48,1,82.5000025177003,2|0,0:1|0:0,0:0:0:0:
16,160,74441,2,0,P|56:154|94:168,1,82.5000025177003,0|2,1:0|0:0,0:0:0:0:
216,144,74765,5,2,0:1:0:0:
316,202,74927,1,0,0:0:0:0:
216,260,75089,1,0,1:0:0:0:
352,92,75251,5,0,0:0:0:0:
389,233,75414,1,0,1:0:0:0:
248,195,75576,1,4,0:3:0:0:
436,156,75738,5,4,0:3:0:0:
380,336,75900,1,4,0:0:0:0:
256,192,81251,5,4,0:1:0:0:
444,248,86441,6,0,P|464:204|448:136,1,82.5000025177003,4|0,0:0|0:0,0:0:0:0:
328,128,86765,1,0,1:0:0:0:
328,128,86927,2,0,P|352:168|420:190,1,82.5000025177003,0|2,0:0|0:1,0:0:0:0:
472,84,87251,1,0,0:0:0:0:
364,0,87414,1,0,1:0:0:0:
260,84,87576,6,0,P|248:128|276:188,1,82.5000025177003,0|2,0:0|0:1,0:0:0:0:
256,280,87900,2,0,P|223:247|160:244,1,82.5000025177003,0|0,0:0|1:0,0:0:0:0:
80,184,88224,1,0,0:0:0:0:
80,184,88387,2,0,P|124:172|160:120,1,82.5000025177003,2|0,0:1|0:0,0:0:0:0:
40,36,88711,2,0,P|51:80|102:120,1,82.5000025177003,0|0,1:0|0:0,0:0:0:0:
256,162,89035,6,0,P|244:117|193:77,1,82.5000025177003,2|0,0:1|0:0,0:0:0:0:
80,184,89359,1,0,1:0:0:0:
80,184,89522,2,0,P|53:215|44:254,1,82.5000025177003,0|2,0:0|0:1,0:0:0:0:
136,264,89846,2,0,P|139:304|160:339,1,82.5000025177003,0|0,0:0|1:0,0:0:0:0:
388,228,90170,5,0,0:0:0:0:
388,228,90332,2,0,P|384:187|363:152,1,82.5000025177003,2|0,0:1|0:0,0:0:0:0:
291,211,90657,2,0,P|259:184|220:175,1,82.5000025177003,0|0,1:0|0:0,0:0:0:0:
369,325,90981,1,2,0:1:0:0:
466,344,91143,1,0,1:0:0:0:
486,247,91305,1,0,1:0:0:0:
388,228,91468,1,0,0:0:0:0:
224,256,91630,6,0,L|248:360,1,82.5000025177003,4|0,0:0|0:0,0:0:0:0:
388,228,91954,1,0,1:0:0:0:
388,228,92116,2,0,L|364:124,1,82.5000025177003,0|2,0:0|0:1,0:0:0:0:
278,49,92441,2,0,L|254:153,1,82.5000025177003,0|0,0:0|1:0,0:0:0:0:
248,284,92765,5,0,0:0:0:0:
248,284,92927,2,0,P|192:276|144:292,1,82.5000025177003,2|0,0:1|0:0,0:0:0:0:
148,196,93251,2,0,P|102:229|80:275,1,82.5000025177003,0|0,1:0|0:0,0:0:0:0:
16,200,93576,2,0,P|8:256|24:304,1,82.5000025177003,2|0,0:1|0:0,0:0:0:0:
200,116,93900,1,0,1:0:0:0:
88,120,94062,5,0,0:0:0:0:
200,116,94224,2,0,L|308:132,1,82.5000025177003,2|0,0:1|0:0,0:0:0:0:
264,44,94549,1,0,1:0:0:0:
344,180,94711,2,0,P|360:140|344:76,1,82.5000025177003,0|2,0:0|0:1,0:0:0:0:
356,260,95035,2,0,P|395:243|429:186,1,82.5000025177003,0|0,0:0|1:0,0:0:0:0:
308,324,95359,5,0,0:0:0:0:
308,324,95522,2,0,P|347:340|411:323,1,82.5000025177003,2|0,0:1|0:0,0:0:0:0:
196,284,95846,2,0,P|156:268|92:284,1,82.5000025177003,0|0,1:0|0:0,0:0:0:0:
284,208,96170,1,2,0:1:0:0:
336,120,96332,1,0,0:0:0:0:
264,192,96495,1,0,1:0:0:0:
224,80,96657,1,0,1:0:0:0:
152,172,96819,6,0,L|48:172,1,82.5000025177003,4|0,0:0|0:0,0:0:0:0:
40,260,97143,2,0,L|144:260,1,82.5000025177003,0|0,1:0|0:0,0:0:0:0:
88,348,97468,2,0,L|-16:348,1,82.5000025177003,2|0,0:1|0:0,0:0:0:0:
136,216,97792,1,0,1:0:0:0:
188,332,97954,6,0,B|248:304|271:333|296:360|368:328,1,165.000005035401,2|2,0:0|0:0,0:0:0:0:
340,184,98441,2,0,P|318:219|312:260,1,82.5000025177003,0|2,1:0|0:0,0:0:0:0:
472,304,98765,2,0,P|465:263|443:228,1,82.5000025177003,2|0,0:1|0:0,0:0:0:0:
236,196,99089,1,0,1:0:0:0:
312,259,99251,1,2,0:0:0:0:
432,128,99414,6,0,P|448:80|428:24,1,82.5000025177003,2|0,0:1|0:0,0:0:0:0:
308,28,99738,1,0,1:0:0:0:
308,28,99900,2,0,P|340:64|392:76,1,82.5000025177003,2|2,0:0|0:1,0:0:0:0:
280,156,100224,2,0,P|332:164|388:136,1,82.5000025177003,2|0,0:0|1:0,0:0:0:0:
216,104,100549,6,0,P|204:184|136:156,1,165.000005035401,2|0,0:0|0:0,0:0:0:0:
40,120,101035,1,0,1:0:0:0:
40,120,101197,2,0,P|24:168|40:216,1,82.5000025177003,2|2,0:0|0:1,0:0:0:0:
140,60,101522,2,0,P|106:22|56:12,1,82.5000025177003,0|0,1:0|1:0,0:0:0:0:
141,167,101846,5,2,0:0:0:0:
141,167,102008,2,0,B|208:208|220:144|272:144|316:184,1,165.000005035401,4|0,0:0|1:0,0:0:0:0:
320,256,102495,1,0,0:0:0:0:
289,345,102657,2,0,P|244:352|200:332,1,82.5000025177003,2|0,0:1|0:0,0:0:0:0:
376,328,102981,1,0,1:0:0:0:
232,264,103143,6,0,P|213:222|221:174,1,82.5000025177003,2|2,0:0|0:1,0:0:0:0:
360,72,103468,2,0,P|378:113|370:161,1,82.5000025177003,2|0,0:0|1:0,0:0:0:0:
144,40,103792,1,0,0:0:0:0:
252,0,103954,1,2,0:1:0:0:
232,104,104116,2,0,L|216:192,1,82.5000025177003,0|0,0:0|1:0,0:0:0:0:
112,248,104441,6,0,P|200:220|260:268,1,165.000005035401,2|2,0:0|0:0,0:0:0:0:
140,336,104927,1,0,1:0:0:0:
140,336,105089,2,0,P|88:344|52:320,1,82.5000025177003,0|2,0:0|0:1,0:0:0:0:
48,168,105414,1,0,0:0:0:0:
112,248,105576,1,0,1:0:0:0:
227,118,105738,6,0,P|276:195|245:266,1,165.000005035401,2|2,0:0|0:0,0:0:0:0:
156,152,106224,1,0,1:0:0:0:
156,152,106387,2,0,P|148:100|172:64,1,82.5000025177003,2|2,0:0|0:1,0:0:0:0:
312,28,106711,1,0,1:0:0:0:
328,128,106873,1,0,1:0:0:0:
404,68,107035,2,0,P|456:60|492:84,1,82.5000025177003,0|4,0:0|0:0,0:0:0:0:
244,144,107359,5,2,0:0:0:0:
236,132,107441,1,2,0:0:0:0:
227,118,107522,1,0,1:0:0:0:
176,224,107684,1,2,0:0:0:0:
168,236,107765,1,2,0:0:0:0:
160,248,107846,2,0,P|152:300|176:336,1,82.5000025177003,2|0,0:1|0:0,0:0:0:0:
88,216,108170,1,0,1:0:0:0:
236,284,108332,2,0,L|316:248,1,82.5000025177003,2|2,0:0|0:1,0:0:0:0:
88,216,108657,5,2,0:0:0:0:
264,288,108819,2,0,L|344:252,1,82.5000025177003,0|0,1:0|0:0,0:0:0:0:
480,144,109143,2,0,P|416:120|336:156,1,123.75000377655,2|0,0:1|0:0,0:0:0:0:
336,148,109468,2,0,P|344:96|312:40,1,82.5000025177003,0|0,1:0|0:0,0:0:0:0:
184,28,109792,6,0,P|176:76|208:136,1,82.5000025177003,2|0,0:1|0:0,0:0:0:0:
268,16,110116,1,0,1:0:0:0:
108,128,110278,2,0,P|159:185|242:161,1,165.000005035401,2|2,0:0|0:0,0:0:0:0:
104,48,110765,1,0,1:0:0:0:
152,224,110927,2,0,P|157:265|152:316,1,82.5000025177003,2|2,0:0|0:1,0:0:0:0:
240,272,111251,5,2,0:0:0:0:
328,276,111414,1,0,1:0:0:0:
392,336,111576,2,0,P|432:352|488:344,2,82.5000025177003,2|2|0,0:0|0:1|0:0,0:0:0:0:
328,276,112062,1,0,1:0:0:0:
432,192,112224,2,0,L|444:296,1,82.5000025177003,0|4,1:0|0:0,0:0:0:0:
308,172,112549,5,2,0:0:0:0:
320,156,112630,1,2,0:0:0:0:
332,136,112711,1,0,1:0:0:0:
244,76,112873,1,2,0:0:0:0:
236,56,112954,1,2,0:0:0:0:
228,36,113035,2,0,P|176:32|128:60,1,82.5000025177003,2|0,0:1|0:0,0:0:0:0:
192,168,113359,1,0,1:0:0:0:
332,136,113522,2,0,L|352:44,1,82.5000025177003,2|2,0:0|0:1,0:0:0:0:
192,168,113846,5,2,0:0:0:0:
352,120,114008,2,0,L|372:28,1,82.5000025177003,0|0,1:0|0:0,0:0:0:0:
444,228,114332,2,0,P|380:244|324:223,1,123.75000377655,2|0,0:1|0:0,0:0:0:0:
288,216,114657,2,0,P|300:268|264:312,1,82.5000025177003,0|0,1:0|0:0,0:0:0:0:
136,328,114981,6,0,P|123:289|136:251,1,82.5000025177003,2|0,0:1|0:0,0:0:0:0:
156,76,115305,1,0,1:0:0:0:
248,144,115468,2,0,P|221:174|181:181,1,82.5000025177003,2|2,0:0|0:1,0:0:0:0:
32,144,115792,1,2,0:0:0:0:
8,244,115954,1,0,1:0:0:0:
32,144,116116,2,0,P|71:152|98:182,1,82.5000025177003,2|2,0:0|0:1,0:0:0:0:
248,144,116441,5,0,0:0:0:0:
156,76,116603,1,0,1:0:0:0:
248,144,116765,1,2,0:1:0:0:
320,48,116927,5,0,1:0:0:0:
344,28,117008,1,0,1:0:0:0:
376,20,117089,1,0,1:0:0:0:
408,24,117170,1,0,1:0:0:0:
436,36,117251,2,0,L|424:76,1,41.2500012588501,2|2,0:1|0:1,0:0:0:0:
508,88,117414,2,0,L|496:132,1,41.2500012588501,0|2,0:0|0:1,0:0:0:0:
416,160,117576,5,4,1:0:0:0:
416,160,117738,1,0,1:0:0:0:
412,196,118873,5,0,1:0:0:0:
412,196,119035,1,0,1:0:0:0:
412,196,120008,5,0,3:0:0:0:
412,196,120170,2,0,L|392:296,1,82.5000025177003,0|0,1:0|1:0,0:0:0:0:
312,296,120495,2,0,L|332:196,1,82.5000025177003,0|2,0:0|0:0,0:0:0:0:
244,232,120819,2,0,L|224:332,1,82.5000025177003,0|2,0:0|0:0,0:0:0:0:
88,352,121143,6,0,P|44:364|-4:344,1,82.5000025177003
84,184,121468,1,0,1:0:0:0:
120,268,121630,1,0,1:0:0:0:
8,224,121792,6,0,P|-3:183|12:136,1,82.5000025177003,0|0,3:0|0:0,0:0:0:0:
164,148,122116,1,0,1:0:0:0:
80,100,122278,1,0,1:0:0:0:
264,112,122441,2,0,L|236:240,1,123.75000377655,4|0,1:0|0:0,0:0:0:0:
184,288,122765,6,0,P|248:268|308:308,1,123.75000377655,2|0,0:1|0:0,0:0:0:0:
316,316,123089,2,0,P|352:332|398:316,1,82.5000025177003,0|0,1:0|0:0,0:0:0:0:
320,152,123414,1,2,0:1:0:0:
356,256,123576,1,2,0:0:0:0:
512,213,123738,2,0,P|484:184|444:180,1,82.5000025177003,0|0,1:0|0:0,0:0:0:0:
236,224,124062,6,0,B|188:236|188:236|80:232,1,123.75000377655,2|0,0:1|0:0,0:0:0:0:
72,188,124387,2,0,P|86:234|64:272,1,82.5000025177003,0|0,1:0|0:0,0:0:0:0:
20,117,124711,1,2,0:1:0:0:
154,73,124873,1,2,0:0:0:0:
72,188,125035,1,0,1:0:0:0:
71,46,125197,1,0,0:0:0:0:
154,159,125359,6,0,P|196:160|236:140,1,82.5000025177003,2|2,0:1|0:0,0:0:0:0:
220,32,125684,1,0,1:0:0:0:
316,160,125846,1,2,0:0:0:0:
368,64,126008,2,0,P|326:63|286:83,1,82.5000025177003,2|0,0:1|0:0,0:0:0:0:
289,79,126332,5,0,1:0:0:0:
428,152,126495,2,0,P|458:123|472:80,1,82.5000025177003,2|2,0:0|0:1,0:0:0:0:
471,85,126819,1,2,0:0:0:0:
316,160,126981,2,0,P|326:200|356:234,1,82.5000025177003,0|0,1:0|0:0,0:0:0:0:
500,240,127305,5,2,1:0:0:0:
454,357,127468,1,0,0:0:0:0:
396,164,127630,1,2,1:0:0:0:
412,288,127792,1,0,0:0:0:0:
236,164,127954,6,0,P|276:152|315:160,1,82.5000025177003,2|2,0:1|0:0,0:0:0:0:
280,232,128278,1,0,1:0:0:0:
184,104,128441,1,2,0:0:0:0:
116,240,128603,6,0,P|156:228|195:236,1,82.5000025177003,2|0,0:1|0:0,0:0:0:0:
244,304,128927,1,0,1:0:0:0:
436,132,129089,5,2,0:0:0:0:
436,132,129170,1,0,0:0:0:0:
436,132,129251,2,0,B|384:116|368:136|344:156|292:112,1,123.75000377655,2|0,0:1|0:0,0:0:0:0:
280,120,129576,2,0,P|228:112|200:132,1,82.5000025177003,0|0,1:0|0:0,0:0:0:0:
148,188,129901,6,0,P|172:124|148:56,1,131.25,4|0,0:3|0:0,0:0:0:0:
155,65,130549,6,0,P|195:53|243:69,1,82.5000025177003,4|0,0:0|0:0,0:0:0:0:
80,124,130873,2,0,P|32:136|-8:120,1,82.5000025177003,8|0,0:3|0:0,0:0:0:0:
148,188,131197,1,2,0:3:0:0:
160,308,131359,1,2,0:3:0:0:
136,180,131522,1,8,0:3:0:0:
88,340,131684,6,0,L|256:332,1,165.000005035401,2|2,0:3|0:3,0:0:0:0:
320,200,132170,2,0,P|308:244|324:284,1,82.5000025177003,8|0,0:3|0:0,0:0:0:0:
400,372,132495,1,2,0:3:0:0:
252,332,132657,1,2,0:3:0:0:
384,240,132819,1,8,0:3:0:0:
288,128,132982,6,0,B|388:96|352:156|456:116,1,165.000005035401,2|2,0:3|0:3,0:0:0:0:
216,92,133468,2,0,P|208:132|220:176,1,82.5000025177003,8|0,0:3|0:0,0:0:0:0:
28,204,133792,1,2,0:3:0:0:
168,244,133954,1,2,0:3:0:0:
32,176,134116,1,8,0:3:0:0:
152,324,134278,6,0,P|224:360|308:312,1,165.000005035401,2|2,0:3|0:3,0:0:0:0:
328,188,134765,2,0,P|366:175|406:184,1,82.5000025177003,8|0,0:3|0:0,0:0:0:0:
504,280,135089,1,2,0:3:0:0:
368,252,135251,1,2,0:3:0:0:
416,368,135414,1,8,0:3:0:0:
440,112,135576,6,0,P|360:95|282:120,1,165.000005035401,4|2,0:0|0:3,0:0:0:0:
440,112,136063,2,0,P|450:72|441:32,1,82.5000025177003,8|0,0:3|0:0,0:0:0:0:
228,64,136387,1,2,0:3:0:0:
328,188,136549,1,2,0:3:0:0:
112,112,136711,1,8,0:3:0:0:
188,0,136873,6,0,L|186:172,1,165.000005035401,2|2,0:3|0:3,0:0:0:0:
41,151,137359,2,0,P|31:111|40:72,1,82.5000025177003,8|0,0:3|0:0,0:0:0:0:
136,300,137684,1,2,0:3:0:0:
24,231,137846,1,2,0:3:0:0:
224,248,138008,1,8,0:3:0:0:
112,317,138170,6,0,B|164:313|164:313|212:328|212:328|304:321,1,165.000005035401,2|2,0:3|0:3,0:0:0:0:
416,113,138657,2,0,P|456:103|496:112,1,82.5000025177003,8|0,0:3|0:0,0:0:0:0:
364,336,138981,1,2,0:3:0:0:
383,203,139143,1,2,0:3:0:0:
383,203,139225,1,0,0:0:0:0:
383,203,139305,1,8,0:3:0:0:
344,348,139468,5,2,0:1:0:0:
257,244,139630,2,0,P|208:240|148:252,1,82.5000025177003,4|2,1:2|0:1,0:0:0:0:
53,116,139954,2,0,P|92:124|136:116,1,82.5000025177003,0|2,1:0|0:1,0:0:0:0:
272,24,140278,1,2,0:3:0:0:
253,157,140441,1,4,0:3:0:0:
379,116,140603,1,4,0:3:0:0:
379,116,140684,1,0,0:0:0:0:
378,115,140765,6,0,B|388:168|372:196|372:196|392:232|381:275,1,165.000005035401,4|2,0:0|0:3,0:0:0:0:
268,344,141251,2,0,P|252:304|260:264,1,82.5000025177003,8|0,0:3|0:0,0:0:0:0:
253,157,141576,1,2,0:3:0:0:
378,115,141738,1,2,0:3:0:0:
352,236,141900,1,8,0:3:0:0:
292,80,142063,6,0,L|464:80,1,165.000005035401,2|2,0:3|0:3,0:0:0:0:
496,228,142549,2,0,P|504:184|488:136,1,82.5000025177003,8|0,0:3|0:0,0:0:0:0:
352,236,142873,1,2,0:3:0:0:
496,304,143035,1,2,0:3:0:0:
428,184,143197,1,8,0:3:0:0:
424,348,143359,6,0,B|364:328|344:352|312:388|232:328,1,165.000005035401,2|2,0:3|0:3,0:0:0:0:
308,200,143846,2,0,P|320:240|304:284,1,82.5000025177003,8|0,0:3|0:0,0:0:0:0:
184,372,144170,1,2,0:3:0:0:
240,240,144332,1,2,0:3:0:0:
264,348,144495,1,8,0:3:0:0:
220,208,144657,6,0,B|160:188|132:212|108:248|28:188,1,165.000005035401,2|2,0:3|0:3,0:0:0:0:
112,0,145143,1,8,0:3:0:0:
101,141,145305,1,0,0:0:0:0:
27,22,145468,1,2,0:3:0:0:
157,74,145630,1,2,0:3:0:0:
21,109,145792,1,8,0:3:0:0:
188,76,145954,6,0,B|251:102|315:86|315:86|283:46,1,165.000005035401,4|2,0:0|0:3,0:0:0:0:
220,208,146441,2,0,P|212:252|224:292,1,82.5000025177003,8|0,0:3|0:0,0:0:0:0:
428,216,146765,1,2,0:3:0:0:
290,245,146927,1,2,0:3:0:0:
416,296,147089,1,8,0:3:0:0:
504,144,147251,6,0,B|464:109|380:113|380:113|420:157,1,165.000005035401,2|2,0:3|0:3,0:0:0:0:
500,300,147738,2,0,P|511:262|500:212,1,82.5000025177003,8|0,0:3|0:0,0:0:0:0:
290,245,148062,1,2,0:3:0:0:
428,216,148224,1,0,0:0:0:0:
300,164,148387,1,8,0:3:0:0:
296,328,148549,6,0,B|255:363|172:359|172:359|211:315,1,165.000005035401,2|2,0:3|0:3,0:0:0:0:
128,208,149035,2,0,L|128:312,1,82.5000025177003,8|0,0:3|0:0,0:0:0:0:
12,168,149359,1,2,0:3:0:0:
160,136,149522,1,2,0:3:0:0:
160,136,149603,1,0,0:0:0:0:
160,136,149684,1,8,0:3:0:0:
8,92,149847,5,2,0:3:0:0:
200,68,150008,2,0,P|248:80|292:68,1,82.5000025177003,4|2,1:2|0:0,0:0:0:0:
452,32,150332,2,0,P|460:80|443:123,1,82.5000025177003,0|2,1:0|0:0,0:0:0:0:
284,224,150657,5,0,1:0:0:0:
296,264,150738,1,0,1:0:0:0:
324,300,150819,1,0,1:0:0:0:
364,320,150900,1,0,1:0:0:0:
400,324,150981,1,0,1:0:0:0:
436,320,151062,1,0,1:0:0:0:
472,304,151143,1,4,1:2:0:0:
256,192,151224,12,0,155522,1:0:0:0:
264,188,155846,5,2,0:1:0:0:
388,156,156008,1,2,0:1:0:0:
288,68,156170,1,0,1:0:0:0:
288,68,156251,1,0,0:0:0:0:
288,68,156332,1,4,0:0:0:0:
288,68,156414,1,0,0:0:0:0:
288,68,156495,6,0,L|264:8,3,41.2500012588501,0|0|2|0,0:0|0:0|0:3|0:0,0:0:0:0:
204,96,156819,2,0,L|144:70,3,41.2500012588501,8|0|0|0,0:3|0:0|0:0|0:0,0:0:0:0:
160,168,157144,2,0,L|95:175,3,41.2500012588501,2|0|2|0,3:3|3:0|3:3|0:0,0:0:0:0:
144,244,157468,1,8,0:3:0:0:
164,268,157549,1,0,0:0:0:0:
188,288,157630,1,2,0:3:0:0:
220,300,157711,1,0,0:0:0:0:
248,304,157792,6,0,L|304:284,3,41.2500012588501,0|0|2|0,0:0|0:0|0:3|0:0,0:0:0:0:
292,204,158116,2,0,L|345:229,3,41.2500012588501,8|0|0|0,0:3|0:0|0:0|0:0,0:0:0:0:
432,168,158441,5,2,0:3:0:0:
424,280,158603,1,2,3:0:0:0:
432,168,158765,2,0,L|476:98,1,82.5000025177003,8|2,0:3|0:3,0:0:0:0:
288,63,159089,5,4,1:2:0:0:
292,204,159251,1,2,0:3:0:0:
209,90,159414,1,0,1:3:0:0:
342,134,159576,1,2,0:3:0:0:
209,177,159738,5,4,1:2:0:0:
68,219,159900,1,2,0:3:0:0:
206,265,160062,1,0,1:0:0:0:
120,147,160224,1,2,0:3:0:0:
120,292,160387,6,0,L|56:312,3,41.2500012588501,0|0|0|0,1:0|1:0|1:0|1:0,0:0:0:0:
182,354,160711,2,0,L|224:368,3,41.2500012588501,0|0|0|0,1:0|1:0|1:0|1:0,0:0:0:0:
206,265,161035,1,2,0:3:0:0:
304,336,161197,1,2,0:1:0:0:
320,212,161359,1,0,1:0:0:0:
452,232,161522,6,0,P|444:312|376:372,1,165.000005035401,4|2,0:0|0:1,0:0:0:0:
300,236,162008,1,0,1:0:0:0:
359,59,162170,2,0,L|356:168,1,82.5000025177003,0|2,0:0|0:1,0:0:0:0:
328,256,162495,1,0,0:0:0:0:
396,44,162657,2,0,L|396:152,1,82.5000025177003,0|0,1:0|0:0,0:0:0:0:
352,272,162981,1,2,0:1:0:0:
244,55,163143,2,0,P|198:72|160:126,2,82.5000025177003,0|0|0,0:0|1:0|0:0,0:0:0:0:
359,59,163630,5,2,0:1:0:0:
456,23,163792,1,0,0:0:0:0:
491,120,163954,1,0,1:0:0:0:
395,156,164116,1,0,0:0:0:0:
359,59,164278,5,2,0:1:0:0:
359,59,164359,1,0,0:0:0:0:
359,59,164441,1,0,0:0:0:0:
204,132,164603,2,0,L|305:133,1,82.5000025177003,0|0,1:0|0:0,0:0:0:0:
395,156,164927,5,2,0:1:0:0:
395,156,165008,1,0,0:0:0:0:
395,156,165089,1,0,0:0:0:0:
240,229,165251,2,0,L|341:230,1,82.5000025177003,0|0,1:0|0:0,0:0:0:0:
240,229,165576,5,2,0:1:0:0:
90,173,165738,1,0,0:0:0:0:
120,331,165900,1,0,1:0:0:0:
240,229,166062,1,0,0:0:0:0:
136,105,166224,1,2,0:1:0:0:
84,256,166387,1,2,0:1:0:0:
240,229,166549,1,0,1:0:0:0:
296,104,166711,6,0,P|372:56|452:112,1,165.000005035401,4|2,0:0|0:1,0:0:0:0:
372,228,167197,2,0,L|372:132,1,82.5000025177003,0|0,1:0|0:0,0:0:0:0:
472,296,167522,1,2,0:1:0:0:
472,296,167684,2,0,L|472:200,1,82.5000025177003,0|0,0:0|1:0,0:0:0:0:
260,208,168009,6,0,P|304:288|248:364,1,165.000005035401,2|2,0:0|0:0,0:0:0:0:
136,284,168495,2,0,L|232:284,1,82.5000025177003,0|0,1:0|0:0,0:0:0:0:
80,352,168819,1,2,0:1:0:0:
44,248,168981,1,0,0:0:0:0:
80,136,169143,5,0,1:0:0:0:
80,136,169224,1,0,0:0:0:0:
80,136,169306,2,0,L|200:140,1,82.5000025177003,2|2,0:0|0:1,0:0:0:0:
308,72,169630,1,2,0:0:0:0:
288,104,169711,1,0,0:0:0:0:
276,140,169792,1,0,1:0:0:0:
280,176,169873,1,0,0:0:0:0:
300,212,169954,1,0,0:0:0:0:
392,140,170116,5,2,0:1:0:0:
408,264,170278,1,0,0:0:0:0:
392,140,170441,1,0,1:0:0:0:
304,320,170603,1,2,0:0:0:0:
300,212,170765,6,0,L|240:216,3,41.2500012588501,0|0|0|0,1:0|1:0|1:0|1:0,0:0:0:0:
150,268,171089,2,0,L|192:268,3,41.2500012588501,0|0|0|0,1:0|1:0|1:0|1:0,0:0:0:0:
164,184,171414,1,2,0:3:0:0:
96,40,171576,1,2,0:3:0:0:
80,216,171738,1,0,1:0:0:0:
168,104,171900,6,0,B|248:76|248:76|304:144|404:80|404:80|368:160|424:200|476:148|420:136,1,412.500012588501,4|0,0:1|0:0,0:0:0:0:
