osu file format v14

[General]
AudioFilename: audio.mp3
AudioLeadIn: 0
PreviewTime: 33252
Countdown: 0
SampleSet: Soft
StackLeniency: 0.7
Mode: 0
LetterboxInBreaks: 0
WidescreenStoryboard: 0

[Editor]
Bookmarks: 65491,76356,172680
DistanceSpacing: 0.7
BeatDivisor: 4
GridSize: 4
TimelineZoom: 3.299999

[Metadata]
Title:Kimi no Yozora Shoukaihan
TitleUnicode:キミノヨゾラ哨戒班
Artist:Orangestar
ArtistUnicode:Orangestar
Creator:kanor
Version:Awaken's Nekawa
Source:
Tags:ia vocaloid asu [_abhor_] -Sunflower- Hakurei Yoru Awaken アスノヨゾラ哨戒班 Lobelia Japanese lobelia sunflower
BeatmapID:1026639
BeatmapSetID:480945

[Difficulty]
HPDrainRate:5
CircleSize:4
OverallDifficulty:9
ApproachRate:9.5
SliderMultiplier:1.7
SliderTickRate:1

[Events]
//Background and Video events
0,0,"BG.jpg",0,0
//Break Periods
2,60533,64835
2,76749,85267
//Storyboard Layer 0 (Background)
//Storyboard Layer 1 (Fail)
//Storyboard Layer 2 (Pass)
//Storyboard Layer 3 (Foreground)
//Storyboard Layer 4 (Overlay)
//Storyboard Sound Samples

[TimingPoints]
820,324.324324324324,4,2,17,20,1,0
820,-200,4,2,17,20,0,0
11198,-100,4,2,17,40,0,0
21576,-100,4,2,17,30,0,0
26765,-83.3333333333333,4,2,17,65,0,0
34387,-133.333333333333,4,2,17,65,0,1
34711,-100,4,2,17,65,0,1
34874,-83.3333333333333,4,2,17,65,0,1
44765,-133.333333333333,4,2,17,65,0,1
45090,-83.3333333333333,4,2,17,65,0,1
55144,-83.3333333333333,4,2,17,65,0,0
55630,-83.3333333333333,4,2,17,70,0,0
65360,-100,4,2,17,70,0,0
75901,-200,4,2,17,70,0,0
85955,-100,4,2,17,70,0,0
86441,-100,4,2,17,60,0,0
130225,-200,4,2,17,60,0,0
130549,-71.4285714285714,4,2,17,65,0,1
130874,-83.3333333333333,4,2,17,65,0,1
140765,-133.333333333333,4,2,17,65,0,1
141090,-83.3333333333333,4,2,17,65,0,1
141252,-71.4285714285714,4,2,17,65,0,1
144657,-83.3333333333333,4,2,17,65,0,1
151144,-100,4,2,17,70,0,0
161036,-200,4,2,17,70,0,0
161522,-100,4,2,17,70,0,0
162171,-83.3333333333333,4,2,17,70,0,0
162657,-71.4285714285714,4,2,17,70,0,0
171982,-71.4285714285714,4,2,17,5,0,0

[Colours]
Combo1 : 117,117,123
Combo2 : 177,172,63
Combo3 : 81,88,153
Combo4 : 154,88,86

[HitObjects]
40,314,820,5,2,0:0:0:0:
41,230,982,1,0,0:0:0:0:
83,156,1144,1,0,0:0:0:0:
157,114,1306,1,2,0:0:0:0:
119,39,1468,5,0,0:0:0:0:
157,114,1630,1,2,0:0:0:0:
234,148,1792,1,0,0:0:0:0:
318,160,1955,1,0,0:0:0:0:
402,148,2117,2,0,L|413:104,3,42.5,2|0|0|2,0:0|0:0|0:0|0:0,0:0:0:0:
323,278,2765,5,0,0:0:0:0:
403,249,2928,1,2,0:0:0:0:
464,307,3090,1,0,0:0:0:0:
384,337,3252,1,0,0:0:0:0:
323,278,3414,5,2,0:0:0:0:
377,212,3576,1,0,0:0:0:0:
378,127,3738,1,0,0:0:0:0:
340,50,3901,1,2,0:0:0:0:
260,21,4063,5,0,0:0:0:0:
199,79,4225,1,2,0:0:0:0:
279,109,4387,1,0,0:0:0:0:
340,50,4549,1,0,0:0:0:0:
279,109,4711,2,0,L|290:153,3,42.5,2|0|0|0,0:0|0:0|0:0|0:0,0:0:0:0:
112,264,5360,5,2,0:0:0:0:
33,234,5522,1,0,0:0:0:0:
2,156,5684,1,0,0:0:0:0:
15,71,5847,1,2,0:0:0:0:
92,34,6009,6,0,L|145:26,3,42.5,0|0|0|2,0:0|0:0|0:0|0:0,0:0:0:0:
262,171,6657,2,0,L|305:165,3,42.5,0|2|0|0,0:0|0:0|0:0|0:0,0:0:0:0:
452,239,7306,6,0,P|456:219|454:185,1,42.5,2|0,0:0|0:0,0:0:0:0:
290,27,7630,2,0,P|286:47|288:81,1,42.5,0|2,0:0|0:0,0:0:0:0:
283,320,7955,2,0,P|287:300|285:266,1,42.5,0|2,0:0|0:0,0:0:0:0:
121,152,8279,2,0,P|117:172|119:206,1,42.5,0|0,0:0|0:0,0:0:0:0:
357,201,8603,5,2,0:0:0:0:
274,147,8765,1,0,0:0:0:0:
271,233,8928,1,0,0:0:0:0:
361,116,9090,1,2,0:0:0:0:
201,188,9252,1,0,0:0:0:0:
342,288,9414,1,2,0:0:0:0:
296,62,9576,1,0,0:0:0:0:
271,233,9738,1,2,0:0:0:0:
431,161,9901,6,0,L|484:173,1,42.5,0|2,0:0|0:0,0:0:0:0:
439,306,10225,1,2,0:0:0:0:
256,355,10387,2,0,L|251:311,1,42.5,0|0,0:0|0:0,0:0:0:0:
183,62,10711,1,0,0:0:0:0:
101,268,10874,2,0,L|106:208,1,42.5,0|0,3:0|0:0,0:0:0:0:
95,148,11117,5,0,0:0:0:0:
95,148,11198,2,0,P|119:192|171:223,1,85,4|0,0:0|0:0,0:0:0:0:
329,80,11522,1,0,1:0:0:0:
285,303,11684,2,0,L|276:200,1,85,0|2,0:0|0:1,0:0:0:0:
206,142,12009,1,0,0:0:0:0:
383,214,12171,1,0,1:0:0:0:
257,13,12333,1,0,0:0:0:0:
271,214,12495,6,0,P|236:231|186:229,1,85,2|0,0:1|0:0,0:0:0:0:
329,80,12819,1,0,1:0:0:0:
452,288,12982,1,0,0:0:0:0:
429,128,13144,2,0,L|446:30,1,85,2|0,0:1|0:0,0:0:0:0:
443,44,13387,1,0,0:0:0:0:
443,44,13468,1,0,1:0:0:0:
501,205,13630,1,0,0:0:0:0:
300,273,13792,6,0,P|281:214|293:176,1,85,2|0,0:1|0:0,0:0:0:0:
132,60,14117,2,0,P|131:112|107:148,1,85,0|0,1:0|0:0,0:0:0:0:
59,197,14360,1,0,0:0:0:0:
59,197,14441,2,0,L|69:288,1,85,2|0,0:1|0:0,0:0:0:0:
255,356,14765,1,0,1:0:0:0:
217,187,14928,1,0,0:0:0:0:
217,187,15009,1,0,0:0:0:0:
217,187,15090,2,0,L|235:98,1,85,2|0,0:1|0:0,0:0:0:0:
403,213,15414,5,0,1:0:0:0:
294,37,15576,1,0,0:0:0:0:
303,250,15738,1,2,0:1:0:0:
340,106,15901,2,0,L|350:164,1,42.5,0|0,0:0|0:0,0:0:0:0:
217,187,16063,2,0,L|227:245,1,42.5,0|0,1:0|0:0,0:0:0:0:
360,305,16225,2,0,L|370:363,1,42.5,0|0,0:0|0:0,0:0:0:0:
184,362,16387,5,4,0:0:0:0:
456,298,16549,1,0,0:0:0:0:
217,187,16711,1,0,1:0:0:0:
456,298,16874,1,2,0:0:0:0:
104,260,17036,5,2,0:1:0:0:
104,260,17360,1,0,1:0:0:0:
287,138,17522,2,0,P|303:178|294:229,1,85,0|2,0:0|0:1,0:0:0:0:
130,115,17847,1,0,0:0:0:0:
217,284,18009,1,0,1:0:0:0:
220,40,18171,1,2,0:0:0:0:
179,196,18333,6,0,L|86:204,1,85,0|0,0:0|0:0,0:0:0:0:
94,203,18576,1,0,0:0:0:0:
94,203,18657,1,0,1:0:0:0:
220,40,18819,1,2,0:0:0:0:
349,293,18982,2,0,P|361:244|346:196,1,85,2|0,0:1|0:0,0:0:0:0:
353,210,19225,1,0,0:0:0:0:
353,210,19306,1,0,1:0:0:0:
219,373,19468,1,2,0:0:0:0:
313,107,19630,6,0,L|406:118,1,85,2|0,0:1|0:0,0:0:0:0:
397,116,19874,1,0,0:0:0:0:
397,116,19955,1,0,1:0:0:0:
219,150,20117,1,0,0:0:0:0:
369,28,20279,1,2,0:1:0:0:
353,210,20441,1,0,0:0:0:0:
369,28,20603,1,0,1:0:0:0:
478,187,20765,5,2,0:0:0:0:
478,187,20847,1,0,0:0:0:0:
478,187,20928,2,0,P|473:222|465:245,1,42.5,2|0,0:1|0:0,0:0:0:0:
353,210,21090,2,0,P|336:241|320:260,1,42.5,4|0,0:3|0:0,0:0:0:0:
207,235,21252,2,0,P|180:258|159:271,1,42.5,4|0,0:3|0:0,0:0:0:0:
63,216,21414,2,0,P|30:229|6:233,1,42.5,4|0,0:3|0:0,0:0:0:0:
0,55,21576,5,4,0:0:0:0:
141,32,22874,5,2,0:0:0:0:
246,119,24171,5,2,0:0:0:0:
413,68,25468,5,2,0:0:0:0:
485,183,26117,1,2,0:0:0:0:
168,256,26765,6,0,B|195:325|273:328|273:328|302:306|324:270,1,203.999993774414,4|0,0:0|1:0,0:0:0:0:
297,60,27252,1,0,0:0:0:0:
485,183,27414,1,2,0:1:0:0:
258,199,27576,1,0,0:0:0:0:
440,48,27738,1,0,1:0:0:0:
382,272,27901,1,0,0:0:0:0:
229,113,28063,5,2,0:1:0:0:
398,192,28225,1,0,0:0:0:0:
168,256,28387,1,0,1:0:0:0:
382,272,28549,1,0,0:0:0:0:
262,346,28711,1,2,0:1:0:0:
296,173,28874,1,0,0:0:0:0:
296,173,28955,1,0,0:0:0:0:
296,173,29036,1,0,1:1:0:0:
380,366,29198,1,0,0:0:0:0:
258,264,29360,6,0,L|330:255,1,50.9999984436036,2|0,0:1|0:0,0:0:0:0:
476,222,29522,2,0,P|500:270|489:326,1,101.999996887207,2|0,0:0|1:0,0:0:0:0:
171,62,29847,2,0,L|231:80,1,50.9999984436036,2|0,0:0|0:0,0:0:0:0:
406,118,30009,2,0,P|432:78|430:17,1,101.999996887207,2|0,0:1|0:0,0:0:0:0:
258,264,30333,2,0,L|259:329,1,50.9999984436036,0|0,1:0|0:0,0:0:0:0:
74,224,30495,2,0,P|58:179|85:112,1,101.999996887207,2|2,0:0|0:1,0:0:0:0:
293,49,30819,6,0,L|362:65,1,50.9999984436036,2|0,0:0|0:0,0:0:0:0:
396,205,30982,2,0,L|337:213,1,50.9999984436036,0|0,1:0|0:0,0:0:0:0:
267,354,31144,2,0,L|329:366,1,50.9999984436036,0|0,0:0|0:0,0:0:0:0:
486,279,31306,1,2,1:0:0:0:
194,326,31468,1,0,0:0:0:0:
194,326,31549,1,0,0:0:0:0:
194,326,31630,1,2,1:0:0:0:
426,100,31792,1,0,0:0:0:0:
285,205,31955,5,2,0:1:0:0:
238,223,32036,1,0,0:0:0:0:
188,212,32117,1,2,0:0:0:0:
153,177,32198,1,0,0:0:0:0:
142,128,32279,1,0,1:0:0:0:
161,81,32360,1,0,0:0:0:0:
201,51,32441,1,2,0:0:0:0:
252,49,32522,1,0,0:0:0:0:
295,76,32603,5,2,0:1:0:0:
344,86,32684,1,0,0:0:0:0:
394,86,32765,1,0,0:0:0:0:
442,68,32847,1,0,0:0:0:0:
478,32,32928,5,0,1:0:0:0:
466,81,33009,1,0,0:0:0:0:
465,131,33090,1,2,0:0:0:0:
482,178,33171,1,0,0:0:0:0:
494,227,33252,1,2,0:1:0:0:
424,364,33414,1,0,0:0:0:0:
360,176,33576,1,0,1:0:0:0:
288,304,33738,1,0,0:0:0:0:
252,224,33901,6,0,L|259:174,1,50.9999984436036,0|0,1:0|0:0,0:0:0:0:
99,254,34063,2,0,L|96:204,1,50.9999984436036,0|0,0:0|0:0,0:0:0:0:
164,296,34225,2,0,B|188:288|188:288|236:292,1,50.9999984436036,0|0,3:0|0:0,0:0:0:0:
192,132,34387,6,0,B|146:141|146:141|85:116,1,95.6250036478044,4|0,0:0|0:0,0:0:0:0:
25,21,34711,6,0,L|84:7,1,42.5,2|0,0:3|0:0,0:0:0:0:
10,36,34874,6,0,B|87:46|87:46|120:77|118:122,1,152.999995330811,8|0,0:3|0:0,0:0:0:0:
246,255,35198,2,0,L|233:133,1,101.999996887207,2|2,0:3|0:3,0:0:0:0:
456,243,35522,1,8,0:3:0:0:
285,374,35684,2,0,P|205:373|148:319,1,152.999995330811,2|0,0:3|0:0,0:0:0:0:
153,176,36009,2,0,P|166:207|171:243,1,50.9999984436036,2|0,0:3|0:0,0:0:0:0:
270,184,36171,2,0,P|266:132|274:79,1,101.999996887207,8|0,0:3|0:0,0:0:0:0:
273,82,36414,1,0,0:0:0:0:
273,82,36495,1,2,0:3:0:0:
421,246,36657,1,2,0:3:0:0:
192,338,36819,1,8,0:3:0:0:
363,152,36982,5,2,0:3:0:0:
363,152,37063,1,0,0:0:0:0:
363,152,37144,1,0,0:0:0:0:
192,338,37306,1,2,0:3:0:0:
226,70,37468,1,8,0:3:0:0:
192,338,37630,2,0,P|131:314|76:322,1,101.999996887207,0|2,0:0|0:3,0:0:0:0:
21,157,37955,2,0,P|72:167|133:161,1,101.999996887207,2|8,0:3|0:3,0:0:0:0:
367,59,38279,6,0,P|384:153|386:278,1,203.999993774414,2|2,0:3|0:3,0:0:0:0:
191,189,38765,1,8,0:3:0:0:
330,365,38928,1,0,0:0:0:0:
330,365,39009,1,0,0:0:0:0:
330,365,39090,1,2,0:3:0:0:
296,121,39252,1,2,0:3:0:0:
296,121,39333,1,0,0:0:0:0:
296,121,39414,1,8,0:3:0:0:
455,241,39576,6,0,P|468:166|496:72,1,152.999995330811,4|0,0:0|0:0,0:0:0:0:
335,19,39901,2,0,L|341:85,1,50.9999984436036,2|0,0:3|0:0,0:0:0:0:
184,207,40063,2,0,P|181:158|196:104,1,101.999996887207,8|0,0:3|0:0,0:0:0:0:
322,263,40387,1,2,0:3:0:0:
161,361,40549,1,2,0:3:0:0:
161,361,40630,1,0,0:0:0:0:
161,361,40711,1,8,0:3:0:0:
395,306,40874,6,0,P|406:254|381:200,1,101.999996887207,2|0,0:3|0:0,0:0:0:0:
263,109,41198,1,2,0:3:0:0:
148,278,41360,1,8,0:3:0:0:
284,381,41522,1,0,0:0:0:0:
284,381,41603,1,0,0:0:0:0:
284,381,41684,2,0,L|354:373,1,50.9999984436036,2|0,0:3|0:0,0:0:0:0:
224,242,41847,2,0,L|215:179,1,50.9999984436036,2|0,0:3|0:0,0:0:0:0:
364,60,42009,2,0,L|361:110,1,50.9999984436036,8|0,0:3|0:0,0:0:0:0:
479,210,42171,5,2,0:3:0:0:
479,210,42252,1,0,0:0:0:0:
479,210,42333,1,0,0:0:0:0:
324,285,42495,1,2,0:3:0:0:
360,110,42657,1,8,0:3:0:0:
404,322,42819,2,0,P|366:357|254:333,1,152.999995330811,2|0,0:3|0:0,0:0:0:0:
144,286,43144,2,0,L|208:278,1,50.9999984436036,2|0,0:3|0:0,0:0:0:0:
70,218,43306,6,0,P|54:170|63:111,1,101.999996887207,8|2,0:3|0:1,0:0:0:0:
59,119,43549,1,0,0:0:0:0:
59,119,43630,1,4,1:2:0:0:
234,219,43792,1,2,0:1:0:0:
46,370,43955,1,0,1:0:0:0:
279,364,44117,5,2,0:1:0:0:
279,364,44198,1,0,0:0:0:0:
279,364,44279,2,0,L|208:359,1,50.9999984436036,2|0,0:3|0:0,0:0:0:0:
400,271,44441,2,0,L|404:329,1,50.9999984436036,4|0,0:3|0:0,0:0:0:0:
274,248,44603,2,0,L|279:189,1,50.9999984436036,4|0,0:3|0:0,0:0:0:0:
157,104,44765,6,0,L|161:204,1,95.6250036478044,4|0,0:0|0:0,0:0:0:0:
58,272,45090,6,0,L|50:207,1,50.9999984436036,2|0,0:3|0:0,0:0:0:0:
86,56,45252,6,0,P|126:22|235:72,1,152.999995330811,8|0,0:3|0:0,0:0:0:0:
288,119,45576,2,0,L|395:109,1,101.999996887207,2|2,0:3|0:3,0:0:0:0:
486,284,45901,1,8,0:3:0:0:
436,36,46063,2,0,P|426:102|433:212,1,152.999995330811,2|0,0:3|0:0,0:0:0:0:
336,295,46387,2,0,L|324:230,1,50.9999984436036,2|0,0:3|0:0,1:0:0:0:
250,349,46549,6,0,P|181:357|137:345,1,101.999996887207,8|0,0:3|0:0,0:0:0:0:
149,349,46792,1,0,0:0:0:0:
149,349,46874,1,2,0:3:0:0:
406,247,47036,1,2,0:3:0:0:
194,181,47198,1,8,0:3:0:0:
356,378,47360,5,2,0:3:0:0:
356,378,47441,1,0,0:0:0:0:
356,378,47522,1,0,0:0:0:0:
271,75,47684,1,2,0:3:0:0:
208,267,47847,1,8,0:3:0:0:
504,128,48009,2,0,P|501:78|472:37,1,101.999996887207,0|2,0:0|0:3,0:0:0:0:
175,175,48333,2,0,P|178:225|208:267,1,101.999996887207,2|8,0:3|0:3,0:0:0:0:
271,75,48657,6,0,P|210:32|96:80,1,203.999993774414,2|2,0:3|0:3,0:0:0:0:
352,15,49144,1,8,0:3:0:0:
360,239,49306,1,0,0:0:0:0:
360,239,49387,1,0,0:0:0:0:
360,239,49468,2,0,L|373:173,1,50.9999984436036,2|0,0:3|0:0,0:0:0:0:
234,228,49630,2,0,L|244:285,1,50.9999984436036,2|0,0:3|0:0,0:0:0:0:
271,75,49792,1,8,0:3:0:0:
396,323,49955,6,0,P|453:294|444:159,1,203.999993774414,4|2,0:0|0:3,0:0:0:0:
149,282,50441,1,8,0:3:0:0:
271,124,50603,1,0,0:0:0:0:
271,124,50684,1,0,0:0:0:0:
271,124,50765,1,2,0:3:0:0:
240,321,50928,1,2,0:3:0:0:
104,214,51090,1,8,0:3:0:0:
353,172,51252,6,0,P|366:109|341:64,1,101.999996887207,2|0,0:3|0:0,0:0:0:0:
234,228,51576,1,2,0:3:0:0:
141,130,51738,2,0,L|29:125,1,101.999996887207,8|0,0:3|0:0,0:0:0:0:
39,125,51982,1,0,0:0:0:0:
39,125,52063,1,2,0:3:0:0:
234,228,52225,1,2,0:3:0:0:
268,30,52387,1,8,0:3:0:0:
177,308,52549,5,2,0:3:0:0:
177,308,52630,1,0,0:0:0:0:
177,308,52711,2,0,P|225:325|276:320,1,101.999996887207,0|2,0:0|0:3,0:0:0:0:
506,251,53036,2,0,P|457:237|408:246,1,101.999996887207,8|0,0:3|0:0,0:0:0:0:
261,145,53360,1,2,0:3:0:0:
345,355,53522,1,2,0:3:0:0:
345,355,53603,1,0,0:0:0:0:
345,355,53684,2,0,L|354:291,1,50.9999984436036,8|0,0:3|0:0,0:0:0:0:
133,205,53847,5,2,0:3:0:0:
396,140,54009,1,4,1:2:0:0:
396,140,54090,1,0,0:0:0:0:
396,140,54171,2,0,L|317:123,1,50.9999984436036,0|0,0:0|0:0,0:0:0:0:
199,40,54333,2,0,L|265:33,1,50.9999984436036,0|0,1:0|0:0,0:0:0:0:
297,274,54495,2,0,L|238:269,1,50.9999984436036,0|0,0:0|0:0,0:0:0:0:
419,61,54657,5,0,1:0:0:0:
438,108,54738,1,0,1:0:0:0:
433,158,54819,1,0,1:0:0:0:
450,206,54901,1,0,1:0:0:0:
440,256,54982,1,0,1:0:0:0:
465,300,55063,1,0,1:0:0:0:
471,350,55144,1,4,1:2:0:0:
256,192,55225,12,4,60333,0:0:0:0:
77,89,65360,5,0,1:0:0:0:
167,268,65522,2,0,P|170:212|213:101,1,170,4|2,0:0|0:1,0:0:0:0:
348,236,66009,1,0,1:0:0:0:
241,370,66171,1,0,0:0:0:0:
241,370,66252,1,0,0:0:0:0:
241,370,66333,2,0,L|147:365,1,85,2|0,0:1|0:0,0:0:0:0:
259,178,66657,1,0,1:0:0:0:
414,313,66819,6,0,P|431:238|415:137,1,170,2|0,0:0|0:0,0:0:0:0:
505,363,67306,1,0,1:0:0:0:
257,264,67468,1,0,0:0:0:0:
257,264,67549,1,0,0:0:0:0:
257,264,67630,2,0,L|157:256,1,85,2|0,0:1|0:0,0:0:0:0:
164,19,67955,1,0,1:0:0:0:
69,148,68117,6,0,L|243:142,1,170,2|0,0:0|0:0,0:0:0:0:
476,241,68603,1,0,1:0:0:0:
346,67,68765,1,0,0:0:0:0:
346,67,68847,1,0,0:0:0:0:
346,67,68928,2,0,L|359:167,1,85,2|0,0:1|0:0,0:0:0:0:
166,262,69252,1,0,1:0:0:0:
423,333,69414,6,0,P|359:292|264:306,1,170,2|0,0:0|0:0,0:0:0:0:
172,152,69901,1,0,1:0:0:0:
373,206,70063,1,0,0:0:0:0:
417,218,70144,1,0,0:0:0:0:
457,231,70225,1,2,0:1:0:0:
254,83,70387,1,2,0:1:0:0:
265,128,70468,1,0,0:0:0:0:
277,172,70549,2,0,L|266:228,1,42.5,0|0,1:0|0:0,0:0:0:0:
205,337,70711,6,0,P|143:349|85:251,1,170,4|2,0:0|0:1,0:0:0:0:
340,294,71198,1,0,1:0:0:0:
265,128,71360,1,0,0:0:0:0:
265,128,71441,1,0,0:0:0:0:
265,128,71522,1,2,0:1:0:0:
166,262,71684,1,0,0:0:0:0:
128,73,71847,1,0,1:0:0:0:
404,216,72009,6,0,P|427:144|401:39,1,170,2|0,0:0|0:0,0:0:0:0:
243,219,72495,1,0,1:0:0:0:
372,360,72657,1,0,0:0:0:0:
372,360,72738,1,0,0:0:0:0:
372,360,72819,1,2,0:1:0:0:
265,128,72982,1,0,0:0:0:0:
139,300,73144,1,0,1:0:0:0:
464,287,73306,6,0,P|482:232|473:104,1,170,2|0,0:0|0:0,0:0:0:0:
243,219,73792,1,0,1:0:0:0:
372,360,73955,1,0,0:0:0:0:
372,360,74036,1,0,0:0:0:0:
372,360,74117,1,2,0:1:0:0:
322,193,74279,1,0,0:0:0:0:
143,252,74441,1,0,1:0:0:0:
251,76,74603,6,0,P|334:64|419:74,1,170,2|0,0:0|0:0,0:0:0:0:
250,336,75090,1,0,1:0:0:0:
129,158,75252,1,0,0:0:0:0:
129,158,75333,1,0,0:0:0:0:
129,158,75414,2,0,L|128:217,1,42.5,0|0,1:0|0:0,0:0:0:0:
250,336,75576,2,0,L|250:293,1,42.5,4|0,0:3|0:0,0:0:0:0:
335,32,75738,2,0,L|334:91,1,42.5,4|0,0:3|0:0,0:0:0:0:
438,237,75901,6,0,B|443:232|477:263|477:263|466:230|413:224|391:168,1,170,4|0,0:0|0:0,0:0:0:0:
155,70,85792,5,0,0:0:0:0:
210,288,85955,2,0,L|224:184,1,85,0|0,0:0|0:0,0:0:0:0:
155,70,86279,1,0,0:0:0:0:
329,258,86441,5,4,0:0:0:0:
113,237,86603,1,0,0:0:0:0:
272,124,86765,1,0,1:0:0:0:
208,322,86928,1,0,0:0:0:0:
260,135,87090,1,2,0:1:0:0:
325,284,87252,1,0,0:0:0:0:
120,275,87414,1,0,1:0:0:0:
146,66,87576,1,0,0:0:0:0:
347,113,87738,6,0,L|440:105,1,85,2|0,0:1|0:0,0:0:0:0:
431,105,87982,1,0,0:0:0:0:
431,105,88063,1,0,1:0:0:0:
350,238,88225,1,0,0:0:0:0:
371,26,88387,1,2,0:1:0:0:
470,187,88549,1,0,0:0:0:0:
371,26,88711,1,0,1:0:0:0:
470,187,88874,1,0,0:0:0:0:
196,190,89036,6,0,L|292:182,1,85,2|0,0:1|0:0,0:0:0:0:
125,352,89360,1,0,1:0:0:0:
33,237,89522,2,0,P|18:196|19:154,1,85,0|2,0:0|0:1,0:0:0:0:
189,274,89847,1,0,0:0:0:0:
12,344,90009,1,0,1:0:0:0:
108,171,90171,1,0,0:0:0:0:
125,352,90333,6,0,P|179:364|227:365,1,85,2|0,0:1|0:0,0:0:0:0:
417,296,90657,2,0,P|363:284|315:283,1,85,0|0,1:0|0:0,0:0:0:0:
108,171,90982,2,0,P|162:183|210:184,1,85,2|0,0:1|1:0,0:0:0:0:
273,169,91225,1,0,0:0:0:0:
273,169,91306,1,0,1:0:0:0:
293,8,91468,1,0,0:0:0:0:
367,218,91630,6,0,P|380:176|355:119,1,85,4|0,0:0|0:0,0:0:0:0:
231,297,91955,1,0,1:0:0:0:
430,344,92117,1,0,0:0:0:0:
281,225,92279,2,0,P|252:213|181:219,1,85,2|0,0:1|0:0,0:0:0:0:
199,212,92522,1,0,0:0:0:0:
199,212,92603,1,0,1:0:0:0:
332,365,92765,1,0,0:0:0:0:
458,247,92928,5,2,0:1:0:0:
381,91,93090,1,0,0:0:0:0:
282,225,93252,1,0,1:0:0:0:
381,91,93414,1,0,0:0:0:0:
282,225,93576,6,0,P|269:176|288:123,1,85,2|0,0:1|0:0,0:0:0:0:
88,56,93901,2,0,P|101:98|88:156,1,85,0|0,1:0|0:0,0:0:0:0:
61,210,94144,1,0,0:0:0:0:
61,210,94225,2,0,L|76:307,1,85,2|0,0:1|0:0,0:0:0:0:
216,95,94549,1,0,1:0:0:0:
229,349,94711,6,0,P|214:298|177:266,1,85,0|2,0:0|0:1,0:0:0:0:
381,91,95036,2,0,P|361:128|356:170,1,85,0|0,0:0|1:0,0:0:0:0:
492,337,95360,1,0,0:0:0:0:
436,156,95522,5,2,0:1:0:0:
312,295,95684,1,0,0:0:0:0:
312,295,95765,1,0,0:0:0:0:
312,295,95847,1,0,1:0:0:0:
504,222,96009,1,0,0:0:0:0:
348,165,96171,1,2,0:1:0:0:
406,348,96333,1,0,0:0:0:0:
348,165,96495,1,0,1:0:0:0:
229,280,96657,1,0,1:0:0:0:
423,202,96819,6,0,P|432:160|409:105,1,85,4|0,0:0|0:0,0:0:0:0:
259,80,97144,1,0,1:0:0:0:
144,286,97306,1,0,0:0:0:0:
86,156,97468,2,0,L|176:149,1,85,2|0,0:1|0:0,0:0:0:0:
229,280,97792,2,0,L|144:286,1,85,0|2,1:0|0:0,0:0:0:0:
144,286,98036,1,0,0:0:0:0:
144,286,98117,1,2,0:1:0:0:
288,196,98279,5,2,0:0:0:0:
372,351,98441,1,0,1:0:0:0:
288,196,98603,1,2,0:0:0:0:
271,367,98765,1,2,0:1:0:0:
380,254,98928,1,0,0:0:0:0:
223,130,99090,1,0,1:0:0:0:
446,148,99252,5,2,0:0:0:0:
446,148,99333,1,0,0:0:0:0:
446,148,99414,2,0,P|459:104|449:62,1,85,2|0,0:1|0:0,0:0:0:0:
308,114,99738,1,0,1:0:0:0:
380,254,99901,1,2,0:0:0:0:
271,367,100063,5,2,0:1:0:0:
288,196,100225,1,2,0:0:0:0:
288,196,100306,1,0,0:0:0:0:
288,196,100387,1,0,1:0:0:0:
472,284,100549,1,2,0:0:0:0:
218,249,100711,6,0,P|200:202|208:160,1,85,2|0,0:1|0:0,0:0:0:0:
46,64,101036,2,0,P|64:111|56:153,1,85,0|2,1:0|0:0,0:0:0:0:
97,252,101360,1,2,0:1:0:0:
201,74,101522,1,0,1:0:0:0:
201,74,101603,1,0,0:0:0:0:
201,74,101684,2,0,L|211:134,1,42.5,0|0,1:0|0:0,0:0:0:0:
325,77,101847,2,0,L|330:32,1,42.5,2|0,0:0|0:0,0:0:0:0:
411,143,102009,6,0,P|451:158|512:143,1,85,4|0,0:0|0:0,0:0:0:0:
415,301,102333,2,0,P|375:286|314:301,1,85,0|0,1:0|0:0,0:0:0:0:
333,290,102576,1,0,0:0:0:0:
333,290,102657,1,2,0:1:0:0:
493,234,102819,1,0,0:0:0:0:
269,153,102982,1,0,1:0:0:0:
246,363,103144,1,2,0:0:0:0:
346,199,103306,6,0,P|355:145|336:99,1,85,2|2,0:1|0:0,0:0:0:0:
149,205,103630,2,0,L|160:303,1,85,0|0,1:0|0:0,0:0:0:0:
158,289,103874,1,0,0:0:0:0:
158,289,103955,1,2,0:1:0:0:
194,102,104117,1,0,0:0:0:0:
53,217,104279,1,0,1:0:0:0:
246,206,104441,1,2,0:0:0:0:
85,111,104603,6,0,P|76:62|85:10,1,85,2|2,0:1|0:0,0:0:0:0:
315,27,104928,2,0,P|324:76|315:128,1,85,0|0,1:0|0:0,0:0:0:0:
257,322,105252,2,0,B|311:315|346:340,1,85,2|0,0:1|0:0,0:0:0:0:
465,218,105576,1,0,1:0:0:0:
320,110,105738,1,2,0:0:0:0:
371,237,105901,5,2,0:1:0:0:
188,272,106063,1,2,0:0:0:0:
188,272,106144,1,0,0:0:0:0:
188,272,106225,1,0,1:0:0:0:
292,193,106387,1,2,0:0:0:0:
376,379,106549,1,2,0:1:0:0:
464,253,106711,5,0,1:0:0:0:
474,229,106792,1,0,0:0:0:0:
479,203,106874,1,0,1:0:0:0:
477,177,106955,1,0,0:0:0:0:
470,152,107036,1,0,0:0:0:0:
461,127,107117,1,0,0:0:0:0:
428,96,107198,1,4,0:0:0:0:
253,32,107360,5,2,0:0:0:0:
203,57,107441,1,2,0:0:0:0:
148,65,107522,1,0,1:0:0:0:
61,192,107684,1,2,0:0:0:0:
62,247,107765,1,2,0:0:0:0:
81,298,107847,1,2,0:1:0:0:
240,373,108009,1,0,0:0:0:0:
409,296,108171,1,0,1:0:0:0:
409,137,108333,1,2,0:0:0:0:
203,57,108495,6,0,L|113:42,1,85,2|2,0:1|0:0,0:0:0:0:
156,311,108819,2,0,L|258:299,1,85,0|0,1:0|0:0,0:0:0:0:
335,182,109144,2,0,P|294:161|168:219,1,170,2|0,0:1|1:0,0:0:0:0:
177,329,109630,1,0,0:0:0:0:
177,329,109711,1,0,0:0:0:0:
177,329,109792,2,0,L|276:321,1,85,2|0,0:1|0:0,0:0:0:0:
335,182,110117,1,0,1:0:0:0:
397,343,110279,2,0,P|404:295|381:246,1,85,2|2,0:0|0:1,0:0:0:0:
235,198,110603,5,2,0:0:0:0:
392,261,110765,1,0,1:0:0:0:
416,60,110928,1,2,0:0:0:0:
289,15,111090,2,0,P|282:56|292:98,1,85,2|2,0:1|0:0,0:0:0:0:
292,98,111333,1,0,0:0:0:0:
292,98,111414,1,0,1:0:0:0:
459,90,111576,1,2,0:0:0:0:
330,243,111738,1,2,0:1:0:0:
464,175,111901,5,0,0:0:0:0:
472,194,111982,1,0,0:0:0:0:
478,214,112063,1,0,1:0:0:0:
480,235,112144,1,0,0:0:0:0:
479,256,112225,1,0,1:0:0:0:
473,276,112306,1,0,0:0:0:0:
463,295,112387,1,4,0:0:0:0:
208,194,112549,5,2,0:0:0:0:
206,168,112630,1,2,0:0:0:0:
204,142,112711,1,0,1:0:0:0:
308,351,112874,5,2,0:0:0:0:
319,298,112955,1,2,0:0:0:0:
330,243,113036,1,2,0:1:0:0:
127,332,113198,1,0,0:0:0:0:
204,142,113360,1,0,1:0:0:0:
319,298,113522,1,2,0:0:0:0:
252,68,113684,2,0,P|204:57|142:78,1,85,2|2,0:1|0:0,0:0:0:0:
58,237,114009,2,0,P|106:248|168:227,1,85,0|0,1:0|0:0,0:0:0:0:
364,156,114333,5,2,0:1:0:0:
396,336,114495,1,0,0:0:0:0:
480,208,114657,1,0,1:0:0:0:
492,284,114819,1,0,0:0:0:0:
456,92,114982,1,2,0:1:0:0:
279,225,115144,1,0,0:0:0:0:
416,256,115306,1,0,1:0:0:0:
208,172,115468,2,0,P|186:216|197:261,1,85,2|2,0:0|0:1,0:0:0:0:
111,49,115792,5,2,0:0:0:0:
279,225,115955,1,0,1:0:0:0:
77,265,116117,1,2,0:0:0:0:
195,102,116279,1,2,0:1:0:0:
279,225,116441,1,0,0:0:0:0:
279,225,116522,1,0,0:0:0:0:
279,225,116603,2,0,L|284:161,1,42.5,0|0,1:0|0:0,0:0:0:0:
397,68,116765,2,0,L|403:128,1,42.5,2|0,0:1|0:0,0:0:0:0:
441,238,116928,5,0,1:0:0:0:
395,268,117009,1,0,1:0:0:0:
371,318,117090,1,0,1:0:0:0:
316,328,117171,1,0,1:0:0:0:
262,313,117252,1,2,0:1:0:0:
245,260,117333,1,2,0:1:0:0:
203,223,117414,1,0,0:1:0:0:
147,219,117495,1,2,0:1:0:0:
118,171,117576,5,4,1:0:0:0:
118,171,117738,1,0,1:0:0:0:
476,339,118874,5,0,1:0:0:0:
476,339,119036,1,0,1:0:0:0:
391,50,120171,5,0,1:0:0:0:
357,221,120333,1,0,1:0:0:0:
127,104,121468,5,0,1:0:0:0:
161,275,121630,1,0,1:0:0:0:
372,159,122117,5,0,1:0:0:0:
323,310,122279,1,0,1:0:0:0:
323,310,122360,1,0,0:0:0:0:
323,310,122441,2,0,L|259:326,1,42.5,4|0,1:0|0:0,0:0:0:0:
197,226,122603,2,0,L|155:221,1,42.5,0|0,0:0|0:0,0:0:0:0:
46,271,122765,6,0,P|31:318|33:363,1,85,2|0,0:1|0:0,0:0:0:0:
197,226,123090,2,0,P|212:179|210:134,1,85,0|0,1:0|0:0,0:0:0:0:
386,76,123414,2,0,P|371:123|373:168,1,85,2|2,0:1|0:0,0:0:0:0:
476,319,123739,2,0,P|491:272|489:227,1,85,0|0,1:0|0:0,0:0:0:0:
197,225,124063,6,0,L|203:331,1,85,2|0,0:1|0:0,0:0:0:0:
376,239,124387,2,0,L|381:155,1,85,0|0,1:0|0:0,0:0:0:0:
243,27,124711,2,0,L|247:111,1,85,2|2,0:1|0:0,0:0:0:0:
478,175,125035,2,0,L|484:69,1,85,0|0,1:0|0:0,0:0:0:0:
497,11,125279,5,0,0:0:0:0:
497,11,125360,2,0,L|503:53,1,42.5,2|0,0:1|0:0,0:0:0:0:
368,148,125522,2,0,P|329:154|281:149,1,85,2|0,0:0|1:0,0:0:0:0:
32,139,125847,6,0,L|42:202,1,42.5,2|0,0:0|0:0,0:0:0:0:
83,314,126009,2,0,P|125:324|176:317,1,85,2|0,0:1|0:0,0:0:0:0:
404,268,126333,6,0,L|342:261,1,42.5,0|0,1:0|0:0,0:0:0:0:
149,222,126495,2,0,P|194:216|231:198,1,85,2|2,0:0|0:1,0:0:0:0:
459,96,126819,6,0,L|455:153,1,42.5,2|0,0:0|0:0,0:0:0:0:
351,281,126982,2,0,L|342:219,1,42.5,0|0,1:0|0:0,0:0:0:0:
254,49,127144,2,0,L|250:106,1,42.5,0|0,0:0|0:0,0:0:0:0:
149,222,127306,1,2,1:0:0:0:
348,159,127468,1,0,0:0:0:0:
348,159,127549,1,0,0:0:0:0:
348,159,127630,1,2,1:0:0:0:
397,352,127792,1,0,0:0:0:0:
249,197,127955,5,2,0:1:0:0:
242,155,128036,1,0,0:0:0:0:
253,114,128117,1,2,0:0:0:0:
278,80,128198,1,0,0:0:0:0:
314,58,128279,1,0,1:0:0:0:
356,52,128360,1,0,0:0:0:0:
397,63,128441,1,2,0:0:0:0:
430,87,128522,1,0,0:0:0:0:
452,124,128603,5,2,0:1:0:0:
458,166,128684,1,0,0:0:0:0:
447,206,128765,1,0,0:0:0:0:
422,241,128846,1,0,0:0:0:0:
380,249,128927,5,0,1:0:0:0:
340,266,129009,1,0,0:0:0:0:
309,295,129090,1,2,0:0:0:0:
283,328,129171,1,0,0:0:0:0:
269,368,129252,5,2,0:1:0:0:
210,379,129333,1,0,0:0:0:0:
151,369,129414,1,0,1:0:0:0:
95,347,129495,1,0,0:0:0:0:
44,316,129576,1,0,1:0:0:0:
18,262,129657,1,0,0:0:0:0:
18,202,129738,1,0,0:0:0:0:
38,146,129819,1,0,0:0:0:0:
81,104,129901,2,0,B|124:116|124:116|184:104,1,85,4|0,0:3|0:0,0:0:0:0:
343,62,130225,6,0,L|356:132,1,63.75,0|0,0:0|0:0,0:0:0:0:
347,170,130549,6,0,P|377:89|492:79,1,178.499994552612,4|0,0:0|0:0,0:0:0:0:
512,182,130874,2,0,P|514:233|499:299,1,101.999996887207,8|0,0:3|0:0,0:0:0:0:
459,65,131198,1,2,0:3:0:0:
321,199,131360,1,2,0:3:0:0:
321,199,131441,1,0,0:0:0:0:
321,199,131522,2,0,L|253:193,1,50.9999984436036,8|0,0:3|0:0,0:0:0:0:
131,100,131684,2,0,P|109:171|96:252,1,152.999995330811,2|0,0:3|0:0,0:0:0:0:
155,330,132009,2,0,L|220:318,1,50.9999984436036,2|0,0:3|0:0,0:0:0:0:
302,284,132171,2,0,P|287:339|284:399,1,101.999996887207,8|0,0:3|0:0,0:0:0:0:
359,73,132495,5,2,0:3:0:0:
466,251,132657,1,2,0:3:0:0:
466,251,132738,1,0,0:0:0:0:
466,251,132819,2,0,L|471:189,1,50.9999984436036,8|0,0:3|0:0,0:0:0:0:
345,36,132982,2,0,B|321:83|352:125|352:125|362:196,1,152.999995330811,2|0,0:3|0:0,0:0:0:0:
236,216,133306,2,0,L|227:149,1,50.9999984436036,2|0,0:3|0:0,0:0:0:0:
119,233,133468,2,0,P|110:282|114:341,1,101.999996887207,8|0,0:3|0:0,0:0:0:0:
302,284,133792,5,2,0:3:0:0:
165,83,133955,1,2,0:3:0:0:
165,83,134036,1,0,0:0:0:0:
165,83,134117,2,0,L|171:158,1,50.9999984436036,8|0,0:3|0:0,0:0:0:0:
330,198,134279,2,0,L|335:147,1,50.9999984436036,2|0,0:3|0:0,0:0:0:0:
189,289,134441,1,0,0:0:0:0:
422,228,134603,1,2,0:3:0:0:
422,228,134684,1,0,0:0:0:0:
422,228,134765,1,8,0:3:0:0:
267,92,134928,5,0,0:0:0:0:
386,310,135090,1,2,0:3:0:0:
328,32,135252,1,2,0:3:0:0:
328,32,135333,1,0,0:0:0:0:
328,32,135414,1,8,0:3:0:0:
460,341,135576,6,0,P|408:386|316:349,1,152.999995330811,4|0,0:0|0:0,0:0:0:0:
234,290,135901,2,0,L|292:274,1,50.9999984436036,2|0,0:3|0:0,0:0:0:0:
127,270,136063,2,0,P|139:321|137:371,1,101.999996887207,8|0,0:3|0:0,0:0:0:0:
137,370,136306,1,0,0:0:0:0:
137,370,136387,1,2,0:3:0:0:
198,200,136549,1,2,0:3:0:0:
351,262,136711,1,8,0:3:0:0:
30,280,136874,2,0,B|24:233|58:203|58:203|51:133,1,152.999995330811,2|0,0:3|0:0,0:0:0:0:
151,53,137198,2,0,L|147:118,1,50.9999984436036,2|0,0:3|0:0,0:0:0:0:
277,139,137360,6,0,L|271:22,1,101.999996887207,8|0,0:3|0:0,0:0:0:0:
271,37,137603,1,0,0:0:0:0:
271,37,137684,1,2,0:3:0:0:
420,212,137847,1,2,0:3:0:0:
154,212,138009,1,8,0:3:0:0:
375,133,138171,6,0,P|459:132|506:190,1,152.999995330811,2|0,0:3|1:0,1:0:0:0:
504,254,138495,1,2,0:3:0:0:
243,168,138657,1,8,0:3:0:0:
476,81,138819,1,0,0:0:0:0:
255,313,138982,2,0,P|235:258|242:205,1,101.999996887207,2|2,0:3|0:3,0:0:0:0:
512,300,139306,1,8,0:3:0:0:
320,243,139468,1,2,0:1:0:0:
183,379,139630,5,4,1:2:0:0:
112,162,139792,1,2,0:1:0:0:
112,162,139874,1,0,0:0:0:0:
112,162,139955,2,0,L|178:156,1,50.9999984436036,0|0,1:0|0:0,0:0:0:0:
307,267,140117,2,0,L|256:262,1,50.9999984436036,2|0,0:1|0:0,0:0:0:0:
268,96,140279,6,0,L|271:161,1,50.9999984436036,2|0,0:3|0:0,0:0:0:0:
155,301,140441,2,0,L|152:250,1,50.9999984436036,4|0,0:3|0:0,0:0:0:0:
360,343,140603,2,0,L|428:335,1,50.9999984436036,4|0,0:3|0:0,0:0:0:0:
155,302,140765,6,0,P|118:296|52:295,1,95.6250036478044,4|0,0:0|0:0,0:0:0:0:
211,199,141090,6,0,L|261:197,1,50.9999984436036,2|0,0:3|0:0,0:0:0:0:
397,270,141252,2,0,P|409:177|350:102,1,178.499994552612,8|0,0:3|0:0,0:0:0:0:
287,78,141576,1,2,0:3:0:0:
117,229,141738,1,2,0:3:0:0:
117,229,141819,1,0,0:0:0:0:
117,229,141901,1,8,0:3:0:0:
460,320,142063,6,0,P|490:260|478:130,1,178.499994552612,2|0,0:3|0:0,0:0:0:0:
406,50,142387,2,0,L|347:37,1,59.4999981842042,2|0,0:3|0:0,0:0:0:0:
227,110,142549,2,0,P|197:170|209:300,1,178.499994552612,8|0,0:3|0:0,0:0:0:0:
238,354,142874,1,2,0:3:0:0:
467,187,143036,1,2,0:3:0:0:
467,187,143117,1,0,0:0:0:0:
467,187,143198,1,8,0:3:0:0:
178,41,143360,6,0,P|132:87|94:209,1,178.499994552612,2|0,0:3|0:0,0:0:0:0:
148,289,143684,2,0,L|214:319,1,59.4999981842042,2|0,0:3|0:0,0:0:0:0:
315,289,143847,2,0,P|361:243|399:121,1,178.499994552612,8|0,0:3|0:0,0:0:0:0:
374,63,144171,1,2,0:3:0:0:
433,330,144333,1,2,0:3:0:0:
433,330,144414,1,0,0:0:0:0:
433,330,144495,1,8,0:3:0:0:
243,213,144657,1,2,0:3:0:0:
453,93,144819,5,0,0:0:0:0:
390,256,144982,1,2,0:3:0:0:
390,256,145063,1,0,0:0:0:0:
390,256,145144,2,0,L|383:186,1,50.9999984436036,8|0,0:3|0:0,0:0:0:0:
281,73,145306,2,0,L|280:124,1,50.9999984436036,0|0,0:0|0:0,0:0:0:0:
226,296,145468,1,2,0:3:0:0:
482,229,145630,2,0,P|493:179|491:113,1,101.999996887207,2|8,0:3|0:3,0:0:0:0:
204,6,145955,6,0,P|196:102|221:218,1,203.999993774414,4|2,0:0|0:3,0:0:0:0:
216,208,146360,1,0,0:0:0:0:
216,208,146441,1,8,0:3:0:0:
391,140,146603,1,0,0:0:0:0:
96,92,146765,5,2,0:3:0:0:
313,195,146928,1,2,0:3:0:0:
93,291,147090,1,8,0:3:0:0:
375,268,147252,2,0,P|406:203|325:102,1,203.999993774414,2|2,0:3|0:3,0:0:0:0:
336,104,147657,1,0,0:0:0:0:
336,104,147738,1,8,0:3:0:0:
131,208,147901,1,0,0:0:0:0:
301,323,148063,5,2,0:3:0:0:
216,95,148225,1,0,0:0:0:0:
93,291,148387,1,8,0:3:0:0:
336,194,148549,2,0,P|405:187|449:314,1,203.999993774414,2|2,0:3|0:3,0:0:0:0:
458,293,148955,1,0,0:0:0:0:
458,293,149036,1,8,0:3:0:0:
233,246,149198,1,0,0:0:0:0:
394,41,149360,5,2,0:3:0:0:
335,193,149522,1,2,0:3:0:0:
335,193,149603,1,0,0:0:0:0:
335,193,149684,2,0,L|326:125,1,50.9999984436036,8|0,0:3|0:0,0:0:0:0:
490,94,149847,2,0,L|487:156,1,50.9999984436036,2|0,0:3|0:0,0:0:0:0:
370,278,150009,5,4,1:2:0:0:
221,160,150171,1,2,0:0:0:0:
221,160,150252,1,2,0:0:0:0:
221,160,150333,2,0,L|150:171,1,50.9999984436036,0|0,1:0|0:0,0:0:0:0:
110,298,150495,2,0,L|41:293,1,50.9999984436036,2|2,0:0|0:0,0:0:0:0:
256,354,150657,5,0,1:0:0:0:
295,321,150738,1,0,1:0:0:0:
345,318,150819,1,0,1:0:0:0:
379,280,150900,1,0,1:0:0:0:
429,272,150981,1,0,1:0:0:0:
453,227,151062,1,0,1:0:0:0:
502,215,151143,1,4,1:2:0:0:
256,192,151225,12,0,153738,1:0:0:0:
308,111,153901,5,0,1:0:0:0:
242,231,154063,1,2,0:0:0:0:
242,231,154144,1,0,0:0:0:0:
242,231,154225,2,0,L|186:223,1,42.5,0|0,1:0|0:0,0:0:0:0:
313,340,154387,2,0,L|366:333,1,42.5,2|0,0:0|0:0,0:0:0:0:
433,228,154549,2,0,P|441:193|422:122,1,85,0|2,1:0|0:0,0:0:0:0:
202,317,154874,1,0,1:0:0:0:
335,193,155036,1,2,0:1:0:0:
463,334,155198,1,0,0:0:0:0:
498,161,155360,5,2,1:0:0:0:
498,161,155441,1,2,0:0:0:0:
498,161,155522,2,0,L|446:147,1,42.5,0|0,1:0|0:0,0:0:0:0:
366,276,155684,2,0,L|321:280,1,42.5,2|2,0:0|0:0,0:0:0:0:
240,108,155847,2,0,L|182:108,3,42.5,2|0|2|0,0:1|1:0|0:1|0:0,0:0:0:0:
106,188,156171,2,0,L|111:248,1,42.5,0|0,1:0|0:0,0:0:0:0:
202,317,156333,5,4,0:0:0:0:
230,324,156414,1,0,0:0:0:0:
259,322,156495,1,0,0:0:0:0:
287,313,156576,1,0,0:0:0:0:
312,297,156657,1,2,0:3:0:0:
332,275,156738,1,0,0:0:0:0:
317,226,156819,5,8,0:3:0:0:
280,190,156900,1,0,0:0:0:0:
228,184,156982,1,0,0:0:0:0:
177,197,157063,1,0,0:0:0:0:
128,181,157144,5,2,3:3:0:0:
95,140,157225,1,0,3:0:0:0:
90,88,157306,1,2,3:3:0:0:
115,41,157387,1,0,0:0:0:0:
161,16,157468,1,8,0:3:0:0:
212,23,157549,1,0,0:0:0:0:
257,52,157630,1,2,0:3:0:0:
313,58,157711,1,0,0:0:0:0:
361,44,157792,6,0,L|409:36,1,42.5,0|0,0:0|0:0,0:0:0:0:
497,141,157955,2,0,L|455:147,1,42.5,2|0,0:3|0:0,0:0:0:0:
280,190,158117,2,0,L|328:182,1,42.5,8|0,0:3|0:0,0:0:0:0:
443,288,158280,2,0,L|401:294,1,42.5,0|0,0:0|0:0,0:0:0:0:
263,376,158441,5,2,0:3:0:0:
246,327,158522,1,0,3:0:0:0:
209,291,158603,1,2,3:0:0:0:
165,264,158684,1,0,0:0:0:0:
127,229,158765,1,8,0:3:0:0:
108,180,158847,1,0,0:0:0:0:
108,129,158928,5,2,0:3:0:0:
120,101,159009,1,0,0:0:0:0:
137,76,159090,1,4,1:2:0:0:
319,215,159252,1,2,0:3:0:0:
85,324,159414,1,0,1:3:0:0:
219,143,159576,5,2,0:3:0:0:
354,323,159738,1,4,1:2:0:0:
127,229,159901,1,2,0:3:0:0:
231,0,160063,1,0,1:0:0:0:
441,54,160225,5,2,0:3:0:0:
441,54,160306,1,0,0:0:0:0:
441,54,160387,2,0,L|431:115,1,42.5,0|0,1:0|1:0,0:0:0:0:
339,123,160549,2,0,L|346:82,1,42.5,0|0,1:0|1:0,0:0:0:0:
251,118,160711,2,0,L|241:179,1,42.5,0|0,1:0|1:0,0:0:0:0:
149,179,160874,2,0,L|156:138,1,42.5,0|0,1:0|1:0,0:0:0:0:
42,184,161036,6,0,P|42:224|52:266,1,63.75,2|0,0:3|0:0,0:0:0:0:
146,312,161360,2,0,L|148:286,1,21.25,0|0,1:0|0:0,0:0:0:0:
238,207,161522,6,0,P|297:198|365:233,1,127.5,4|0,0:0|1:0,0:0:0:0:
397,291,161847,2,0,P|403:318|406:349,1,42.5,2|0,0:1|0:0,0:0:0:0:
153,353,162009,2,0,P|147:326|144:295,1,42.5,0|0,1:0|0:0,0:0:0:0:
282,57,162171,6,0,L|290:235,1,152.999995330811,0|0,0:0|0:0,0:0:0:0:
267,319,162495,2,0,L|281:376,1,50.9999984436036,0|0,0:0|0:0,0:0:0:0:
209,249,162657,6,0,B|309:210|295:271|393:241,1,178.499994552612,0|0,1:0|0:0,0:0:0:0:
497,146,162982,2,0,L|508:221,1,59.4999981842042,2|0,0:1|0:0,0:0:0:0:
383,79,163144,1,0,0:0:0:0:
479,296,163306,1,0,1:0:0:0:
487,54,163468,5,0,0:0:0:0:
487,54,163549,1,0,0:0:0:0:
487,54,163630,1,2,0:1:0:0:
363,213,163792,1,0,0:0:0:0:
193,241,163955,1,0,1:0:0:0:
6,203,164117,1,0,0:0:0:0:
166,326,164279,5,2,0:1:0:0:
221,343,164360,1,0,0:0:0:0:
278,328,164441,1,0,0:0:0:0:
317,284,164522,1,0,0:0:0:0:
319,228,164603,1,0,1:0:0:0:
334,170,164684,1,0,0:0:0:0:
373,126,164765,1,0,0:0:0:0:
430,111,164846,1,0,1:0:0:0:
486,129,164928,5,2,0:1:0:0:
459,77,165009,1,0,0:0:0:0:
408,48,165090,1,0,0:0:0:0:
349,51,165171,1,0,0:0:0:0:
308,91,165252,1,0,1:0:0:0:
256,121,165333,1,0,0:0:0:0:
198,125,165414,1,0,0:0:0:0:
140,114,165495,1,0,0:0:0:0:
100,76,165576,6,0,L|93:3,1,59.4999981842042,2|0,0:1|0:0,0:0:0:0:
31,187,165738,2,0,L|36:246,1,59.4999981842042,0|0,0:0|0:0,0:0:0:0:
138,373,165901,2,0,L|200:365,1,59.4999981842042,0|0,1:0|0:0,0:0:0:0:
265,219,166063,2,0,L|205:226,1,59.4999981842042,0|0,0:0|1:0,0:0:0:0:
358,331,166225,2,0,L|437:336,1,59.4999981842042,2|0,0:1|0:0,0:0:0:0:
489,183,166387,2,0,L|429:190,1,59.4999981842042,2|0,0:1|0:0,0:0:0:0:
323,63,166549,2,0,L|397:47,1,59.4999981842042,0|0,1:0|0:0,0:0:0:0:
276,299,166711,6,0,P|199:268|234:138,1,237.999992736817,4|2,0:0|0:1,0:0:0:0:
229,140,167117,1,0,0:0:0:0:
229,140,167198,1,0,1:0:0:0:
192,363,167360,1,0,0:0:0:0:
153,86,167522,1,2,0:1:0:0:
349,193,167684,1,0,0:0:0:0:
70,200,167847,1,0,1:0:0:0:
323,63,168009,6,0,B|372:76|414:51|414:51|400:88|433:125|433:125|410:158|435:210,1,237.999992736817,2|2,0:0|0:0,0:0:0:0:
309,263,168414,1,0,0:0:0:0:
309,263,168495,2,0,P|301:291|301:321,1,59.4999981842042,0|0,1:0|0:0,0:0:0:0:
176,316,168657,2,0,P|184:358|179:395,1,59.4999981842042,0|0,0:0|0:0,0:0:0:0:
70,200,168819,5,2,0:1:0:0:
309,263,168982,1,0,0:0:0:0:
309,263,169063,1,0,0:0:0:0:
309,263,169144,2,0,L|314:202,1,59.4999981842042,0|0,1:0|0:0,0:0:0:0:
231,59,169306,2,0,L|234:124,1,59.4999981842042,2|0,0:0|0:0,0:0:0:0:
480,182,169468,5,2,0:1:0:0:
400,349,169630,1,2,0:0:0:0:
343,367,169711,1,0,0:0:0:0:
283,367,169792,1,0,1:0:0:0:
227,342,169874,1,0,0:0:0:0:
199,287,169955,1,0,0:0:0:0:
207,229,170036,1,0,0:1:0:0:
238,178,170117,5,2,0:1:0:0:
233,118,170198,1,0,0:0:0:0:
195,71,170279,1,0,0:0:0:0:
138,52,170360,1,0,0:0:0:0:
79,63,170441,2,0,L|13:69,1,59.4999981842042,0|0,1:0|0:0,0:0:0:0:
6,215,170603,2,0,L|65:209,1,59.4999981842042,2|0,0:0|0:0,0:0:0:0:
92,334,170765,5,0,1:0:0:0:
92,334,170846,1,0,1:0:0:0:
92,334,170928,2,0,L|162:328,1,59.4999981842042,0|0,1:0|1:0,0:0:0:0:
244,245,171090,2,0,L|314:239,1,59.4999981842042,0|0,1:0|1:0,0:0:0:0:
511,44,171252,5,0,1:0:0:0:
511,44,171333,1,0,1:0:0:0:
511,44,171414,2,0,L|451:49,1,59.4999981842042,2|0,0:3|0:0,0:0:0:0:
244,245,171576,2,0,L|304:240,1,59.4999981842042,2|0,0:3|0:0,0:0:0:0:
409,135,171738,2,0,L|349:140,1,59.4999981842042,0|0,1:0|0:0,0:0:0:0:
171,328,171901,1,4,0:1:0:0:
256,192,171982,12,0,172711,0:0:0:0:
