osu file format v14

[General]
AudioFilename: audio.mp3
AudioLeadIn: 0
PreviewTime: -1
Countdown: 1
SampleSet: Soft
StackLeniency: 0.2
Mode: 0
LetterboxInBreaks: 0
WidescreenStoryboard: 0

[Editor]
Bookmarks: 23261,46533,69806,93079,119261,141079
DistanceSpacing: 0.2
BeatDivisor: 8
GridSize: 4
TimelineZoom: 1.7

[Metadata]
Title:Ameki Koe Zankyo
TitleUnicode:雨き声残響
Artist:Orangestar
ArtistUnicode:Orangestar
Creator:Shanipika
Version:Echo of my voice in the rain
Source:Vocaloid
Tags:IA
BeatmapID:1488477
BeatmapSetID:702076

[Difficulty]
HPDrainRate:6
CircleSize:7
OverallDifficulty:8
ApproachRate:9
SliderMultiplier:1.2
SliderTickRate:1

[Events]
//Background and Video events
0,0,"Ame_kikoe_zankyou.png",0,0
//Break Periods
//Storyboard Layer 0 (Background)
//Storyboard Layer 1 (Fail)
//Storyboard Layer 2 (Pass)
//Storyboard Layer 3 (Foreground)
//Storyboard Sound Samples

[TimingPoints]
17443,727.272727272727,4,2,1,10,1,0
18170,-100,4,2,1,20,0,0
18897,-100,4,2,1,10,0,0
19624,-100,4,2,1,20,0,0
20352,-100,4,2,1,25,0,0
23261,-200,4,2,1,30,0,0
24170,-200,4,2,1,5,0,0
24533,-100,4,2,1,30,0,0
29624,-66.6666666666667,4,2,1,30,0,0
46533,-58.8235294117647,4,2,1,30,0,0
47988,-58.8235294117647,4,2,1,35,0,1
48897,-58.8235294117647,4,2,1,50,0,1
49261,-58.8235294117647,4,2,1,30,0,1
50352,-58.8235294117647,4,2,1,50,0,1
50715,-58.8235294117647,4,2,1,35,0,1
51079,-58.8235294117647,4,2,1,50,0,1
51442,-58.8235294117647,4,2,1,35,0,1
51806,-58.8235294117647,4,2,1,50,0,1
52170,-58.8235294117647,4,2,1,35,0,1
52533,-58.8235294117647,4,2,1,50,0,1
52897,-50,4,2,1,35,0,1
53442,-50,4,2,1,50,0,1
53624,-58.8235294117647,4,2,1,35,0,1
54897,-58.8235294117647,4,2,1,55,0,1
55079,-58.8235294117647,4,2,1,35,0,1
55442,-58.8235294117647,4,2,1,60,0,1
55624,-58.8235294117647,4,2,1,35,0,1
56352,-58.8235294117647,4,2,1,50,0,1
56715,-58.8235294117647,4,2,1,35,0,1
57079,-58.8235294117647,4,2,1,50,0,1
57261,-58.8235294117647,4,2,1,35,0,1
57624,-58.8235294117647,4,2,1,50,0,1
57806,-58.8235294117647,4,2,1,35,0,1
58897,-58.8235294117647,4,2,1,50,0,1
59261,-58.8235294117647,4,2,1,35,0,1
59988,-58.8235294117647,4,2,1,50,0,1
60352,-58.8235294117647,4,2,1,35,0,1
60897,-58.8235294117647,4,2,1,60,0,1
61079,-58.8235294117647,4,2,1,50,0,1
61442,-58.8235294117647,4,2,1,35,0,1
62170,-58.8235294117647,4,2,1,50,0,1
63079,-58.8235294117647,4,2,1,35,0,1
63806,-58.8235294117647,4,2,1,35,0,1
64352,-58.8235294117647,4,2,1,60,0,1
64533,-58.8235294117647,4,2,1,40,0,1
64897,-58.8235294117647,4,2,1,35,0,1
65261,-58.8235294117647,4,2,1,30,0,1
65806,-58.8235294117647,4,2,1,60,0,1
65988,-58.8235294117647,4,2,1,40,0,1
66352,-58.8235294117647,4,2,1,35,0,1
66715,-58.8235294117647,4,2,1,30,0,1
67261,-58.8235294117647,4,2,1,60,0,1
67442,-58.8235294117647,4,2,1,40,0,1
69806,-58.8235294117647,4,2,1,30,0,0
71988,-58.8235294117647,4,2,1,20,0,0
72715,-58.8235294117647,4,2,1,30,0,0
73442,-58.8235294117647,4,2,1,20,0,0
74170,-58.8235294117647,4,2,1,30,0,0
74897,-58.8235294117647,4,2,1,20,0,0
76352,-58.8235294117647,4,2,1,30,0,0
80715,-58.8235294117647,4,2,1,20,0,0
81442,-58.8235294117647,4,2,1,30,0,0
83624,-58.8235294117647,4,2,1,20,0,0
84352,-58.8235294117647,4,2,1,30,0,0
85079,-58.8235294117647,4,2,1,20,0,0
85806,-58.8235294117647,4,2,1,30,0,0
86533,-58.8235294117647,4,2,1,20,0,0
87261,-58.8235294117647,4,2,1,30,0,0
90170,-58.8235294117647,4,2,1,20,0,0
90897,-58.8235294117647,4,2,1,30,0,0
91624,-58.8235294117647,4,2,1,20,0,0
94533,-58.8235294117647,4,2,1,40,0,0
118352,-58.8235294117647,4,2,1,60,0,1
119079,-58.8235294117647,4,2,1,40,0,1
120352,-58.8235294117647,4,2,1,60,0,1
120533,-58.8235294117647,4,2,1,40,0,1
121806,-58.8235294117647,4,2,1,60,0,1
121988,-58.8235294117647,4,2,1,40,0,1
122442,-58.8235294117647,4,2,1,60,0,1
122715,-58.8235294117647,4,2,1,40,0,1
123261,-58.8235294117647,4,2,1,60,0,1
123442,-58.8235294117647,4,2,1,40,0,1
123988,-58.8235294117647,4,2,1,60,0,1
124170,-58.8235294117647,4,2,1,40,0,1
124715,-58.8235294117647,4,2,1,60,0,1
124897,-58.8235294117647,4,2,1,40,0,1
126170,-58.8235294117647,4,2,1,60,0,1
126352,-58.8235294117647,4,2,1,40,0,1
126715,-58.8235294117647,4,2,1,60,0,1
126897,-58.8235294117647,4,2,1,40,0,1
127624,-58.8235294117647,4,2,1,60,0,1
127988,-58.8235294117647,4,2,1,40,0,1
128352,-58.8235294117647,4,2,1,60,0,1
128533,-58.8235294117647,4,2,1,40,0,1
128897,-58.8235294117647,4,2,1,60,0,1
129079,-58.8235294117647,4,2,1,40,0,1
130170,-58.8235294117647,4,2,1,60,0,1
130533,-58.8235294117647,4,2,1,40,0,1
131261,-58.8235294117647,4,2,1,60,0,1
131624,-58.8235294117647,4,2,1,40,0,1
132170,-58.8235294117647,4,2,1,60,0,1
132715,-58.8235294117647,4,2,1,40,0,1
133442,-58.8235294117647,4,2,1,60,0,1
134352,-58.8235294117647,4,2,1,40,0,1
135079,-58.8235294117647,4,2,1,45,0,1
135624,-58.8235294117647,4,2,1,60,0,1
135806,-58.8235294117647,4,2,1,55,0,1
136170,-58.8235294117647,4,2,1,50,0,1
136533,-58.8235294117647,4,2,1,45,0,1
137079,-58.8235294117647,4,2,1,60,0,1
137261,-58.8235294117647,4,2,1,55,0,1
137624,-58.8235294117647,4,2,1,50,0,1
137988,-58.8235294117647,4,2,1,45,0,1
138533,-58.8235294117647,4,2,1,60,0,1
138715,-58.8235294117647,4,2,1,55,0,1
139079,-58.8235294117647,4,2,1,50,0,1
139442,-58.8235294117647,4,2,1,45,0,1
141079,-58.8235294117647,4,2,1,50,0,0
145442,-50,4,2,1,55,0,1
168715,-58.8235294117647,4,2,1,50,0,0

[HitObjects]
312,165,17442,5,4,0:0:0:0:
338,171,18170,1,0,0:0:0:0:
364,178,18897,1,4,0:0:0:0:
390,184,19624,1,0,0:0:0:0:
416,191,20352,1,6,0:0:0:0:
416,191,23261,6,0,B|464:190|482:184|498:171|484:152|475:157,1,90
368,191,24533,1,0,0:0:0:0:
315,162,24715,1,2,0:0:0:0:
230,184,25261,1,0,0:0:0:0:
157,134,25443,1,2,0:0:0:0:
83,230,25988,5,0,0:0:0:0:
147,264,26170,1,2,0:0:0:0:
133,240,26352,1,0,0:0:0:0:
191,284,26533,1,0,0:0:0:0:
276,247,26715,2,0,P|287:232|282:215,1,30,2|0,0:0|0:0,0:0:0:0:
184,228,27079,5,2,0:0:0:0:
122,193,27261,1,0,0:0:0:0:
133,240,27442,1,0,0:0:0:0:
54,169,27624,1,2,0:0:0:0:
122,193,27806,1,0,0:0:0:0:
198,164,27988,1,0,0:0:0:0:
120,143,28170,1,0,0:0:0:0:
178,205,28352,1,2,0:0:0:0:
265,207,28533,1,0,0:0:0:0:
188,182,28715,1,0,0:0:0:0:
96,200,28897,2,0,B|46:229|58:247|77:238,1,60,2|0,0:0|0:0,0:0:0:0:
176,236,29442,5,0,0:0:0:0:
72,116,29624,2,0,B|52:119|42:134|60:146,1,45.0000017166138,2|0,0:0|0:0,0:0:0:0:
74,20,29988,1,2,0:0:0:0:
11,47,30170,1,0,0:0:0:0:
74,6,30352,1,0,0:0:0:0:
115,90,30533,1,2,0:0:0:0:
196,73,30715,1,0,0:0:0:0:
248,8,30897,1,0,0:0:0:0:
214,80,31079,2,0,B|240:104|259:91|252:80|244:88,1,45.0000017166138,2|0,0:0|0:0,0:0:0:0:
228,154,31442,1,0,0:0:0:0:
158,116,31624,5,0,0:0:0:0:
249,153,31806,2,0,B|283:154|294:143|287:134,1,45.0000017166138,2|0,0:0|0:0,0:0:0:0:
224,104,32170,1,0,0:0:0:0:
156,136,32352,1,0,0:0:0:0:
84,116,32534,2,0,B|52:102|47:88|57:83,1,45.0000017166138,2|0,0:0|0:0,0:0:0:0:
200,200,32897,1,2,0:0:0:0:
268,232,33079,5,0,0:0:0:0:
344,232,33261,2,0,B|377:218|382:204|372:199,1,45.0000017166138,2|0,0:0|0:0,0:0:0:0:
256,300,33624,1,0,0:0:0:0:
184,328,33806,1,0,0:0:0:0:
108,300,33988,1,0,0:0:0:0:
48,229,34170,2,0,B|43:229|48:215|72:196|84:204|76:212,1,45.0000017166138,2|0,0:0|0:0,0:0:0:0:
16,188,34533,1,2,0:0:0:0:
100,143,34715,6,0,B|143:132|144:113|129:106|116:101,1,45.0000017166138,2|0,0:0|0:0,0:0:0:0:
179,186,35079,2,0,B|190:228|209:230|216:215|221:202,1,45.0000017166138
154,104,35352,1,0,0:0:0:0:
135,119,35442,2,0,B|116:116|112:88|92:92|92:108|96:120,1,45.0000017166138,2|0,0:0|0:0,0:0:0:0:
61,173,35806,5,2,0:0:0:0:
179,186,35988,1,0,0:0:0:0:
165,66,36170,1,0,0:0:0:0:
211,147,36352,2,0,B|243:186|254:175|249:157,1,45.0000017166138,2|0,0:0|0:0,0:0:0:0:
115,199,36715,1,0,0:0:0:0:
255,116,36897,2,0,B|294:84|283:73|265:78,1,45.0000017166138,2|0,0:0|0:0,0:0:0:0:
231,227,37261,5,0,0:0:0:0:
349,240,37443,1,0,0:0:0:0:
335,120,37625,1,0,0:0:0:0:
225,206,37806,2,0,B|179:227|174:213|186:199,1,45.0000017166138,2|0,0:0|0:0,0:0:0:0:
106,154,38170,1,0,0:0:0:0:
244,254,38352,2,0,B|289:275|294:261|282:247,1,45.0000017166138,2|0,0:0|0:0,0:0:0:0:
189,269,38715,5,2,0:0:0:0:
138,235,38897,1,2,0:0:0:0:
131,178,39079,1,0,0:0:0:0:
201,248,39261,1,2,0:0:0:0:
294,243,39442,1,0,0:0:0:0:
155,172,39624,1,0,0:0:0:0:
252,76,39806,1,0,0:0:0:0:
364,37,39988,1,2,0:0:0:0:
432,96,40170,5,0,0:0:0:0:
344,112,40352,1,0,0:0:0:0:
252,76,40533,1,0,0:0:0:0:
118,128,40715,2,0,B|163:149|168:135|156:121,1,45.0000017166138,2|0,0:0|0:0,0:0:0:0:
49,70,41079,1,2,0:0:0:0:
206,165,41261,2,0,B|216:172|244:180|252:168|248:160|236:168,1,45.0000017166138,2|0,0:0|0:0,0:0:0:0:
250,229,41624,5,2,0:0:0:0:
151,205,41806,1,0,0:0:0:0:
206,165,41988,1,0,0:0:0:0:
206,165,42533,5,2,0:0:0:0:
286,114,42715,1,0,0:0:0:0:
286,114,43079,5,2,0:0:0:0:
294,187,43261,1,0,0:0:0:0:
343,246,43442,1,0,0:0:0:0:
343,246,43806,5,2,0:0:0:0:
402,161,43988,1,0,0:0:0:0:
489,129,44170,1,0,0:0:0:0:
489,129,44533,5,2,0:0:0:0:
412,117,44715,1,2,0:0:0:0:
337,77,44897,1,0,0:0:0:0:
393,73,45079,1,2,0:0:0:0:
356,124,45261,1,0,0:0:0:0:
288,120,45442,1,0,0:0:0:0:
171,144,45624,2,0,B|186:154|193:120|172:99,1,45.0000017166138,2|0,0:0|0:0,0:0:0:0:
96,104,45988,5,2,0:0:0:0:
104,188,46170,1,0,0:0:0:0:
145,261,46352,1,0,0:0:0:0:
145,261,46715,5,0,0:0:0:0:
47,234,46897,1,2,0:0:0:0:
146,208,47079,1,0,0:0:0:0:
49,187,47261,1,2,0:0:0:0:
146,226,47442,1,0,0:0:0:0:
46,253,47624,1,2,0:0:0:0:
143,293,47806,1,0,0:0:0:0:
39,326,47988,6,0,B|47:355|76:358|90:350|91:329|84:298|100:248|159:213,1,204.000003890991,6|0,0:0|0:0,0:0:0:0:
149,298,48897,1,0,0:0:0:0:
106,166,49079,1,0,0:0:0:0:
160,315,49261,6,0,B|168:344|197:347|211:339|212:318|205:287|221:237|281:213|281:213|324:197|334:162,1,255.000004863739,4|0,0:0|0:0,0:0:0:0:
352,79,50352,1,0,0:0:0:0:
193,130,50533,1,0,0:0:0:0:
368,124,50715,2,0,B|389:126|407:117|409:105|400:94,1,51.0000009727478
260,32,51079,5,0,0:0:0:0:
181,80,51261,1,0,0:0:0:0:
332,85,51382,1,0,0:0:0:0:
352,79,51442,2,0,B|371:71|384:56|381:44|368:38,1,51.0000009727478,2|0,0:0|0:0,0:0:0:0:
256,140,51806,5,0,0:0:0:0:
321,201,51988,1,0,0:0:0:0:
182,162,52170,2,0,B|165:148|159:129|166:119|180:118,1,51.0000009727478,2|0,0:0|0:0,0:0:0:0:
256,140,52533,5,0,0:0:0:0:
86,183,52715,1,0,0:0:0:0:
123,268,52897,2,0,B|131:297|160:300|174:292|175:271|157:237|164:216|188:216|196:224,1,120,2|0,0:0|0:0,0:0:0:0:
300,300,53442,1,0,0:0:0:0:
224,256,53624,2,0,B|206:241|273:213|340:243|337:268|346:337|401:356|432:344|412:320,1,255.000004863739,4|0,0:0|0:0,0:0:0:0:
246,331,54897,5,0,0:0:0:0:
82,213,55079,1,2,0:0:0:0:
71,267,55442,5,0,0:0:0:0:
236,146,55624,1,2,0:0:0:0:
236,146,55988,1,2,0:0:0:0:
236,146,56352,5,0,0:0:0:0:
320,254,56533,1,0,0:0:0:0:
430,191,56715,2,0,B|411:199|398:214|401:226|414:232,1,51.0000009727478,2|0,0:0|0:0,0:0:0:0:
464,342,57079,1,0,0:0:0:0:
330,307,57261,2,0,B|311:299|298:284|301:272|314:266,1,51.0000009727478,2|0,0:0|0:0,0:0:0:0:
407,363,57624,1,0,0:0:0:0:
265,319,57806,2,0,B|212:296|175:254|184:221|226:214|226:214|267:207|265:155,1,204.000003890991,4|0,0:0|0:0,0:0:0:0:
296,24,58897,6,0,B|288:26|285:38|298:53|317:61,1,51.0000009727478,2|0,0:0|0:0,0:0:0:0:
422,67,59261,2,0,B|436:71|442:95|416:125|378:141,1,102.000001945496,2|0,0:0|0:0,0:0:0:0:
381,140,59988,5,0,0:0:0:0:
494,89,60170,1,0,0:0:0:0:
324,115,60352,2,0,B|285:116|249:100|244:76|256:65,1,102.000001945496,4|0,0:0|0:0,0:0:0:0:
421,29,60897,1,0,0:0:0:0:
267,156,61079,1,2,0:0:0:0:
317,59,61261,1,0,0:0:0:0:
353,158,61442,2,0,B|352:173|372:187|410:173|436:144,1,102.000001945496
435,144,62170,5,0,0:0:0:0:
368,60,62352,1,0,0:0:0:0:
476,24,62533,1,2,0:0:0:0:
392,68,62715,1,0,0:0:0:0:
280,32,62897,1,0,0:0:0:0:
152,8,63079,6,0,B|144:10|141:22|154:37|173:45,1,51.0000009727478,2|0,0:0|0:0,0:0:0:0:
299,185,63442,2,0,B|305:179|303:167|284:159|265:160,1,51.0000009727478,2|0,0:0|0:0,0:0:0:0:
58,202,63806,2,0,B|36:204|21:248|15:274|67:252,1,102.000001945496,4|0,0:0|0:0,0:0:0:0:
210,100,64352,5,0,0:0:0:0:
136,240,64533,2,0,B|141:247|153:245|161:226|160:206,1,51.0000009727478,2|0,0:0|0:0,0:0:0:0:
176,76,64897,2,0,B|194:75|213:83|215:95|208:100,1,51.0000009727478,2|0,0:0|0:0,0:0:0:0:
339,231,65261,2,4,B|340:247|320:261|283:247|257:218,1,102.000001945496,6|0,0:0|0:0,0:0:0:0:
416,82,65806,5,0,0:0:0:0:
232,128,65988,2,0,B|224:110|223:91|233:83|241:87,1,51.0000009727478,2|0,0:0|0:0,0:0:0:0:
299,227,66351,2,0,B|281:235|262:236|254:226|258:218,1,51.0000009727478,2|0,0:0|0:0,0:0:0:0:
180,120,66715,2,0,B|169:107|145:111|129:148|130:186,1,102.000001945496,4|0,0:0|0:0,0:0:0:0:
224,312,67261,5,0,0:0:0:0:
67,211,67442,2,0,B|49:203|30:202|22:212|26:220,1,51.0000009727478,2|0,0:0|0:0,0:0:0:0:
60,344,67806,2,0,B|61:351|74:354|88:341|96:323,1,51.0000009727478,2|0,0:0|0:0,0:0:0:0:
221,141,68170,2,0,B|264:89|359:105|370:238|370:238|379:303|505:289,1,357.000006809235,4|0,0:0|0:0,0:0:0:0:
466,291,69988,5,0,0:0:0:0:
364,324,70170,1,2,0:0:0:0:
444,248,70352,1,0,0:0:0:0:
332,260,70533,1,2,0:0:0:0:
436,264,70715,1,0,0:0:0:0:
388,324,70897,1,2,0:0:0:0:
424,280,71079,1,0,0:0:0:0:
320,256,71261,5,2,0:0:0:0:
368,192,71988,1,4,0:0:0:0:
376,144,72715,1,2,0:0:0:0:
420,76,73442,1,4,0:0:0:0:
312,40,74170,1,2,0:0:0:0:
172,52,74897,1,4,0:0:0:0:
16,16,75624,5,2,0:0:0:0:
32,60,76352,1,0,0:0:0:0:
20,148,77079,1,2,0:0:0:0:
32,196,77806,1,0,0:0:0:0:
12,300,78533,5,2,0:0:0:0:
52,372,79261,1,0,0:0:0:0:
184,320,79988,1,2,0:0:0:0:
280,348,80715,1,4,0:0:0:0:
340,320,81442,5,0,0:0:0:0:
384,340,82170,1,0,0:0:0:0:
440,264,82897,1,2,0:0:0:0:
392,132,83624,1,4,0:0:0:0:
432,8,84352,5,2,0:0:0:0:
376,52,85079,1,4,0:0:0:0:
268,96,85806,1,2,0:0:0:0:
348,188,86533,1,4,0:0:0:0:
304,316,87261,5,2,0:0:0:0:
260,340,87988,1,0,0:0:0:0:
172,292,88715,1,2,0:0:0:0:
120,316,89442,1,0,0:0:0:0:
48,264,90170,5,2,0:0:0:0:
72,216,90897,1,2,0:0:0:0:
56,64,91624,1,6,0:0:0:0:
56,64,94533,5,6,0:0:0:0:
56,64,94897,2,0,B|96:81|131:57|103:28,1,76.5000014591217,2|0,0:0|0:0,0:0:0:0:
54,148,95261,1,0,1:0:0:0:
279,85,95624,2,0,B|318:67|354:92|326:120,1,76.5000014591217,2|0,0:0|0:0,0:0:0:0:
199,103,95988,2,0,B|196:65|207:52|242:63,1,51.0000009727478,0|0,1:0|0:0,0:0:0:0:
334,108,96352,2,0,B|371:114|385:104|377:68,1,51.0000009727478,2|0,0:0|0:0,0:0:0:0:
199,103,96715,2,0,B|192:140|202:154|238:146,1,51.0000009727478
332,220,97079,2,0,B|367:235|373:255|311:288|273:280|293:246|321:248,1,102.000001945496,4|0,0:0|0:0,0:0:0:0:
211,147,97806,6,0,B|194:106|153:98|152:139,1,76.5000014591217,2|0,0:0|0:0,0:0:0:0:
259,208,98170,1,0,1:0:0:0:
355,137,98352,1,2,0:0:0:0:
382,23,98533,2,0,B|398:-17|439:-25|440:15,1,76.5000014591217,2|0,0:0|0:0,0:0:0:0:
355,137,98897,2,0,B|324:157|303:157|301:133,1,51.0000009727478,0|0,1:0|0:0,0:0:0:0:
136,57,99261,2,0,B|104:76|95:95|116:107,1,51.0000009727478
203,325,99624,2,0,B|230:300|235:279|213:271,1,51.0000009727478,2|0,0:0|0:0,0:0:0:0:
206,152,99988,2,0,B|220:114|250:111|271:144|242:186|312:154,1,102.000001945496,4|0,0:0|0:0,0:0:0:0:
366,164,100715,5,0,0:0:0:0:
381,119,101079,1,0,0:0:0:0:
403,94,101442,1,0,0:0:0:0:
466,110,101624,5,0,0:0:0:0:
346,71,101806,2,0,B|296:63|295:41|315:30,1,51.0000009727478,4|0,1:2|0:0,0:0:0:0:
422,140,102170,1,0,0:0:0:0:
238,83,102352,2,0,B|188:75|164:43|185:19|204:19|200:60,1,102.000001945496,2|0,0:0|0:0,0:0:0:0:
177,165,102897,1,0,0:0:0:0:
79,215,103079,2,0,B|35:242|26:208|48:177,1,51.0000009727478,4|0,0:0|0:0,0:0:0:0:
177,165,103442,2,0,B|209:197|243:174|212:146,1,51.0000009727478
319,93,103806,5,0,1:0:0:0:
415,101,103988,2,0,B|465:113|468:139|439:154,1,51.0000009727478,2|0,0:0|0:0,0:0:0:0:
322,168,104352,1,0,0:0:0:0:
255,152,104533,1,0,0:0:0:0:
201,100,104715,1,0,1:0:0:0:
306,66,104897,5,2,0:0:0:0:
255,152,105079,1,0,0:0:0:0:
157,191,105261,1,2,0:0:0:0:
153,300,105442,1,0,1:0:0:0:
212,319,105624,1,2,0:0:0:0:
212,204,105806,1,0,0:0:0:0:
281,114,105988,1,4,2:0:0:0:
306,66,106897,6,0,B|332:96|364:92|380:72|363:54,1,76.5000014591217
213,80,107261,2,0,B|183:106|187:138|207:154|225:137,1,76.5000014591217,2|0,0:0|0:0,0:0:0:0:
160,73,107624,2,0,B|134:43|102:47|86:67|103:85,1,76.5000014591217,0|0,1:0|0:0,0:0:0:0:
80,197,107988,1,0,0:0:0:0:
196,226,108170,1,0,0:0:0:0:
345,181,108352,2,0,B|319:151|287:155|271:175|288:193,1,76.5000014591217,2|0,0:0|0:0,0:0:0:0:
424,235,108715,1,0,1:0:0:0:
388,310,108897,1,0,0:0:0:0:
372,327,109261,1,0,0:0:0:0:
350,339,109624,1,2,0:0:0:0:
319,331,109988,5,0,1:0:0:0:
444,332,110170,2,0,B|460:328|427:300|405:290|390:295|384:317,1,76.5000014591217,4|0,0:0|0:0,0:0:0:0:
256,356,110533,1,0,1:0:0:0:
167,334,110715,1,2,0:0:0:0:
96,274,110897,1,0,0:0:0:0:
61,139,111079,1,0,0:0:0:0:
135,257,111261,1,0,1:2:0:0:
171,268,111442,1,0,0:0:0:0:
82,198,111624,1,2,0:0:0:0:
267,279,111806,2,0,B|302:289|330:277|333:267|319:237,1,76.5000014591217,4|0,0:0|0:0,0:0:0:0:
190,240,112170,5,0,1:0:0:0:
132,175,112352,1,2,0:0:0:0:
112,81,112533,1,0,0:0:0:0:
109,35,112897,1,0,1:0:0:0:
162,121,113079,1,0,0:0:0:0:
246,157,113261,1,2,0:0:0:0:
246,157,113806,5,2,0:0:0:0:
395,120,113988,1,0,0:0:0:0:
494,21,114170,2,0,B|488:4|462:30|449:37|443:59|464:75|473:70,1,76.5000014591217,2|0,0:0|0:0,0:0:0:0:
486,81,114533,1,2,0:0:0:0:
309,37,114715,1,0,0:0:0:0:
283,46,115079,1,2,0:0:0:0:
402,75,115261,1,0,0:0:0:0:
384,152,116171,5,0,1:0:0:0:
311,207,116352,1,2,0:0:0:0:
217,224,116533,1,2,0:0:0:0:
127,197,116716,1,0,0:0:0:0:
102,186,117806,6,0,B|106:143|126:116|162:108|190:103|182:145,1,127.50000243187
155,229,118352,2,0,B|195:223|204:208|199:180|199:178,1,76.5000014591217,4|0,0:0|0:0,0:0:0:0:
147,67,118715,1,0,1:0:0:0:
199,179,118897,1,0,0:0:0:0:
260,280,119079,2,0,B|293:318|333:318|366:304|338:259|280:175|405:187|461:214|419:254|393:264,1,255.000004863739,4|0,0:0|0:0,0:0:0:0:
249,121,120352,1,0,0:0:0:0:
108,132,120533,2,0,B|76:184|92:232|80:240|192:228|228:168|212:112|232:96,1,280.500005350113,4|0,0:0|0:0,0:0:0:0:
424,20,121806,5,0,0:0:0:0:
485,181,121988,2,0,B|516:194|472:224|432:204|456:156|424:152,1,102.000001945496,2|0,0:0|0:0,0:0:0:0:
248,32,122473,1,0,0:0:0:0:
224,27,122533,1,0,1:0:0:0:
128,176,122715,2,0,B|97:189|141:219|181:199|157:151|189:147,1,102.000001945496,2|0,0:0|0:0,0:0:0:0:
304,88,123261,1,0,0:0:0:0:
384,224,123442,2,0,B|415:237|371:267|331:247|355:199|323:195,1,102.000001945496,2|0,0:0|0:0,0:0:0:0:
196,124,123988,1,0,1:0:0:0:
100,276,124170,2,0,B|69:289|113:319|153:299|129:251|161:247,1,102.000001945496,2|0,0:0|0:0,0:0:0:0:
298,115,124715,1,0,0:0:0:0:
440,244,124897,2,0,B|490:265|472:313|437:306|377:283|373:224|404:175|366:130|335:147,1,255.000004863739,4|2,0:0|0:0,0:0:0:0:
95,288,126170,5,0,0:0:0:0:
291,144,126352,1,2,0:0:0:0:
270,201,126715,1,0,0:0:0:0:
164,36,126897,1,2,0:0:0:0:
164,36,127261,1,0,1:0:0:0:
164,36,127624,5,0,0:0:0:0:
290,148,127806,1,0,0:0:0:0:
377,38,127988,2,0,B|368:28|341:46|336:66|347:78|349:78,1,51.0000009727478,2|0,0:0|0:0,0:0:0:0:
351,215,128352,1,0,0:0:0:0:
471,171,128533,2,0,B|507:163|512:143|501:131|499:131,1,51.0000009727478,2|0,0:0|0:0,0:0:0:0:
289,219,128897,1,0,1:0:0:0:
424,138,129079,2,0,B|460:108|446:61|333:74|431:220|332:216,1,204.000003890991,4|0,0:0|0:0,0:0:0:0:
305,179,130170,6,0,B|332:172|338:135|315:130|305:140,1,51.0000009727478,2|0,0:0|0:0,0:0:0:0:
302,218,130533,2,0,B|342:204|356:140|322:120|305:153,1,102.000001945496,2|0,0:0|1:0,0:0:0:0:
269,298,131261,5,0,0:0:0:0:
389,271,131442,1,0,0:0:0:0:
440,151,131624,2,0,B|455:119|402:117|425:185|379:187,1,102.000001945496,4|0,0:0|0:0,0:0:0:0:
319,132,132170,1,0,0:0:0:0:
408,298,132352,1,2,0:0:0:0:
452,205,132533,1,0,0:0:0:0:
350,271,132715,2,0,B|324:330|328:380|388:345|365:330,1,102.000001945496,0|0,0:0|1:0,0:0:0:0:
283,282,133442,5,0,0:0:0:0:
181,347,133624,1,0,0:0:0:0:
152,218,133806,1,2,0:0:0:0:
208,340,133988,1,0,0:0:0:0:
85,305,134170,1,0,0:0:0:0:
52,172,134352,2,0,B|53:129|69:122|88:148,1,51.0000009727478,2|0,0:0|0:0,0:0:0:0:
145,282,134715,2,0,B|149:294|165:287|166:244,1,51.0000009727478,2|0,0:0|0:0,0:0:0:0:
48,346,135079,2,0,B|32:366|62:384|134:336,1,102.000001945496,4|0,0:0|0:0,0:0:0:0:
248,140,135624,5,0,1:0:0:0:
168,320,135806,2,0,B|131:297|133:280|165:276,1,51.0000009727478,2|0,0:0|0:0,0:0:0:0:
334,292,136170,2,0,B|346:289|348:306|311:329,1,51.0000009727478,2|0,0:0|0:0,0:0:0:0:
138,231,136533,2,0,B|154:208|179:211|186:259|163:285|215:282,1,102.000001945496,4|0,0:0|0:0,0:0:0:0:
348,330,137079,1,0,1:0:0:0:
240,246,137261,2,0,B|213:225|211:208|228:209,1,51.0000009727478,2|0,0:0|0:0,0:0:0:0:
333,282,137564,1,0,0:0:0:0:
352,284,137624,2,0,B|366:284|364:267|337:246,1,51.0000009727478,2|0,0:0|0:0,0:0:0:0:
171,182,137988,2,4,B|120:156|162:133|204:175|225:160|233:145,1,102.000001945496,4|0,0:0|0:0,0:0:0:0:
411,94,138533,5,0,1:0:0:0:
200,111,138715,2,0,B|185:103|187:86|216:90|228:104,1,51.0000009727478,2|0,0:0|0:0,0:0:0:0:
336,204,139079,2,0,B|344:208|373:212|375:195|360:187,1,51.0000009727478,2|0,0:0|0:0,0:0:0:0:
192,229,139442,2,0,B|151:253|76:244|120:356|168:372|232:352|212:268,1,255.000004863739,4|0,0:0|0:0,0:0:0:0:
256,192,142533,12,4,143988,1:2:0:0:
144,20,145442,5,4,1:0:0:0:
300,48,145806,1,2,0:0:0:0:
420,12,146170,1,4,1:0:0:0:
352,124,146533,1,4,0:0:0:0:
464,228,146897,5,2,1:2:0:0:
376,204,147079,1,0,3:0:0:0:
468,248,147261,1,8,0:3:0:0:
308,308,147533,6,0,L|284:316,2,15,0|0|2,0:0|0:0|0:0,0:0:0:0:
416,236,147806,1,2,0:0:0:0:
452,104,147988,1,4,0:1:0:0:
500,168,148170,1,0,3:0:0:0:
368,88,148352,5,4,1:0:0:0:
208,104,148715,1,0,3:0:0:0:
24,68,149079,1,4,1:0:0:0:
68,228,149442,5,0,3:0:0:0:
0,176,149624,1,0,3:3:0:0:
88,216,149806,1,0,1:0:0:0:
4,256,149988,1,8,0:3:0:0:
180,204,150170,1,4,1:0:0:0:
260,56,150533,5,0,3:0:0:0:
168,28,150715,1,8,0:3:0:0:
288,176,150897,1,4,1:0:0:0:
360,120,151079,1,0,3:0:0:0:
172,204,151261,5,4,1:0:0:0:
172,204,151624,1,0,0:0:0:0:
40,332,151988,2,0,B|20:340|12:368|80:376|128:232,1,180,4|0,1:0|0:0,0:0:0:0:
152,88,152715,5,4,1:0:0:0:
88,152,152897,1,0,3:0:0:0:
172,100,153079,1,8,0:3:0:0:
280,28,153352,6,0,L|304:20,2,15,0|0|2,0:0|0:0|0:0,0:0:0:0:
172,100,153625,1,2,0:0:0:0:
136,232,153807,1,4,0:1:0:0:
40,208,153988,1,0,3:0:0:0:
228,240,154170,1,4,1:0:0:0:
356,348,154533,5,0,3:0:0:0:
492,232,154897,1,0,1:0:0:0:
404,88,155261,1,0,3:0:0:0:
464,136,155442,1,0,3:0:0:0:
376,96,155624,1,4,1:0:0:0:
472,28,155806,1,8,0:3:0:0:
240,96,155988,6,0,B|184:120|156:108|164:76|192:72,1,90,4|0,1:2|0:0,0:0:0:0:
292,8,156352,1,8,0:3:0:0:
136,160,156533,2,0,B|80:184|52:172|60:140|88:136,1,90,4|0,1:2|0:0,0:0:0:0:
244,48,156897,1,8,0:3:0:0:
88,220,157079,5,4,1:0:0:0:
188,160,157442,1,0,3:0:0:0:
328,168,157806,1,0,1:0:0:0:
480,280,158170,5,0,3:0:0:0:
388,308,158352,1,0,3:0:0:0:
472,72,158533,1,0,1:0:0:0:
496,164,158715,1,8,0:3:0:0:
440,72,158897,1,0,1:0:0:0:
280,36,159170,6,0,L|260:32,2,15,0|0|2,0:0|0:0|0:0,0:0:0:0:
392,144,159442,1,2,0:0:0:0:
408,292,159624,1,4,0:1:0:0:
464,232,159806,1,8,0:3:0:0:
244,280,159988,1,4,1:2:0:0:
100,168,160352,5,0,1:0:0:0:
288,44,160715,1,4,1:2:0:0:
96,144,161079,5,4,3:1:0:0:
144,56,161261,1,0,3:0:0:0:
120,168,161442,1,0,1:0:0:0:
28,104,161624,1,8,0:3:0:0:
232,200,161806,6,0,B|288:224|316:212|308:180|280:176,1,90,4|0,1:2|0:0,0:0:0:0:
104,128,162170,1,8,0:3:0:0:
320,284,162352,2,0,B|376:308|404:296|396:264|368:260,1,90,4|0,1:2|0:0,0:0:0:0:
132,168,162715,1,8,0:3:0:0:
356,224,162897,5,4,1:2:0:0:
372,168,163261,1,0,3:0:0:0:
296,16,163624,1,0,1:0:0:0:
236,32,163988,5,0,3:0:0:0:
344,32,164170,1,0,3:0:0:0:
152,84,164352,1,0,1:0:0:0:
220,40,164533,1,8,0:3:0:0:
132,40,164715,1,0,0:0:0:0:
316,136,165079,5,0,1:0:0:0:
392,128,165624,1,0,3:0:0:0:
196,200,165806,1,0,1:0:0:0:
132,192,166170,1,0,3:0:0:0:
312,284,166533,1,0,1:0:0:0:
312,288,166897,5,0,3:0:0:0:
224,272,167079,1,0,1:0:0:0:
456,184,167261,1,0,1:0:0:0:
496,252,167442,1,8,0:3:0:0:
416,212,167624,1,0,3:0:0:0:
448,16,167988,5,8,0:3:0:0:
392,52,168170,1,0,3:0:0:0:
184,20,168533,1,0,1:3:0:0:
256,192,169079,12,0,170170,0:1:0:0:
