osu file format v14

[General]
AudioFilename: audio.mp3
AudioLeadIn: 0
PreviewTime: 61508
Countdown: 0
SampleSet: Soft
StackLeniency: 0.7
Mode: 3
LetterboxInBreaks: 0
SpecialStyle: 0
WidescreenStoryboard: 1

[Editor]
DistanceSpacing: 1
BeatDivisor: 4
GridSize: 4
TimelineZoom: 1.8

[Metadata]
Title:Soramimi Cake (TV Size)
TitleUnicode:空耳ケーキ (TV Size)
Artist:Oranges & Lemons
ArtistUnicode:Oranges & Lemons
Creator:Lumpita
Version:Sillot's Hard
Source:あずまんが大王
Tags:sillot anime japanese pop jpop j-pop op opening get real osaka osaker ayumu kasuga chiyo mihama sakaki tomo takino koyomi mizuhara kagura kaori yukari tanizaki minamo kurosawa maya masumi itō ito 伊藤 真澄 yōko ueno yoko 上野 洋子 azumanga daioh azumanga-daioh ost original soundtrack series lu la tea for you of mishearing LACA-5123 tribute to the animation volume 1 vol.1 LACA-5111
BeatmapID:4460379
BeatmapSetID:2119483

[Difficulty]
HPDrainRate:7.5
CircleSize:4
OverallDifficulty:7.5
ApproachRate:5
SliderMultiplier:1.4
SliderTickRate:1

[Events]
//Background and Video events
0,0,"bg.jpg",0,0
Video,534,"video.avi"
//Break Periods
//Storyboard Layer 0 (Background)
//Storyboard Layer 1 (Fail)
//Storyboard Layer 2 (Pass)
//Storyboard Layer 3 (Foreground)
//Storyboard Layer 4 (Overlay)
//Storyboard Sound Samples

[TimingPoints]
1064,444.444444444444,4,2,1,70,1,0
61508,444.444444444444,7,2,1,70,1,0
70841,444.444444444444,4,2,1,70,1,0
74396,444.444444444444,7,2,1,70,1,0
83729,444.444444444444,4,2,1,70,1,0
87284,444.444444444444,7,2,1,70,1,0

[HitObjects]
64,192,1064,5,0,0:0:0:0:
448,192,1064,1,0,0:0:0:0:
320,192,1175,1,0,0:0:0:0:
192,192,1286,1,0,0:0:0:0:
64,192,1508,1,0,0:0:0:0:
448,192,1508,1,0,0:0:0:0:
192,192,1619,1,0,0:0:0:0:
320,192,1730,1,0,0:0:0:0:
320,192,1952,1,0,0:0:0:0:
448,192,1952,1,0,0:0:0:0:
192,192,2063,1,0,0:0:0:0:
64,192,2175,1,0,0:0:0:0:
192,192,2397,1,0,0:0:0:0:
64,192,2397,1,0,0:0:0:0:
320,192,2508,1,0,0:0:0:0:
448,192,2619,1,0,0:0:0:0:
192,192,2841,1,0,0:0:0:0:
320,192,2841,1,0,0:0:0:0:
64,192,2952,1,0,0:0:0:0:
448,192,3063,1,0,0:0:0:0:
192,192,3286,1,0,0:0:0:0:
320,192,3286,1,0,0:0:0:0:
448,192,3397,1,0,0:0:0:0:
64,192,3508,1,0,0:0:0:0:
192,192,3730,1,0,0:0:0:0:
64,192,3841,1,0,0:0:0:0:
320,192,3952,128,0,4397:0:0:0:0:
448,192,3952,128,0,4397:0:0:0:0:
64,192,4619,1,0,0:0:0:0:
192,192,4619,128,0,4841:0:0:0:0:
320,192,4841,1,0,0:0:0:0:
64,192,5063,1,0,0:0:0:0:
448,192,5063,1,0,0:0:0:0:
320,192,5286,128,0,5508:0:0:0:0:
64,192,5508,128,0,5730:0:0:0:0:
448,192,5508,1,0,0:0:0:0:
192,192,5730,1,0,0:0:0:0:
320,192,5841,1,0,0:0:0:0:
448,192,5952,1,0,0:0:0:0:
64,192,5952,1,0,0:0:0:0:
192,192,6175,128,0,6397:0:0:0:0:
64,192,6397,128,0,6619:0:0:0:0:
448,192,6397,1,0,0:0:0:0:
320,192,6619,128,0,6841:0:0:0:0:
448,192,6841,128,0,7063:0:0:0:0:
64,192,6841,1,0,0:0:0:0:
192,192,7063,128,0,7286:0:0:0:0:
320,192,7286,128,0,7508:0:0:0:0:
448,192,7286,1,0,0:0:0:0:
64,192,7508,128,0,7730:0:0:0:0:
448,192,7730,128,0,7952:0:0:0:0:
192,192,7730,1,0,0:0:0:0:
320,192,7952,128,0,8175:0:0:0:0:
192,192,8175,128,0,8397:0:0:0:0:
64,192,8175,1,0,0:0:0:0:
448,192,8397,1,0,0:0:0:0:
320,192,8508,1,0,0:0:0:0:
64,192,8619,1,0,0:0:0:0:
192,192,8619,1,0,0:0:0:0:
448,192,8841,128,0,9063:0:0:0:0:
64,192,9063,128,0,9286:0:0:0:0:
192,192,9063,1,0,0:0:0:0:
320,192,9286,1,0,0:0:0:0:
448,192,9397,1,0,0:0:0:0:
192,192,9508,1,0,0:0:0:0:
64,192,9508,1,0,0:0:0:0:
320,192,9730,128,0,9952:0:0:0:0:
192,192,9952,128,0,10175:0:0:0:0:
448,192,9952,1,0,0:0:0:0:
64,192,10175,128,0,10397:0:0:0:0:
320,192,10397,128,0,10619:0:0:0:0:
192,192,10397,1,0,0:0:0:0:
448,192,10619,128,0,10841:0:0:0:0:
192,192,10841,128,0,11063:0:0:0:0:
64,192,10841,1,0,0:0:0:0:
320,192,11063,128,0,11286:0:0:0:0:
64,192,11286,1,0,0:0:0:0:
192,192,11286,1,0,0:0:0:0:
320,192,11508,1,0,0:0:0:0:
448,192,11508,1,0,0:0:0:0:
192,192,11730,1,0,0:0:0:0:
64,192,11730,128,0,11952:0:0:0:0:
320,192,11952,1,0,0:0:0:0:
448,192,12063,1,0,0:0:0:0:
192,192,12175,1,0,0:0:0:0:
64,192,12175,1,0,0:0:0:0:
320,192,12397,128,0,12619:0:0:0:0:
448,192,12619,128,0,12841:0:0:0:0:
192,192,12619,1,0,0:0:0:0:
64,192,12841,1,0,0:0:0:0:
192,192,12952,1,0,0:0:0:0:
320,192,13063,1,0,0:0:0:0:
448,192,13063,1,0,0:0:0:0:
192,192,13286,128,0,13508:0:0:0:0:
64,192,13508,128,0,13730:0:0:0:0:
320,192,13508,1,0,0:0:0:0:
448,192,13730,128,0,13952:0:0:0:0:
192,192,13952,1,0,0:0:0:0:
320,192,13952,128,0,14175:0:0:0:0:
64,192,14175,128,0,14397:0:0:0:0:
192,192,14397,128,0,14841:0:0:0:0:
448,192,14397,1,0,0:0:0:0:
320,192,14619,1,0,0:0:0:0:
64,192,14841,128,0,15063:0:0:0:0:
448,192,14841,1,0,0:0:0:0:
320,192,15063,128,0,15286:0:0:0:0:
192,192,15286,1,0,0:0:0:0:
64,192,15286,1,0,0:0:0:0:
448,192,15508,1,0,0:0:0:0:
320,192,15619,1,0,0:0:0:0:
64,192,15730,1,0,0:0:0:0:
192,192,15730,1,0,0:0:0:0:
448,192,15952,128,0,16175:0:0:0:0:
64,192,16175,128,0,16397:0:0:0:0:
320,192,16175,1,0,0:0:0:0:
192,192,16397,1,0,0:0:0:0:
320,192,16508,1,0,0:0:0:0:
448,192,16619,1,0,0:0:0:0:
64,192,16619,1,0,0:0:0:0:
192,192,16841,128,0,17063:0:0:0:0:
320,192,17063,128,0,17286:0:0:0:0:
64,192,17063,1,0,0:0:0:0:
448,192,17286,128,0,17508:0:0:0:0:
192,192,17508,128,0,17730:0:0:0:0:
320,192,17508,1,0,0:0:0:0:
64,192,17730,128,0,17952:0:0:0:0:
320,192,17952,128,0,18175:0:0:0:0:
448,192,17952,1,0,0:0:0:0:
64,192,18175,128,0,18619:0:0:0:0:
192,192,18175,128,0,18619:0:0:0:0:
320,192,18619,1,0,0:0:0:0:
64,192,18841,1,0,0:0:0:0:
448,192,18841,128,0,19063:0:0:0:0:
320,192,19063,1,0,0:0:0:0:
192,192,19286,128,0,19508:0:0:0:0:
64,192,19286,1,0,0:0:0:0:
320,192,19508,128,0,19730:0:0:0:0:
448,192,19730,128,0,19952:0:0:0:0:
64,192,19730,1,0,0:0:0:0:
192,192,19952,1,0,0:0:0:0:
64,192,20175,128,0,20397:0:0:0:0:
320,192,20175,1,0,0:0:0:0:
192,192,20397,128,0,20619:0:0:0:0:
448,192,20397,1,0,0:0:0:0:
320,192,20619,128,0,20841:0:0:0:0:
64,192,20619,1,0,0:0:0:0:
192,192,20841,128,0,21063:0:0:0:0:
448,192,21063,128,0,21286:0:0:0:0:
64,192,21063,1,0,0:0:0:0:
320,192,21286,128,0,21508:0:0:0:0:
192,192,21508,128,0,21730:0:0:0:0:
64,192,21508,1,0,0:0:0:0:
448,192,21730,128,0,21952:0:0:0:0:
64,192,21952,1,0,0:0:0:0:
192,192,21952,1,0,0:0:0:0:
320,192,22063,1,0,0:0:0:0:
64,192,22175,1,0,0:0:0:0:
448,192,22175,1,0,0:0:0:0:
448,192,22397,1,0,0:0:0:0:
192,192,22397,128,0,22619:0:0:0:0:
320,192,22619,1,0,0:0:0:0:
64,192,22730,1,0,0:0:0:0:
192,192,22841,1,0,0:0:0:0:
448,192,22841,128,0,23063:0:0:0:0:
64,192,23063,128,0,23286:0:0:0:0:
192,192,23286,128,0,23508:0:0:0:0:
448,192,23286,1,0,0:0:0:0:
320,192,23508,128,0,23730:0:0:0:0:
64,192,23730,128,0,23952:0:0:0:0:
448,192,23730,1,0,0:0:0:0:
320,192,23952,128,0,24175:0:0:0:0:
192,192,23952,1,0,0:0:0:0:
448,192,24175,128,0,24619:0:0:0:0:
64,192,24175,1,0,0:0:0:0:
320,192,24619,1,0,0:0:0:0:
192,192,24619,128,0,25063:0:0:0:0:
320,192,25063,128,0,25508:0:0:0:0:
448,192,25063,1,0,0:0:0:0:
64,192,25508,128,0,25952:0:0:0:0:
192,192,25508,1,0,0:0:0:0:
448,192,25952,1,0,0:0:0:0:
320,192,25952,128,0,26175:0:0:0:0:
64,192,26175,1,0,0:0:0:0:
192,192,26175,1,0,0:0:0:0:
448,192,26397,1,0,0:0:0:0:
64,192,26397,128,0,26619:0:0:0:0:
192,192,26619,128,0,26841:0:0:0:0:
448,192,26841,128,0,27063:0:0:0:0:
320,192,26841,1,0,0:0:0:0:
192,192,27063,1,0,0:0:0:0:
64,192,27063,1,0,0:0:0:0:
448,192,27286,1,0,0:0:0:0:
64,192,27286,1,0,0:0:0:0:
320,192,27508,128,0,27730:0:0:0:0:
64,192,27730,128,0,28175:0:0:0:0:
448,192,27730,1,0,0:0:0:0:
192,192,27952,1,0,0:0:0:0:
320,192,27952,1,0,0:0:0:0:
448,192,28175,128,0,28397:0:0:0:0:
320,192,28175,1,0,0:0:0:0:
192,192,28397,128,0,28619:0:0:0:0:
320,192,28619,128,0,28952:0:0:0:0:
64,192,28619,1,0,0:0:0:0:
448,192,28841,1,0,0:0:0:0:
192,192,28952,128,0,29286:0:0:0:0:
448,192,29063,1,0,0:0:0:0:
320,192,29063,1,0,0:0:0:0:
64,192,29286,128,0,29508:0:0:0:0:
448,192,29508,128,0,29952:0:0:0:0:
320,192,29508,1,0,0:0:0:0:
192,192,29730,1,0,0:0:0:0:
320,192,29952,1,0,0:0:0:0:
64,192,29952,1,0,0:0:0:0:
192,192,30175,1,0,0:0:0:0:
320,192,30397,128,0,30841:0:0:0:0:
64,192,30397,1,0,0:0:0:0:
448,192,30619,1,0,0:0:0:0:
192,192,30841,1,0,0:0:0:0:
64,192,30841,1,0,0:0:0:0:
320,192,31063,1,0,0:0:0:0:
192,192,31286,128,0,31730:0:0:0:0:
64,192,31286,1,0,0:0:0:0:
448,192,31730,128,0,32175:0:0:0:0:
320,192,31730,1,0,0:0:0:0:
64,192,32175,128,0,32397:0:0:0:0:
320,192,32397,1,0,0:0:0:0:
448,192,32397,1,0,0:0:0:0:
64,192,32619,1,0,0:0:0:0:
448,192,32619,1,0,0:0:0:0:
64,192,32841,1,0,0:0:0:0:
192,192,32841,1,0,0:0:0:0:
448,192,33063,1,0,0:0:0:0:
320,192,33063,128,0,33286:0:0:0:0:
192,192,33286,1,0,0:0:0:0:
448,192,33508,1,0,0:0:0:0:
64,192,33508,1,0,0:0:0:0:
192,192,33730,128,0,33952:0:0:0:0:
448,192,33952,128,0,34175:0:0:0:0:
64,192,33952,1,0,0:0:0:0:
320,192,34175,1,0,0:0:0:0:
192,192,34286,1,0,0:0:0:0:
64,192,34397,1,0,0:0:0:0:
448,192,34397,1,0,0:0:0:0:
320,192,34619,128,0,34841:0:0:0:0:
448,192,34841,128,0,35063:0:0:0:0:
64,192,34841,1,0,0:0:0:0:
192,192,35063,128,0,35286:0:0:0:0:
448,192,35286,1,0,0:0:0:0:
64,192,35286,128,0,35508:0:0:0:0:
320,192,35508,128,0,35730:0:0:0:0:
64,192,35730,1,0,0:0:0:0:
192,192,35730,128,0,35952:0:0:0:0:
448,192,35952,128,0,36175:0:0:0:0:
64,192,36175,128,0,36397:0:0:0:0:
320,192,36175,1,0,0:0:0:0:
192,192,36397,128,0,36619:0:0:0:0:
320,192,36619,128,0,36841:0:0:0:0:
448,192,36619,1,0,0:0:0:0:
64,192,36841,1,0,0:0:0:0:
192,192,36952,1,0,0:0:0:0:
448,192,37063,1,0,0:0:0:0:
320,192,37063,1,0,0:0:0:0:
64,192,37286,128,0,37508:0:0:0:0:
448,192,37508,128,0,37730:0:0:0:0:
320,192,37508,1,0,0:0:0:0:
192,192,37730,1,0,0:0:0:0:
64,192,37841,1,0,0:0:0:0:
320,192,37952,1,0,0:0:0:0:
448,192,37952,1,0,0:0:0:0:
192,192,38175,128,0,38397:0:0:0:0:
320,192,38397,128,0,38619:0:0:0:0:
64,192,38397,1,0,0:0:0:0:
448,192,38619,128,0,38841:0:0:0:0:
192,192,38841,128,0,39063:0:0:0:0:
320,192,38841,1,0,0:0:0:0:
64,192,39063,128,0,39286:0:0:0:0:
448,192,39286,1,0,0:0:0:0:
320,192,39286,128,0,39508:0:0:0:0:
192,192,39508,128,0,39730:0:0:0:0:
448,192,39730,1,0,0:0:0:0:
320,192,39730,1,0,0:0:0:0:
192,192,39952,1,0,0:0:0:0:
64,192,39952,1,0,0:0:0:0:
320,192,40175,1,0,0:0:0:0:
448,192,40175,128,0,40397:0:0:0:0:
192,192,40397,1,0,0:0:0:0:
64,192,40508,1,0,0:0:0:0:
320,192,40619,1,0,0:0:0:0:
448,192,40619,1,0,0:0:0:0:
192,192,40841,128,0,41063:0:0:0:0:
64,192,41063,128,0,41286:0:0:0:0:
320,192,41063,1,0,0:0:0:0:
448,192,41286,1,0,0:0:0:0:
320,192,41397,1,0,0:0:0:0:
192,192,41508,1,0,0:0:0:0:
64,192,41508,1,0,0:0:0:0:
320,192,41730,128,0,41952:0:0:0:0:
192,192,41952,1,0,0:0:0:0:
448,192,41952,128,0,42175:0:0:0:0:
64,192,42175,128,0,42397:0:0:0:0:
320,192,42397,1,0,0:0:0:0:
192,192,42397,128,0,42619:0:0:0:0:
448,192,42619,128,0,42841:0:0:0:0:
320,192,42841,128,0,43286:0:0:0:0:
64,192,42841,1,0,0:0:0:0:
192,192,43063,1,0,0:0:0:0:
64,192,43286,1,0,0:0:0:0:
448,192,43286,1,0,0:0:0:0:
320,192,43508,1,0,0:0:0:0:
448,192,43508,1,0,0:0:0:0:
64,192,43730,1,0,0:0:0:0:
320,192,43730,1,0,0:0:0:0:
192,192,43952,1,0,0:0:0:0:
320,192,44063,1,0,0:0:0:0:
64,192,44175,1,0,0:0:0:0:
448,192,44175,1,0,0:0:0:0:
192,192,44397,128,0,44619:0:0:0:0:
448,192,44619,128,0,44841:0:0:0:0:
64,192,44619,1,0,0:0:0:0:
320,192,44841,1,0,0:0:0:0:
192,192,44952,1,0,0:0:0:0:
64,192,45063,1,0,0:0:0:0:
448,192,45063,1,0,0:0:0:0:
320,192,45286,128,0,45508:0:0:0:0:
192,192,45508,128,0,45730:0:0:0:0:
448,192,45508,1,0,0:0:0:0:
64,192,45730,128,0,45952:0:0:0:0:
320,192,45952,128,0,46175:0:0:0:0:
192,192,45952,1,0,0:0:0:0:
448,192,46175,128,0,46397:0:0:0:0:
192,192,46397,128,0,46619:0:0:0:0:
64,192,46397,1,0,0:0:0:0:
320,192,46619,128,0,47063:0:0:0:0:
448,192,46619,128,0,47063:0:0:0:0:
448,192,47286,1,0,0:0:0:0:
64,192,47286,128,0,47508:0:0:0:0:
320,192,47508,1,0,0:0:0:0:
192,192,47619,1,0,0:0:0:0:
320,192,47730,128,0,47952:0:0:0:0:
448,192,47730,1,0,0:0:0:0:
192,192,47952,128,0,48175:0:0:0:0:
64,192,48175,128,0,48397:0:0:0:0:
448,192,48175,1,0,0:0:0:0:
320,192,48397,128,0,48619:0:0:0:0:
192,192,48619,1,0,0:0:0:0:
448,192,48619,128,0,48841:0:0:0:0:
64,192,48841,128,0,49063:0:0:0:0:
192,192,48841,1,0,0:0:0:0:
448,192,49063,1,0,0:0:0:0:
320,192,49063,128,0,49286:0:0:0:0:
192,192,49286,128,0,49508:0:0:0:0:
448,192,49508,128,0,49730:0:0:0:0:
64,192,49508,1,0,0:0:0:0:
320,192,49730,128,0,49952:0:0:0:0:
448,192,49952,1,0,0:0:0:0:
192,192,49952,128,0,50175:0:0:0:0:
64,192,50175,128,0,50397:0:0:0:0:
448,192,50397,1,0,0:0:0:0:
320,192,50397,1,0,0:0:0:0:
192,192,50508,1,0,0:0:0:0:
448,192,50619,1,0,0:0:0:0:
64,192,50619,1,0,0:0:0:0:
192,192,50841,1,0,0:0:0:0:
320,192,50841,128,0,51063:0:0:0:0:
64,192,51063,1,0,0:0:0:0:
192,192,51175,1,0,0:0:0:0:
320,192,51286,1,0,0:0:0:0:
448,192,51286,128,0,51508:0:0:0:0:
64,192,51508,128,0,51730:0:0:0:0:
320,192,51730,128,0,51952:0:0:0:0:
192,192,51730,1,0,0:0:0:0:
448,192,51952,128,0,52175:0:0:0:0:
64,192,52175,128,0,52397:0:0:0:0:
192,192,52175,1,0,0:0:0:0:
320,192,52397,128,0,52619:0:0:0:0:
448,192,52397,1,0,0:0:0:0:
64,192,52619,1,0,0:0:0:0:
192,192,52619,128,0,53063:0:0:0:0:
448,192,53063,128,0,53508:0:0:0:0:
64,192,53063,1,0,0:0:0:0:
320,192,53508,1,0,0:0:0:0:
64,192,53508,128,0,53952:0:0:0:0:
192,192,53952,1,0,0:0:0:0:
320,192,53952,128,0,54397:0:0:0:0:
192,192,54397,128,0,54619:0:0:0:0:
64,192,54397,1,0,0:0:0:0:
320,192,54619,1,0,0:0:0:0:
448,192,54619,1,0,0:0:0:0:
64,192,54841,1,0,0:0:0:0:
448,192,54841,128,0,55063:0:0:0:0:
320,192,55063,128,0,55286:0:0:0:0:
64,192,55286,128,0,55508:0:0:0:0:
192,192,55286,1,0,0:0:0:0:
320,192,55508,1,0,0:0:0:0:
448,192,55508,1,0,0:0:0:0:
448,192,55730,1,0,0:0:0:0:
64,192,55730,1,0,0:0:0:0:
192,192,55952,128,0,56175:0:0:0:0:
64,192,56175,1,0,0:0:0:0:
448,192,56175,128,0,56619:0:0:0:0:
320,192,56397,1,0,0:0:0:0:
192,192,56397,1,0,0:0:0:0:
64,192,56619,128,0,56841:0:0:0:0:
192,192,56619,1,0,0:0:0:0:
320,192,56841,128,0,57063:0:0:0:0:
192,192,57063,128,0,57397:0:0:0:0:
448,192,57063,1,0,0:0:0:0:
64,192,57286,1,0,0:0:0:0:
320,192,57397,128,0,57730:0:0:0:0:
192,192,57508,1,0,0:0:0:0:
64,192,57508,1,0,0:0:0:0:
448,192,57730,128,0,57952:0:0:0:0:
64,192,57952,128,0,58397:0:0:0:0:
192,192,57952,1,0,0:0:0:0:
320,192,58175,1,0,0:0:0:0:
192,192,58397,1,0,0:0:0:0:
448,192,58397,1,0,0:0:0:0:
320,192,58619,1,0,0:0:0:0:
448,192,58841,128,0,59286:0:0:0:0:
64,192,58841,1,0,0:0:0:0:
192,192,59063,1,0,0:0:0:0:
320,192,59286,1,0,0:0:0:0:
64,192,59286,1,0,0:0:0:0:
192,192,59508,1,0,0:0:0:0:
320,192,59730,128,0,60175:0:0:0:0:
448,192,59730,1,0,0:0:0:0:
64,192,59952,1,0,0:0:0:0:
64,192,60175,128,0,60619:0:0:0:0:
192,192,60175,1,0,0:0:0:0:
448,192,60397,1,0,0:0:0:0:
448,192,60619,128,0,60841:0:0:0:0:
320,192,60841,1,0,0:0:0:0:
64,192,60841,1,0,0:0:0:0:
320,192,61063,1,0,0:0:0:0:
192,192,61063,1,0,0:0:0:0:
448,192,61286,1,0,0:0:0:0:
64,192,61286,1,0,0:0:0:0:
192,192,61508,128,0,61730:0:0:0:0:
320,192,61508,1,0,0:0:0:0:
448,192,61730,1,0,0:0:0:0:
192,192,61952,1,0,0:0:0:0:
64,192,61952,128,0,62396:0:0:0:0:
320,192,62174,1,0,0:0:0:0:
448,192,62396,128,0,62619:0:0:0:0:
192,192,62396,1,0,0:0:0:0:
64,192,62619,1,0,0:0:0:0:
320,192,62841,128,0,63063:0:0:0:0:
192,192,62841,1,0,0:0:0:0:
448,192,63063,1,0,0:0:0:0:
64,192,63285,128,0,63508:0:0:0:0:
192,192,63285,1,0,0:0:0:0:
320,192,63508,128,0,63730:0:0:0:0:
448,192,63730,128,0,63952:0:0:0:0:
64,192,63730,1,0,0:0:0:0:
192,192,63952,128,0,64174:0:0:0:0:
64,192,64174,1,0,0:0:0:0:
320,192,64174,1,0,0:0:0:0:
192,192,64396,1,0,0:0:0:0:
448,192,64396,1,0,0:0:0:0:
320,192,64619,128,0,64841:0:0:0:0:
64,192,64619,1,0,0:0:0:0:
192,192,64841,1,0,0:0:0:0:
448,192,65063,128,0,65508:0:0:0:0:
320,192,65063,1,0,0:0:0:0:
64,192,65285,1,0,0:0:0:0:
320,192,65508,1,0,0:0:0:0:
192,192,65508,128,0,65730:0:0:0:0:
64,192,65730,1,0,0:0:0:0:
448,192,65952,1,0,0:0:0:0:
320,192,65952,128,0,66174:0:0:0:0:
192,192,66174,128,0,66396:0:0:0:0:
64,192,66396,128,0,66619:0:0:0:0:
320,192,66396,1,0,0:0:0:0:
448,192,66619,128,0,66841:0:0:0:0:
320,192,66841,128,0,67063:0:0:0:0:
64,192,66841,1,0,0:0:0:0:
192,192,67063,128,0,67285:0:0:0:0:
64,192,67285,1,0,0:0:0:0:
448,192,67285,1,0,0:0:0:0:
192,192,67508,1,0,0:0:0:0:
320,192,67508,1,0,0:0:0:0:
64,192,67730,1,0,0:0:0:0:
448,192,67730,128,0,67952:0:0:0:0:
320,192,67952,1,0,0:0:0:0:
192,192,68174,128,0,68619:0:0:0:0:
448,192,68174,1,0,0:0:0:0:
64,192,68396,1,0,0:0:0:0:
448,192,68619,128,0,68841:0:0:0:0:
320,192,68619,1,0,0:0:0:0:
64,192,68841,1,0,0:0:0:0:
192,192,69063,128,0,69285:0:0:0:0:
320,192,69063,1,0,0:0:0:0:
448,192,69285,128,0,69508:0:0:0:0:
64,192,69508,128,0,69730:0:0:0:0:
320,192,69508,1,0,0:0:0:0:
192,192,69730,128,0,69952:0:0:0:0:
64,192,69952,1,0,0:0:0:0:
320,192,69952,128,0,70174:0:0:0:0:
448,192,70174,128,0,70396:0:0:0:0:
64,192,70396,1,0,0:0:0:0:
192,192,70396,1,0,0:0:0:0:
320,192,70619,1,0,0:0:0:0:
448,192,70619,1,0,0:0:0:0:
192,192,70841,1,0,0:0:0:0:
64,192,70841,128,0,71285:0:0:0:0:
320,192,71063,1,0,0:0:0:0:
448,192,71285,128,0,71729:0:0:0:0:
192,192,71285,1,0,0:0:0:0:
64,192,71507,1,0,0:0:0:0:
320,192,71729,1,0,0:0:0:0:
192,192,71729,128,0,72174:0:0:0:0:
448,192,71952,1,0,0:0:0:0:
320,192,72174,128,0,72618:0:0:0:0:
64,192,72174,1,0,0:0:0:0:
448,192,72396,1,0,0:0:0:0:
192,192,72618,1,0,0:0:0:0:
64,192,72618,128,0,73063:0:0:0:0:
320,192,72841,1,0,0:0:0:0:
192,192,73063,1,0,0:0:0:0:
448,192,73063,128,0,73507:0:0:0:0:
64,192,73285,1,0,0:0:0:0:
320,192,73507,1,0,0:0:0:0:
192,192,73507,128,0,73952:0:0:0:0:
448,192,73729,1,0,0:0:0:0:
64,192,73952,1,0,0:0:0:0:
320,192,73952,1,0,0:0:0:0:
448,192,74174,1,0,0:0:0:0:
192,192,74174,1,0,0:0:0:0:
64,192,74396,1,0,0:0:0:0:
320,192,74396,128,0,74618:0:0:0:0:
448,192,74618,1,0,0:0:0:0:
192,192,74840,1,0,0:0:0:0:
64,192,74840,128,0,75284:0:0:0:0:
320,192,75062,1,0,0:0:0:0:
192,192,75284,1,0,0:0:0:0:
448,192,75284,128,0,75507:0:0:0:0:
64,192,75507,1,0,0:0:0:0:
192,192,75729,128,0,75951:0:0:0:0:
448,192,75729,1,0,0:0:0:0:
64,192,75951,128,0,76173:0:0:0:0:
320,192,76173,128,0,76396:0:0:0:0:
448,192,76173,1,0,0:0:0:0:
192,192,76396,128,0,76618:0:0:0:0:
64,192,76618,1,0,0:0:0:0:
320,192,76618,128,0,76840:0:0:0:0:
448,192,76840,128,0,77062:0:0:0:0:
64,192,77062,1,0,0:0:0:0:
192,192,77062,1,0,0:0:0:0:
320,192,77284,1,0,0:0:0:0:
448,192,77284,1,0,0:0:0:0:
192,192,77507,1,0,0:0:0:0:
64,192,77507,128,0,77729:0:0:0:0:
448,192,77729,1,0,0:0:0:0:
192,192,77951,1,0,0:0:0:0:
320,192,77951,128,0,78396:0:0:0:0:
64,192,78173,1,0,0:0:0:0:
448,192,78396,128,0,78618:0:0:0:0:
192,192,78396,1,0,0:0:0:0:
320,192,78618,1,0,0:0:0:0:
64,192,78840,128,0,79062:0:0:0:0:
448,192,78840,1,0,0:0:0:0:
192,192,79062,128,0,79284:0:0:0:0:
448,192,79284,128,0,79507:0:0:0:0:
64,192,79284,1,0,0:0:0:0:
320,192,79507,128,0,79729:0:0:0:0:
192,192,79729,128,0,79951:0:0:0:0:
448,192,79729,1,0,0:0:0:0:
320,192,79951,128,0,80173:0:0:0:0:
192,192,80173,1,0,0:0:0:0:
64,192,80173,1,0,0:0:0:0:
320,192,80396,1,0,0:0:0:0:
448,192,80396,1,0,0:0:0:0:
192,192,80618,1,0,0:0:0:0:
64,192,80618,128,0,80840:0:0:0:0:
320,192,80840,1,0,0:0:0:0:
64,192,81062,1,0,0:0:0:0:
448,192,81062,128,0,81507:0:0:0:0:
192,192,81284,1,0,0:0:0:0:
64,192,81507,1,0,0:0:0:0:
320,192,81507,1,0,0:0:0:0:
448,192,81729,1,0,0:0:0:0:
64,192,81951,128,0,82173:0:0:0:0:
192,192,81951,1,0,0:0:0:0:
448,192,82173,128,0,82396:0:0:0:0:
320,192,82395,128,0,82618:0:0:0:0:
64,192,82396,1,0,0:0:0:0:
192,192,82618,128,0,82840:0:0:0:0:
320,192,82840,1,0,0:0:0:0:
448,192,82840,1,0,0:0:0:0:
64,192,83062,128,0,83284:0:0:0:0:
192,192,83284,1,0,0:0:0:0:
320,192,83284,1,0,0:0:0:0:
448,192,83507,1,0,0:0:0:0:
64,192,83507,1,0,0:0:0:0:
192,192,83729,1,0,0:0:0:0:
320,192,83729,128,0,84173:0:0:0:0:
64,192,83951,1,0,0:0:0:0:
448,192,84173,128,0,84617:0:0:0:0:
192,192,84173,1,0,0:0:0:0:
320,192,84395,1,0,0:0:0:0:
192,192,84617,128,0,85062:0:0:0:0:
64,192,84617,1,0,0:0:0:0:
320,192,84840,1,0,0:0:0:0:
64,192,85062,128,0,85506:0:0:0:0:
448,192,85062,1,0,0:0:0:0:
192,192,85284,1,0,0:0:0:0:
320,192,85506,128,0,85951:0:0:0:0:
448,192,85506,1,0,0:0:0:0:
192,192,85951,128,0,86395:0:0:0:0:
64,192,85951,1,0,0:0:0:0:
448,192,86395,128,0,86840:0:0:0:0:
320,192,86395,1,0,0:0:0:0:
64,192,86840,128,0,87284:0:0:0:0:
192,192,86840,1,0,0:0:0:0:
320,192,87284,128,0,87506:0:0:0:0:
448,192,87284,1,0,0:0:0:0:
192,192,87728,128,0,87950:0:0:0:0:
320,192,87728,1,0,0:0:0:0:
448,192,87950,128,0,88395:0:0:0:0:
64,192,87950,1,0,0:0:0:0:
320,192,88395,128,0,88617:0:0:0:0:
64,192,88395,1,0,0:0:0:0:
192,192,88617,128,0,88839:0:0:0:0:
448,192,88617,1,0,0:0:0:0:
320,192,89061,128,0,89284:0:0:0:0:
448,192,89061,1,0,0:0:0:0:
64,192,89284,128,0,89728:0:0:0:0:
192,192,89284,1,0,0:0:0:0:
192,192,89728,128,0,89950:0:0:0:0:
320,192,89728,1,0,0:0:0:0:
448,192,89950,128,0,90172:0:0:0:0:
64,192,89950,1,0,0:0:0:0:
320,192,90172,128,0,90395:0:0:0:0:
64,192,90395,1,0,0:0:0:0:
192,192,90395,1,0,0:0:0:0:
