osu file format v13

[General]
AudioFilename: Great Spirits Remix.mp3
AudioLeadIn: 2000
PreviewTime: 45700
Countdown: 0
SampleSet: Normal
StackLeniency: 0.7
Mode: 0
LetterboxInBreaks: 1
EpilepsyWarning: 1
WidescreenStoryboard: 1

[Editor]
Bookmarks: 10720,13028,15336,17644,85504,103677
DistanceSpacing: 1.1
BeatDivisor: 2
GridSize: 4
TimelineZoom: 1.700002

[Metadata]
Title:Great Spirits Remix
TitleUnicode:Great Spirits Remix
Artist:Orange Wolke
ArtistUnicode:Orange Wolke
Creator:HelloSCV
Version:Normal
Source:
Tags:soundcloud 대정령 PDGreatSpirit Fast scanter W_h_i_t_e Flask 84
BeatmapID:591769
BeatmapSetID:233035

[Difficulty]
HPDrainRate:4
CircleSize:3
OverallDifficulty:3
ApproachRate:5
SliderMultiplier:1.05
SliderTickRate:1

[Events]
//Background and Video events
0,0,"1.jpg",0,0
//Break Periods
//Storyboard Layer 0 (Background)
//Storyboard Layer 1 (Fail)
//Storyboard Layer 2 (Pass)
//Storyboard Layer 3 (Foreground)
//Storyboard Sound Samples

[TimingPoints]
124,288.461538461538,4,2,1,50,1,0
124,-100,4,2,1,50,0,0
9354,-100,4,1,1,65,0,0
18585,-100,4,1,1,50,0,0
27816,-100,4,1,1,40,0,0
37047,-100,4,1,1,45,0,0
39354,-100,4,1,1,50,0,0
41662,-100,4,1,1,55,0,0
43970,-100,4,1,1,60,0,0
46277,-100,4,1,1,80,0,1
55436,-100,4,1,1,70,0,0
55508,-100,4,1,1,80,0,1
64739,-100,4,1,1,70,0,0
67047,-100,4,1,1,80,0,1
76205,-100,4,1,1,70,0,0
76277,-100,4,1,1,80,0,1
85508,-100,4,1,2,50,0,0
94739,-100,4,1,2,65,0,0
104547,-100,4,1,1,80,0,1
113128,-100,4,1,1,70,0,0
113200,-100,4,1,1,70,0,1
122575,-100,4,2,0,30,0,0

[Colours]
Combo1 : 255,128,128
Combo2 : 82,82,82
Combo3 : 247,247,247
Combo4 : 45,150,255
Combo5 : 157,206,255
Combo6 : 255,0,0

[HitObjects]
256,164,124,6,0,P|312:196|404:156,2,157.5,0|0|0,0:0|0:0|0:0,0:0:0:0:
240,116,1133,1,0,0:0:0:0:
220,68,1277,2,0,P|176:48|116:56,1,105
160,164,1854,2,0,L|148:276,1,105
240,340,2431,6,0,P|308:344|372:276,2,157.5,0|0|0,0:0|0:0|0:0,0:0:0:0:
236,288,3441,1,0,0:0:0:0:
264,244,3585,2,0,L|274:139,1,105
388,128,4162,2,0,L|377:23,1,105
260,24,4739,70,0,L|100:44,2,157.5,0|0|0,0:0|0:0|0:0,0:0:0:0:
256,76,5748,1,0,0:0:0:0:
228,120,5893,2,0,B|212:172|212:172|228:224,1,105
328,280,6470,2,0,B|344:228|344:228|328:176,1,105
228,120,7047,6,0,L|120:112,2,105,0|0|0,0:0|0:0|0:0,0:0:0:0:
320,52,7912,1,0,0:0:0:0:
424,96,8200,2,0,L|444:48,1,52.5
472,4,8489,2,0,L|512:108,1,105,0|8,0:0|1:0,0:0:0:0:
440,192,9066,1,0,0:0:0:0:
324,200,9354,6,0,P|244:184|152:276,1,210,4|8,0:0|0:0,0:0:0:0:
264,296,10220,1,0,0:0:0:0:
324,200,10508,2,0,L|316:92,1,105,2|0,0:0|0:0,0:0:0:0:
220,32,11085,2,0,B|168:24|168:24|116:48,1,105,8|0,0:0|0:0,0:0:0:0:
84,156,11662,6,0,P|136:240|104:340,1,210,2|8,0:0|0:0,0:0:0:0:
12,256,12527,1,0,0:0:0:0:
104,339,12816,2,0,L|212:332,1,105,2|0,0:0|0:0,0:0:0:0:
308,268,13393,2,0,L|415:260,1,105,8|0,0:0|0:0,0:0:0:0:
496,176,13970,70,0,B|452:132|400:140|400:140|360:96|392:36,1,210,2|8,0:0|0:0,0:0:0:0:
272,24,14835,1,0,0:0:0:0:
164,60,15123,2,0,P|140:104|136:164,1,105,2|0,0:0|0:0,0:0:0:0:
252,144,15700,2,0,P|296:140|352:172,1,105,8|0,0:0|0:0,0:0:0:0:
372,280,16277,6,0,L|376:60,1,210,2|8,0:0|0:0,0:0:0:0:
476,16,17143,1,0,0:0:0:0:
476,132,17431,2,0,B|474:184|474:184|512:229,1,105,2|0,0:0|0:0,0:0:0:0:
448,324,18008,2,0,L|324:320,1,105,8|2,0:0|0:0,0:0:0:0:
244,260,18585,70,0,B|188:256|188:256|136:280,1,105,2|2,0:0|0:0,0:0:0:0:
72,368,19162,1,8,0:0:0:0:
20,264,19450,1,0,0:0:0:0:
92,172,19739,2,0,L|212:156,1,105,2|0,0:0|0:0,0:0:0:0:
244,180,20172,1,0,0:0:0:0:
292,196,20316,2,0,L|412:180,1,105,8|0,0:0|0:0,0:0:0:0:
424,68,20893,6,0,P|327:104|229:71,1,210,2|8,0:0|0:0,0:0:0:0:
116,56,21758,1,0,0:0:0:0:
40,140,22047,2,0,L|40:252,1,105,2|0,0:0|0:0,0:0:0:0:
68,288,22479,1,0,0:0:0:0:
120,300,22623,2,0,B|172:303|172:303|218:275,1,105,8|0,0:0|0:0,0:0:0:0:
208,160,23200,70,0,P|220:228|348:276,1,210,2|8,0:0|0:0,0:0:0:0:
444,232,24066,1,0,0:0:0:0:
496,128,24354,2,0,P|445:113|394:126,1,105,2|0,0:0|0:0,0:0:0:0:
346,148,24787,1,0,0:0:0:0:
308,182,24931,2,0,L|301:69,1,105,8|0,0:0|0:0,0:0:0:0:
196,32,25508,6,0,P|101:35|48:132,1,210,2|8,0:0|0:0,0:0:0:0:
104,228,26373,1,0,0:0:0:0:
216,252,26662,2,0,L|328:236,1,105,2|0,0:0|0:0,0:0:0:0:
372,224,27095,1,0,0:0:0:0:
404,184,27239,2,0,L|428:292,1,105,8|8,0:0|0:0,0:0:0:0:
328,324,27816,38,0,P|232:292|145:345,1,210,2|2,0:0|0:0,0:0:0:0:
4,184,28970,2,0,L|216:160,1,210,2|2,0:0|0:0,0:0:0:0:
388,44,30123,6,0,P|428:140|400:244,1,210,2|2,0:0|0:0,0:0:0:0:
212,328,31277,1,2,0:0:0:0:
228,120,31854,1,2,0:0:0:0:
403,239,32431,70,0,L|192:232,1,210,2|2,0:0|0:0,0:0:0:0:
80,56,33585,2,0,L|289:63,1,210,2|2,0:0|0:0,0:0:0:0:
499,76,34739,6,0,P|452:166|475:267,1,210,2|2,0:0|0:0,0:0:0:0:
268,236,35893,1,2,0:0:0:0:
80,332,36470,1,2,0:0:0:0:
244,208,37047,70,0,P|256:152|144:60,1,210,2|2,0:0|0:0,0:0:0:0:
168,268,38200,2,0,P|216:298|341:224,1,210,2|2,0:0|0:0,0:0:0:0:
415,39,39354,6,0,P|321:7|245:72,1,210,2|2,0:0|0:0,0:0:0:0:
220,280,40508,1,2,0:0:0:0:
64,140,41085,1,2,0:0:0:0:
272,156,41662,70,0,L|484:176,1,210,2|2,0:0|0:0,0:0:0:0:
480,292,42527,1,2,0:0:0:0:
364,308,42816,2,0,P|260:272|180:332,1,210,2|2,0:0|0:0,0:0:0:0:
68,328,43681,1,2,0:0:0:0:
76,212,43970,6,0,L|56:84,1,105,8|2,0:0|0:0,0:0:0:0:
164,60,44547,2,0,L|180:163,1,105,8|2,0:0|0:0,0:0:0:0:
284,112,45123,2,0,L|267:8,1,105,10|2,0:0|0:0,0:0:0:0:
380,32,45700,1,8,0:0:0:0:
416,144,45989,1,0,0:0:0:0:
336,228,46277,38,0,B|295:260|237:240|237:240|185:265|189:330,1,210,6|8,0:0|0:0,0:0:0:0:
72,340,47143,1,0,0:0:0:0:
12,240,47431,2,0,L|24:128,1,105,2|0,0:0|0:0,0:0:0:0:
64,104,47864,1,0,0:0:0:0:
112,128,48008,2,0,B|164:144|164:144|211:126,1,105,8|0,0:0|0:0,0:0:0:0:
288,40,48585,5,2,0:0:0:0:
400,68,48873,1,2,0:0:0:0:
400,184,49162,2,0,L|408:252,2,52.5,8|0|0,0:0|0:0|0:0,0:0:0:0:
284,168,49739,2,0,L|172:184,1,105,2|2,0:0|0:0,0:0:0:0:
224,292,50316,2,0,L|327:277,1,105,8|0,0:0|0:0,0:0:0:0:
400,184,50893,70,0,P|392:85|300:20,1,210,2|8,0:0|0:0,0:0:0:0:
212,88,51758,1,8,0:0:0:0:
104,52,52047,2,0,L|44:60,1,52.5,2|0,0:0|0:0,0:0:0:0:
20,100,52335,1,0,0:0:0:0:
68,204,52623,2,0,L|120:210,1,52.5,8|0,0:0|0:0,0:0:0:0:
152,252,52912,1,0,0:0:0:0:
228,336,53200,6,0,L|244:224,1,105,2|0,0:0|0:0,0:0:0:0:
360,236,53777,2,0,L|344:124,1,105,8|0,0:0|0:0,0:0:0:0:
296,120,54210,1,0,0:0:0:0:
244,108,54354,2,0,B|204:72|204:72|192:20,2,105,2|2|10,0:0|0:0|0:0,0:0:0:0:
316,16,55220,1,8,0:0:0:0:
412,80,55508,70,0,B|405:131|405:131|436:172|436:172|431:225,1,157.5,6|0,0:0|0:0,0:0:0:0:
396,264,56085,2,0,L|384:368,1,105,8|0,0:0|0:0,0:0:0:0:
280,320,56662,1,2,0:0:0:0:
172,356,56950,1,0,0:0:0:0:
68,304,57239,2,0,L|48:244,2,52.5,8|8|8,0:0|0:0|0:0,0:0:0:0:
156,228,57816,6,0,L|172:108,1,105,2|0,0:0|0:0,0:0:0:0:
216,104,58248,1,2,0:0:0:0:
252,144,58393,2,0,P|300:160|360:136,1,105,8|0,0:0|0:0,0:0:0:0:
444,76,58970,2,0,L|456:12,2,52.5,2|0|2,0:0|0:0|0:0,0:0:0:0:
460,192,59547,2,0,L|480:308,1,105,8|0,0:0|0:0,0:0:0:0:
372,252,60123,70,0,P|320:240|264:260,1,105,2|0,0:0|0:0,0:0:0:0:
180,324,60700,1,8,0:0:0:0:
88,252,60989,1,8,0:0:0:0:
156,160,61277,2,0,B|164:108|164:108|148:56,1,105,2|0,0:0|0:0,0:0:0:0:
196,84,61710,2,0,L|312:72,1,105,0|0,0:0|0:0,0:0:0:0:
352,68,62143,1,0,0:0:0:0:
312,176,62431,6,0,P|312:236|348:288,2,105,2|0|8,0:0|0:0|0:0,0:0:0:0:
424,208,63297,1,0,0:0:0:0:
448,160,63441,1,2,0:0:0:0:
472,112,63585,2,0,L|452:4,2,105,0|0|8,0:0|0:0|0:0,0:0:0:0:
424,316,64739,37,8,0:0:0:0:
220,264,65316,1,8,0:0:0:0:
272,60,65893,2,0,L|148:76,1,105,8|8,0:0|0:0,0:0:0:0:
60,140,66470,1,0,0:0:0:0:
60,140,67047,22,0,L|56:248,1,105,4|0,0:0|0:0,0:0:0:0:
128,336,67623,1,8,0:0:0:0:
244,344,67912,1,0,0:0:0:0:
352,308,68200,2,0,B|400:288|400:288|456:292,2,105,2|0|8,0:0|0:0|0:0,0:0:0:0:
268,228,69066,1,0,0:0:0:0:
356,152,69354,6,0,L|368:40,1,105,2|0,0:0|0:0,0:0:0:0:
256,12,69931,2,0,L|244:116,1,105,8|0,0:0|0:0,0:0:0:0:
212,156,70364,1,0,0:0:0:0:
168,184,70508,2,0,P|116:184|72:152,1,105,2|2,0:0|0:0,0:0:0:0:
96,268,71085,2,0,P|96:316|64:364,1,105,8|0,0:0|0:0,0:0:0:0:
180,344,71662,70,0,P|278:314|369:360,1,210,2|8,0:0|0:0,0:0:0:0:
480,332,72527,1,0,0:0:0:0:
460,216,72816,2,0,L|472:104,1,105,2|0,0:0|0:0,0:0:0:0:
440,68,73248,1,0,0:0:0:0:
388,84,73393,2,0,L|284:64,1,105,8|0,0:0|0:0,0:0:0:0:
172,44,73970,5,2,0:0:0:0:
236,140,74258,2,0,P|261:210|216:276,1,157.5
168,280,74835,2,0,L|108:272,2,52.5,0|0|2,0:0|0:0|0:0,0:0:0:0:
256,356,75412,1,2,0:0:0:0:
364,320,75700,1,8,0:0:0:0:
404,212,75989,1,8,0:0:0:0:
312,144,76277,70,0,P|408:96|500:148,1,210,6|8,0:0|0:0,0:0:0:0:
404,212,77143,1,0,0:0:0:0:
296,252,77431,2,0,L|180:244,1,105,2|0,0:0|0:0,0:0:0:0:
96,176,78008,1,8,0:0:0:0:
200,128,78297,1,0,0:0:0:0:
191,244,78585,6,0,B|188:296|188:296|200:347,1,105,2|0,0:0|0:0,0:0:0:0:
248,372,79018,1,2,0:0:0:0:
300,356,79162,2,0,L|416:368,1,105,8|0,0:0|0:0,0:0:0:0:
368,256,79739,1,2,0:0:0:0:
360,140,80027,1,2,0:0:0:0:
476,132,80316,1,8,0:0:0:0:
484,248,80604,1,0,0:0:0:0:
368,256,80893,70,0,L|315:250,2,52.5,2|0|0,0:0|0:0|0:0,0:0:0:0:
408,364,81470,2,0,L|460:358,2,52.5,8|0|0,0:0|0:0|0:0,0:0:0:0:
292,352,82047,2,0,L|180:344,1,105,2|0,0:0|0:0,0:0:0:0:
136,340,82479,2,0,P|164:296|164:240,1,105
140,200,82912,1,0,0:0:0:0:
168,88,83200,6,0,P|264:52|356:117,2,210,2|8|0,0:0|0:0|0:0,0:0:0:0:
180,140,84498,1,0,0:0:0:0:
224,168,84643,2,0,L|236:280,1,105,0|8,0:0|0:0,0:0:0:0:
340,320,85220,1,8,0:0:0:0:
448,280,85508,6,0,P|412:184|464:92,1,210,6|2,0:0|0:0,0:0:0:0:
252,116,86662,2,0,L|40:84,1,210,2|2,0:0|0:0,0:0:0:0:
8,296,87816,5,2,0:0:0:0:
204,372,88393,1,2,0:0:0:0:
336,208,88970,2,0,P|404:168|512:232,2,210,2|2|2,0:0|0:0|0:0,0:0:0:0:
128,184,90700,69,2,0:0:0:0:
268,28,91277,2,0,L|284:152,1,105,2|0,0:0|0:0,0:0:0:0:
224,244,91854,2,0,L|208:368,1,105,2|0,0:0|0:0,0:0:0:0:
88,384,92431,6,0,L|114:175,2,210,2|2|2,0:0|0:0|0:0,0:0:0:0:
268,276,94162,1,2,0:0:0:0:
384,292,94450,1,2,0:0:0:0:
480,228,94739,6,0,L|460:12,1,210,6|2,0:0|0:0,0:0:0:0:
280,124,95893,2,0,B|184:164|184:164|80:144,1,210,2|2,0:0|0:0,0:0:0:0:
108,256,96758,1,2,0:0:0:0:
60,364,97047,6,0,L|280:328,1,210,2|2,0:0|0:0,0:0:0:0:
472,300,98200,1,2,0:0:0:0:
328,148,98777,1,2,0:0:0:0:
440,116,99066,1,2,0:0:0:0:
356,40,99354,70,0,L|236:52,1,105,2|0,0:0|0:0,0:0:0:0:
176,140,99931,1,2,0:0:0:0:
60,132,100220,2,0,L|60:186,1,52.5,2|0,0:0|0:0,0:0:0:0:
96,224,100508,2,0,L|96:332,1,105,2|2,0:0|0:0,0:0:0:0:
204,372,101085,1,2,0:0:0:0:
316,344,101373,1,2,0:0:0:0:
344,232,101662,6,0,P|408:196|496:228,2,157.5,8|8|8,0:0|0:0|0:0,0:0:0:0:
232,256,102816,2,0,L|204:212,1,52.5,0|8,0:0|0:0,0:0:0:0:
108,144,103248,2,0,L|120:80,1,52.5,0|8,0:0|0:0,0:0:0:0:
224,44,103681,1,0,0:0:0:0:
224,44,104547,6,0,L|336:52,1,105,12|0,0:0|0:0,0:0:0:0:
424,116,105123,1,2,0:0:0:0:
416,232,105412,1,0,0:0:0:0:
300,224,105700,2,0,B|244:224|244:224|200:247,1,105,8|0,0:0|0:0,0:0:0:0:
96,300,106277,5,2,0:0:0:0:
116,188,106566,1,2,0:0:0:0:
56,88,106854,2,0,L|52:36,2,52.5,8|0|0,0:0|0:0|0:0,0:0:0:0:
168,52,107431,2,0,L|276:40,1,105,2|2,0:0|0:0,0:0:0:0:
336,136,108008,2,0,L|231:147,1,105,8|0,0:0|0:0,0:0:0:0:
120,172,108585,70,0,P|216:184|268:280,1,210,2|8,0:0|0:0,0:0:0:0:
376,320,109450,1,8,0:0:0:0:
472,252,109739,2,0,L|484:192,1,52.5,2|0,0:0|0:0,0:0:0:0:
456,156,110027,1,0,0:0:0:0:
348,116,110316,2,0,L|302:75,1,52.5,8|0,0:0|0:0,0:0:0:0:
256,81,110604,1,0,0:0:0:0:
144,56,110893,6,0,P|144:108|168:156,1,105,2|0,0:0|0:0,0:0:0:0:
256,232,111470,2,0,P|256:284|232:332,1,105,8|0,0:0|0:0,0:0:0:0:
180,328,111902,1,0,0:0:0:0:
152,284,112047,2,0,P|102:267|52:278,2,105,2|2|8,0:0|0:0|0:0,0:0:0:0:
256,232,112912,1,8,0:0:0:0:
336,316,113200,70,0,L|456:340,1,105,6|0,0:0|0:0,0:0:0:0:
472,224,113777,2,0,L|369:203,1,105,8|0,0:0|0:0,0:0:0:0:
256,232,114354,1,8,0:0:0:0:
180,144,114643,1,8,0:0:0:0:
264,64,114931,2,0,B|316:72|316:72|368:56,1,105,8|0,0:0|0:0,0:0:0:0:
472,12,115508,6,0,P|484:68|468:116,1,105,2|0,0:0|0:0,0:0:0:0:
436,152,115941,1,2,0:0:0:0:
428,204,116085,2,0,L|452:312,1,105,8|0,0:0|0:0,0:0:0:0:
336,308,116662,2,0,L|316:356,2,52.5,2|0|2,0:0|0:0|0:0,0:0:0:0:
220,292,117239,2,0,B|164:284|164:284|116:300,1,105,8|0,0:0|0:0,0:0:0:0:
12,348,117816,69,2,0:0:0:0:
52,240,118104,1,0,0:0:0:0:
28,128,118393,2,0,B|48:80|48:80|100:72|100:72|116:20,1,157.5,8|8,0:0|0:0,0:0:0:0:
148,64,118970,2,0,L|302:34,2,157.5,2|0|0,0:0|0:0|0:0,0:0:0:0:
232,144,120123,6,0,P|244:212|168:284,1,157.5,2|0,0:0|0:0,0:0:0:0:
144,304,120700,2,0,L|256:340,1,105,8|0,0:0|0:0,0:0:0:0:
356,368,121277,2,0,B|372:316|340:268|340:268|308:224|328:168,1,210,0|8,0:0|0:0,0:0:0:0:
428,112,122143,1,0,0:0:0:0:
384,8,122431,69,4,2:0:0:0:
256,192,122575,12,2,124595,0:0:0:0:
