osu file format v14

[General]
AudioFilename: Great Spirits Remix.mp3
AudioLeadIn: 2000
PreviewTime: 45700
Countdown: 0
SampleSet: Normal
StackLeniency: 0.7
Mode: 0
LetterboxInBreaks: 1
EpilepsyWarning: 1
WidescreenStoryboard: 1

[Editor]
DistanceSpacing: 1.5
BeatDivisor: 4
GridSize: 4
TimelineZoom: 2.7

[Metadata]
Title:Great Spirits Remix
TitleUnicode:Great Spirits Remix
Artist:Orange Wolke
ArtistUnicode:Orange Wolke
Creator:HelloSCV
Version:Extra
Source:
Tags:soundcloud 대정령 PDGreatSpirit Fast scanter W_h_i_t_e Flask 84
BeatmapID:541035
BeatmapSetID:233035

[Difficulty]
HPDrainRate:7
CircleSize:4.5
OverallDifficulty:8
ApproachRate:9.3
SliderMultiplier:1.7
SliderTickRate:1

[Events]
//Background and Video events
0,0,"1.jpg",0,0
//Break Periods
//Storyboard Layer 0 (Background)
//Storyboard Layer 1 (Fail)
//Storyboard Layer 2 (Pass)
//Storyboard Layer 3 (Foreground)
//Storyboard Sound Samples

[TimingPoints]
124,288.461538461538,4,1,1,50,1,0
124,-166.666666666667,4,1,1,50,0,0
9354,-125,4,1,1,60,0,0
18585,-166.666666666667,4,1,1,50,0,0
19162,-125,4,1,1,60,0,0
19378,-125,4,1,1,5,0,0
19450,-125,4,1,1,60,0,0
19523,-125,4,1,1,5,0,0
19595,-125,4,1,1,60,0,0
19667,-125,4,1,1,5,0,0
19739,-125,4,1,1,60,0,0
21686,-125,4,1,1,5,0,0
21758,-125,4,1,1,60,0,0
21830,-125,4,1,1,5,0,0
21902,-125,4,1,1,60,0,0
21974,-125,4,1,1,5,0,0
22047,-125,4,1,1,60,0,0
23994,-125,4,1,1,5,0,0
24066,-125,4,1,1,60,0,0
24138,-125,4,1,1,5,0,0
24210,-125,4,1,1,60,0,0
24282,-125,4,1,1,5,0,0
24354,-125,4,1,1,60,0,0
26301,-125,4,1,1,5,0,0
26373,-125,4,1,1,60,0,0
26446,-125,4,1,1,5,0,0
26518,-125,4,1,1,60,0,0
26590,-125,4,1,1,5,0,0
26662,-125,4,1,1,60,0,0
27816,-166.666666666667,4,1,1,50,0,0
45700,-166.666666666667,4,1,1,60,0,0
45989,-166.666666666667,4,1,1,40,0,0
46277,-100,4,1,1,70,0,1
46926,-100,4,1,1,5,0,1
46998,-100,4,1,1,70,0,1
47071,-100,4,1,1,5,0,1
47143,-100,4,1,1,70,0,1
47215,-100,4,1,1,5,0,1
47287,-100,4,1,1,70,0,1
47359,-100,4,1,1,5,0,1
47431,-100,4,1,1,70,0,1
52335,-66.6666666666667,4,1,1,70,0,1
52623,-100,4,1,1,70,0,1
52912,-66.6666666666667,4,1,1,70,0,1
53200,-100,4,1,1,70,0,1
55436,-100,4,1,1,70,0,0
55508,-100,4,1,1,70,0,1
56157,-100,4,1,1,5,0,1
56229,-100,4,1,1,70,0,1
56301,-100,4,1,1,5,0,1
56373,-100,4,1,1,70,0,1
56446,-100,4,1,1,5,0,1
56518,-100,4,1,1,70,0,1
56590,-100,4,1,1,5,0,1
56662,-100,4,1,1,70,0,1
64739,-100,4,1,1,70,0,0
66470,-100,4,1,1,40,0,0
67047,-100,4,1,1,70,0,1
67696,-100,4,1,1,5,0,1
67768,-100,4,1,1,70,0,1
67840,-100,4,1,1,5,0,1
67912,-100,4,1,1,70,0,1
67984,-100,4,1,1,5,0,1
68056,-100,4,1,1,70,0,1
68128,-100,4,1,1,5,0,1
68200,-100,4,1,1,70,0,1
76205,-100,4,1,1,70,0,0
76277,-100,4,1,1,70,0,1
77071,-100,4,1,1,5,0,1
77143,-100,4,1,1,70,0,1
77215,-100,4,1,1,5,0,1
77287,-100,4,1,1,70,0,1
77359,-100,4,1,1,5,0,1
77431,-100,4,1,1,70,0,1
85508,-166.666666666667,4,1,2,70,0,0
94739,-125,4,1,2,70,0,0
101662,-125,4,1,1,70,0,0
103681,-125,4,1,1,40,0,0
104547,-100,4,1,1,70,0,1
104619,-100,4,1,1,5,0,1
104691,-100,4,1,1,70,0,1
104763,-100,4,1,1,5,0,1
104835,-100,4,1,1,70,0,1
104907,-100,4,1,1,5,0,1
104979,-100,4,1,1,70,0,1
105051,-100,4,1,1,5,0,1
105123,-100,4,1,1,70,0,1
110027,-66.6666666666667,4,1,1,70,0,1
110316,-100,4,1,1,70,0,1
110604,-66.6666666666667,4,1,1,70,0,1
110893,-100,4,1,1,70,0,1
113128,-100,4,1,1,70,0,0
113200,-100,4,1,1,70,0,1
113994,-100,4,1,1,5,0,1
114066,-100,4,1,1,70,0,1
114138,-100,4,1,1,5,0,1
114210,-100,4,1,1,70,0,1
114282,-100,4,1,1,5,0,1
114354,-100,4,1,1,70,0,1
122431,-100,4,1,1,70,0,0
122503,-100,4,1,1,30,0,0

[Colours]
Combo1 : 255,128,128
Combo2 : 82,82,82
Combo3 : 247,247,247
Combo4 : 45,150,255
Combo5 : 157,206,255
Combo6 : 255,0,0

[HitObjects]
72,324,124,5,0,0:0:0:0:
88,316,412,2,0,L|109:262,1,50.9999984436036,0|0,0:0|0:0,0:0:0:0:
137,194,700,5,0,0:0:0:0:
171,326,845,1,0,0:0:0:0:
256,211,989,2,0,B|264:188|264:188|266:151,1,50.9999984436036,0|0,0:0|2:0,0:0:0:0:
148,204,1277,69,0,0:0:0:0:
181,336,1422,1,0,0:0:0:0:
267,221,1566,2,0,L|299:173,1,50.9999984436036,0|0,0:0|2:0,0:0:0:0:
305,98,1854,1,0,0:0:0:0:
274,24,1998,5,0,0:0:0:0:
253,161,2143,1,0,0:0:0:0:
386,112,2287,1,0,0:0:0:0:
274,24,2431,69,0,0:0:0:0:
396,132,2720,2,0,L|396:196,1,50.9999984436036,0|0,0:0|0:0,0:0:0:0:
356,252,3008,5,0,0:0:0:0:
472,180,3152,1,0,0:0:0:0:
372,272,3297,2,0,L|380:336,1,50.9999984436036,0|0,0:0|2:0,0:0:0:0:
340,232,3585,69,0,0:0:0:0:
456,160,3729,1,0,0:0:0:0:
356,252,3873,2,0,L|364:316,1,50.9999984436036,0|0,0:0|2:0,0:0:0:0:
304,360,4162,1,0,0:0:0:0:
224,352,4306,5,0,0:0:0:0:
256,248,4450,1,0,0:0:0:0:
292,144,4595,1,0,0:0:0:0:
216,176,4739,69,0,0:0:0:0:
378,64,5027,2,0,L|328:72,1,50.9999984436036,0|0,0:0|0:0,0:0:0:0:
196,32,5316,1,0,0:0:0:0:
196,32,5460,1,0,0:0:0:0:
108,136,5604,2,0,B|108:164|108:164|120:188,1,50.9999984436036,0|0,0:0|2:0,0:0:0:0:
196,32,5893,5,0,0:0:0:0:
196,32,6037,1,0,0:0:0:0:
36,112,6181,2,0,L|32:176,1,50.9999984436036,0|0,0:0|2:0,0:0:0:0:
68,236,6470,1,0,0:0:0:0:
120,300,6614,69,0,0:0:0:0:
240,272,6758,1,0,0:0:0:0:
360,244,6902,1,0,0:0:0:0:
288,204,7047,5,0,0:0:0:0:
240,272,7191,1,0,0:0:0:0:
192,336,7335,2,0,L|212:388,1,50.9999984436036,0|0,0:0|0:0,0:0:0:0:
240,272,7623,1,0,0:0:0:0:
168,232,7768,1,0,0:0:0:0:
360,244,7912,2,0,B|365:268|365:268|359:296,1,50.9999984436036,0|0,0:0|0:0,0:0:0:0:
240,188,8200,69,0,0:0:0:0:
242,168,8345,1,0,0:0:0:0:
246,148,8489,2,0,L|264:32,1,101.999996887207,0|8,0:0|0:0,0:0:0:0:
340,24,8922,1,0,0:0:0:0:
184,80,9066,2,0,L|175:130,1,50.9999984436036
308,232,9354,22,0,L|331:78,1,136,0|8,0:0|0:0,0:0:0:0:
196,8,9787,1,0,0:0:0:0:
408,84,9931,1,0,0:0:0:0:
228,176,10075,1,0,0:0:0:0:
128,156,10220,1,0,0:0:0:0:
28,136,10364,1,0,0:0:0:0:
212,96,10508,5,0,0:0:0:0:
112,180,10652,1,0,0:0:0:0:
96,280,10797,1,0,0:0:0:0:
76,380,10941,1,0,0:0:0:0:
40,220,11085,1,0,0:0:0:0:
176,344,11229,2,0,L|243:332,2,68
320,240,11662,70,0,B|356:246|356:246|402:283|402:283|442:293,1,136,0|0,0:3|0:3,0:3:0:0:
320,324,12095,1,0,0:0:0:0:
444,212,12239,1,0,0:0:0:0:
276,56,12383,1,0,0:0:0:0:
260,156,12527,1,0,0:0:0:0:
244,256,12672,1,0,0:0:0:0:
356,140,12816,5,0,0:0:0:0:
228,176,12960,1,0,0:0:0:0:
126,163,13104,1,0,0:0:0:0:
26,150,13249,1,0,0:0:0:0:
192,80,13393,1,0,0:0:0:0:
64,240,13537,2,0,L|80:316,1,68
200,380,13825,1,0,0:0:0:0:
300,236,13970,70,0,P|260:220|180:284,1,136
360,296,14402,1,0,0:0:0:0:
447,128,14547,1,0,0:0:0:0:
371,305,14691,1,0,0:0:0:0:
355,204,14835,1,0,0:0:0:0:
338,103,14979,1,0,0:0:0:0:
463,243,15123,5,0,0:0:0:0:
328,187,15268,1,0,0:0:0:0:
227,203,15412,1,0,0:0:0:0:
126,220,15556,1,0,0:0:0:0:
68,366,15701,1,0,0:0:0:0:
112,232,15845,2,0,L|95:158,1,68
11,63,16133,1,0,0:0:0:0:
184,184,16277,6,0,L|318:167,1,136
200,76,16710,2,0,L|267:84,1,68
432,120,16999,1,0,0:0:0:0:
404,218,17143,1,0,0:0:0:0:
377,316,17287,1,0,0:0:0:0:
318,167,17431,5,0,0:0:0:0:
488,196,17575,1,0,0:0:0:0:
389,224,17720,1,0,0:0:0:0:
292,252,17864,1,0,0:0:0:0:
472,288,18008,5,0,0:0:0:0:
314,99,18152,2,0,L|318:167,2,68
392,44,18585,6,0,B|416:36|416:36|444:44,1,50.9999984436036
236,48,18873,2,0,B|211:55|211:55|187:47,1,50.9999984436036
412,124,19162,1,0,0:0:0:0:
424,224,19450,2,0,L|328:308,1,102
424,224,19739,2,0,L|328:308,1,102
