osu file format v14

[General]
AudioFilename: audio.mp3
AudioLeadIn: 0
PreviewTime: 50638
Countdown: 0
SampleSet: Drum
StackLeniency: 0.7
Mode: 3
LetterboxInBreaks: 0
SpecialStyle: 0
WidescreenStoryboard: 1

[Editor]
Bookmarks: 17150,28312,39475,50638,72964
DistanceSpacing: 5.5
BeatDivisor: 4
GridSize: 32
TimelineZoom: 0.9999998

[Metadata]
Title:MOBO * MOGA
TitleUnicode:MOBO★MOGA
Artist:Orange Lounge
ArtistUnicode:Orange Lounge
Creator:Xnery
Version:Normal
Source:Dance Maniax
Tags:舟木智介 tomosuke funaki 徳井志津江 shizue tokui 桜井敏郎 toshio sakurai フレンチポップ video game jazz french pop chanson モボ・モガ modern boy girl dance maniax soundtrack tocp-64067 beatmania iidx 5th style original soundtracks kmca-106 ddr dancedancerevolution extreme pop'n music 8 bemani best for the 10th anniversary disc 5 lc-1617 bossa nova lounge house drum'n'bass drum and bass dnb ♪♪♪♪♪ tart&toffee
BeatmapID:3081229
BeatmapSetID:1501294

[Difficulty]
HPDrainRate:6.5
CircleSize:4
OverallDifficulty:6.5
ApproachRate:5
SliderMultiplier:1.4
SliderTickRate:1

[Events]
//Background and Video events
0,0,"mobomoga.jpg",0,0
//Break Periods
//Storyboard Layer 0 (Background)
//Storyboard Layer 1 (Fail)
//Storyboard Layer 2 (Pass)
//Storyboard Layer 3 (Foreground)
//Storyboard Layer 4 (Overlay)
//Storyboard Sound Samples
Sample,50464,0,"drum-hitwhistle.wav",50
Sample,56089,0,"shortdrumthing.wav",50
Sample,56176,0,"shortdrumthing.wav",50
Sample,67251,0,"shortdrumthing.wav",50
Sample,67339,0,"shortdrumthing.wav",50

[TimingPoints]
406,348.837209302326,4,3,1,50,1,0
50638,-100,4,3,1,50,0,1
72964,-100,4,3,1,50,0,0

[HitObjects]
448,192,406,5,0,0:0:0:0:
64,192,754,1,0,0:0:0:70:LR_Clap hollow echo.wav
448,192,754,1,0,0:0:0:0:
320,192,1103,1,0,0:0:0:0:
320,192,1278,1,0,0:0:0:0:
64,192,1452,1,0,0:0:0:70:LR_Clap hollow echo.wav
448,192,1452,1,0,0:0:0:0:
192,192,1626,1,0,0:0:0:0:
192,192,2150,1,0,0:0:0:70:LR_Clap hollow echo.wav
448,192,2150,1,0,0:0:0:0:
64,192,2499,1,0,0:0:0:0:
64,192,2673,1,0,0:0:0:70:LR_Clap hollow echo.wav
192,192,2673,1,0,0:0:0:0:
320,192,2847,1,0,0:0:0:70:LR_Clap hollow echo.wav
448,192,2847,1,0,0:0:0:0:
64,192,3022,1,0,0:0:0:0:
448,192,3196,1,0,0:0:0:0:
64,192,3545,1,0,0:0:0:70:LR_Clap hollow echo.wav
448,192,3545,1,0,0:0:0:0:
320,192,3894,1,0,0:0:0:0:
320,192,4068,1,0,0:0:0:0:
64,192,4243,1,0,0:0:0:70:LR_Clap hollow echo.wav
448,192,4243,1,0,0:0:0:0:
192,192,4417,1,0,0:0:0:0:
192,192,4940,1,0,0:0:0:70:LR_Clap hollow echo.wav
448,192,4940,1,0,0:0:0:0:
64,192,5289,1,0,0:0:0:0:
64,192,5464,1,0,0:0:0:70:LR_Clap hollow echo.wav
192,192,5464,1,0,0:0:0:0:
320,192,5638,1,0,0:0:0:70:LR_Clap hollow echo.wav
448,192,5638,1,0,0:0:0:0:
64,192,5812,1,0,0:0:0:0:
320,192,5987,1,4,0:0:0:0:
448,192,5987,1,0,0:0:0:0:
64,192,6336,1,0,0:0:0:70:LR_Clap hollow echo.wav
448,192,6336,1,0,0:0:0:0:
192,192,6510,1,0,0:0:0:0:
320,192,6685,1,0,0:0:0:0:
320,192,6859,1,0,0:0:0:0:
64,192,7033,1,0,0:0:0:70:LR_Clap hollow echo.wav
448,192,7033,1,0,0:0:0:0:
192,192,7208,1,0,0:0:0:0:
192,192,7557,1,0,0:0:0:0:
320,192,7731,1,0,0:0:0:70:LR_Clap hollow echo.wav
448,192,7731,1,0,0:0:0:0:
64,192,7906,1,0,0:0:0:0:
64,192,8254,1,0,0:0:0:70:LR_Clap hollow echo.wav
192,192,8254,1,0,0:0:0:0:
320,192,8429,1,0,0:0:0:70:LR_Clap hollow echo.wav
448,192,8429,1,0,0:0:0:0:
64,192,8603,1,0,0:0:0:0:
448,192,8778,1,0,0:0:0:0:
64,192,9126,1,0,0:0:0:70:LR_Clap hollow echo.wav
448,192,9126,1,0,0:0:0:0:
192,192,9301,1,0,0:0:0:0:
320,192,9475,1,0,0:0:0:0:
320,192,9650,1,0,0:0:0:0:
64,192,9824,1,0,0:0:0:70:LR_Clap hollow echo.wav
448,192,9824,1,0,0:0:0:0:
192,192,9999,1,0,0:0:0:0:
192,192,10347,1,0,0:0:0:0:
320,192,10522,1,0,0:0:0:70:LR_Clap hollow echo.wav
448,192,10522,1,0,0:0:0:0:
64,192,10696,1,0,0:0:0:0:
64,192,11045,1,0,0:0:0:70:LR_Clap hollow echo.wav
192,192,11045,1,0,0:0:0:0:
320,192,11219,1,0,0:0:0:70:LR_Clap hollow echo.wav
448,192,11219,1,0,0:0:0:0:
192,192,11394,1,0,0:0:0:0:
448,192,11568,1,0,0:0:0:0:
64,192,11917,1,0,0:0:0:70:LR_Clap hollow echo.wav
448,192,11917,1,0,0:0:0:0:
192,192,12092,1,0,0:0:0:0:
320,192,12266,1,0,0:0:0:0:
320,192,12440,1,0,0:0:0:0:
64,192,12615,1,0,0:0:0:70:LR_Clap hollow echo.wav
448,192,12615,1,0,0:0:0:0:
192,192,12789,1,0,0:0:0:0:
192,192,13138,1,0,0:0:0:0:
320,192,13312,1,0,0:0:0:70:LR_Clap hollow echo.wav
448,192,13312,1,0,0:0:0:0:
64,192,13487,1,0,0:0:0:0:
64,192,13836,1,0,0:0:0:70:LR_Clap hollow echo.wav
192,192,13836,1,0,0:0:0:0:
320,192,14010,1,0,0:0:0:70:LR_Clap hollow echo.wav
448,192,14010,1,0,0:0:0:0:
64,192,14185,1,0,0:0:0:0:
192,192,14359,1,0,0:0:0:70:LR_Snare Hit Hard.wav
320,192,14359,1,0,0:0:0:0:
64,192,14621,1,0,0:0:0:70:LR_Snare Hit Hard.wav
448,192,14708,1,0,0:0:0:70:LR_Snare Hollow.wav
192,192,14882,1,0,0:0:0:70:LR_Snare Hit Hard.wav
320,192,14882,1,0,0:0:0:0:
64,192,15144,1,0,0:0:0:70:LR_Snare Hit Hard.wav
448,192,15231,1,0,0:0:0:70:LR_Snare Hollow.wav
192,192,15406,1,0,0:0:0:70:LR_Snare Hit Hard.wav
320,192,15406,1,0,0:0:0:0:
64,192,15493,1,0,0:0:0:70:LR_Snare Hit Hard.wav
320,192,15754,1,8,0:0:0:0:
448,192,15754,1,0,0:0:0:0:
64,192,15929,1,0,0:0:0:0:
320,192,16016,1,0,0:0:0:0:
320,192,16190,1,0,0:0:0:0:
64,192,16278,1,8,0:0:0:0:
192,192,16278,1,0,0:0:0:0:
448,192,16452,1,0,0:0:0:0:
192,192,16539,1,0,0:0:0:0:
192,192,16714,1,0,0:0:0:0:
448,192,16801,1,2,0:0:0:0:
320,192,16888,1,0,0:0:0:0:
64,192,16975,1,8,0:0:0:0:
192,192,16975,1,0,0:0:0:0:
320,192,17150,1,2,0:0:0:0:
448,192,17150,128,4,17499:0:0:0:0:
64,192,17499,128,8,17673:0:0:0:0:
192,192,17499,1,0,0:0:0:0:
448,192,17673,1,0,0:0:0:0:
320,192,17760,1,0,0:0:0:0:
192,192,17847,128,0,18022:0:0:0:0:
448,192,18022,128,2,18196:0:0:0:0:
64,192,18196,1,8,0:0:0:0:
192,192,18196,1,0,0:0:0:0:
320,192,18371,128,0,18545:0:0:0:0:
448,192,18545,1,2,0:0:0:0:
192,192,18719,1,0,0:0:0:0:
320,192,18894,1,8,0:0:0:0:
448,192,18894,1,0,0:0:0:0:
64,192,19068,1,0,0:0:0:0:
192,192,19156,1,0,0:0:0:0:
320,192,19243,1,0,0:0:0:0:
64,192,19417,1,2,0:0:0:0:
320,192,19592,1,8,0:0:0:0:
448,192,19592,1,0,0:0:0:0:
192,192,19766,1,0,0:0:0:0:
320,192,19940,1,2,0:0:0:0:
448,192,19940,128,0,20289:0:0:0:0:
64,192,20289,128,8,20464:0:0:0:0:
192,192,20289,1,0,0:0:0:0:
448,192,20464,1,0,0:0:0:0:
320,192,20551,1,0,0:0:0:0:
192,192,20638,128,0,20812:0:0:0:0:
448,192,20812,128,2,20987:0:0:0:0:
64,192,20987,1,8,0:0:0:0:
192,192,20987,1,0,0:0:0:0:
320,192,21161,128,0,21336:0:0:0:0:
448,192,21336,1,2,0:0:0:0:
192,192,21510,1,0,0:0:0:0:
320,192,21685,1,8,0:0:0:0:
448,192,21685,1,0,0:0:0:0:
64,192,21859,1,0,0:0:0:0:
192,192,21946,1,0,0:0:0:0:
320,192,22033,1,0,0:0:0:0:
64,192,22208,1,2,0:0:0:0:
320,192,22382,1,8,0:0:0:0:
448,192,22382,1,0,0:0:0:0:
192,192,22557,1,0,0:0:0:0:
320,192,22731,1,2,0:0:0:0:
448,192,22731,128,0,23080:0:0:0:0:
64,192,23080,128,8,23254:0:0:0:0:
192,192,23080,1,0,0:0:0:0:
448,192,23254,1,0,0:0:0:0:
320,192,23342,1,0,0:0:0:0:
192,192,23429,128,0,23603:0:0:0:0:
448,192,23603,128,2,23778:0:0:0:0:
64,192,23778,1,8,0:0:0:0:
192,192,23778,1,0,0:0:0:0:
320,192,23952,128,0,24126:0:0:0:0:
448,192,24126,1,2,0:0:0:0:
192,192,24301,1,0,0:0:0:0:
320,192,24475,1,8,0:0:0:0:
448,192,24475,1,0,0:0:0:0:
64,192,24650,1,0,0:0:0:0:
192,192,24737,1,0,0:0:0:0:
320,192,24824,1,0,0:0:0:0:
64,192,24999,1,2,0:0:0:0:
320,192,25173,1,8,0:0:0:0:
448,192,25173,1,0,0:0:0:0:
192,192,25347,1,0,0:0:0:0:
320,192,25522,1,2,0:0:0:0:
448,192,25522,1,0,0:0:0:0:
320,192,26219,1,2,0:0:0:0:
448,192,26219,1,0,0:0:0:0:
320,192,26917,1,2,0:0:0:0:
448,192,26917,1,0,0:0:0:0:
64,192,27179,1,0,0:0:0:0:
448,192,27266,1,0,0:0:0:70:LR_Snare Hit Hard.wav
448,192,27440,1,0,0:0:0:70:LR_Snare Hit Hard.wav
320,192,27702,1,0,0:0:0:70:LR_Snare Hit Hard.wav
64,192,27876,1,0,0:0:0:70:LR_Snare Hit Hard.wav
192,192,27964,128,0,28138:0:0:0:70:LR_Snare Hit Hard.wav
320,192,28138,128,0,28312:0:0:0:0:
64,192,28312,1,4,0:0:0:0:
448,192,28312,128,2,28661:0:0:0:0:
64,192,28661,1,8,0:0:0:0:
192,192,28661,1,0,0:0:0:0:
448,192,28836,1,0,0:0:0:0:
320,192,28923,1,0,0:0:0:0:
192,192,29010,1,0,0:0:0:0:
64,192,29185,1,2,0:0:0:0:
320,192,29359,1,8,0:0:0:0:
448,192,29359,1,0,0:0:0:0:
64,192,29708,1,2,0:0:0:0:
192,192,29882,1,0,0:0:0:0:
320,192,30057,1,8,0:0:0:0:
448,192,30057,1,0,0:0:0:0:
64,192,30231,1,0,0:0:0:0:
192,192,30318,1,0,0:0:0:0:
320,192,30406,1,0,0:0:0:0:
448,192,30580,1,2,0:0:0:0:
64,192,30754,1,8,0:0:0:0:
192,192,30754,1,0,0:0:0:0:
448,192,31103,128,2,31452:0:0:0:0:
192,192,31452,1,8,0:0:0:0:
320,192,31452,1,0,0:0:0:0:
64,192,31626,128,0,31975:0:0:0:0:
192,192,31714,1,0,0:0:0:0:
320,192,31801,1,0,0:0:0:0:
448,192,31975,1,2,0:0:0:0:
64,192,32150,1,8,0:0:0:0:
192,192,32150,1,0,0:0:0:0:
320,192,32499,1,2,0:0:0:0:
64,192,32847,1,8,0:0:0:0:
192,192,32847,1,0,0:0:0:0:
448,192,33022,1,0,0:0:0:0:
320,192,33109,1,0,0:0:0:0:
192,192,33196,1,0,0:0:0:0:
64,192,33371,1,2,0:0:0:0:
320,192,33545,1,8,0:0:0:0:
448,192,33545,1,0,0:0:0:0:
192,192,33719,1,0,0:0:0:0:
64,192,33894,128,2,34243:0:0:0:0:
192,192,34243,1,8,0:0:0:0:
320,192,34243,1,0,0:0:0:0:
448,192,34417,128,0,34766:0:0:0:0:
320,192,34504,1,0,0:0:0:0:
192,192,34592,1,0,0:0:0:0:
64,192,34766,1,2,0:0:0:0:
320,192,34940,1,8,0:0:0:0:
448,192,34940,1,0,0:0:0:0:
64,192,35289,1,2,0:0:0:0:
192,192,35464,1,0,0:0:0:0:
320,192,35638,1,8,0:0:0:0:
448,192,35638,1,0,0:0:0:0:
64,192,35812,1,0,0:0:0:0:
192,192,35900,1,0,0:0:0:0:
320,192,35987,1,0,0:0:0:0:
448,192,36161,1,2,0:0:0:0:
64,192,36336,1,8,0:0:0:0:
192,192,36336,128,0,36685:0:0:0:0:
320,192,36685,128,2,37033:0:0:0:0:
64,192,37033,1,8,0:0:0:0:
192,192,37033,1,0,0:0:0:0:
448,192,37208,1,0,0:0:0:0:
320,192,37295,1,0,0:0:0:0:
192,192,37382,1,0,0:0:0:0:
64,192,37557,1,2,0:0:0:0:
320,192,37731,1,8,0:0:0:0:
448,192,37731,1,0,0:0:0:0:
192,192,38080,1,2,0:0:0:0:
320,192,38429,1,8,0:0:0:0:
448,192,38429,1,0,0:0:0:0:
64,192,38603,1,0,0:0:0:0:
192,192,38690,1,0,0:0:0:0:
320,192,38778,1,0,0:0:0:0:
448,192,38952,1,2,0:0:0:0:
64,192,39126,1,8,0:0:0:0:
192,192,39126,1,0,0:0:0:0:
320,192,39475,1,4,0:0:0:0:
448,192,39475,128,2,39824:0:0:0:0:
64,192,39824,1,8,0:0:0:0:
192,192,39824,1,0,0:0:0:0:
320,192,39999,1,2,0:0:0:0:
192,192,40173,128,0,40522:0:0:0:0:
320,192,40347,1,8,0:0:0:0:
448,192,40347,1,0,0:0:0:0:
64,192,40522,1,0,0:0:0:0:
448,192,40609,1,0,0:0:0:0:
320,192,40696,1,0,0:0:0:0:
64,192,40871,1,2,0:0:0:0:
448,192,41045,1,0,0:0:0:0:
64,192,41219,1,8,0:0:0:0:
192,192,41219,1,0,0:0:0:0:
320,192,41394,1,2,0:0:0:0:
192,192,41568,128,0,41743:0:0:0:0:
320,192,41743,1,8,0:0:0:0:
448,192,41743,1,0,0:0:0:0:
64,192,41917,1,0,0:0:0:0:
192,192,42004,1,0,0:0:0:0:
320,192,42092,1,0,0:0:0:0:
448,192,42266,128,2,42615:0:0:0:0:
64,192,42615,1,8,0:0:0:0:
192,192,42615,1,0,0:0:0:0:
320,192,42789,1,2,0:0:0:0:
192,192,42964,128,0,43312:0:0:0:0:
320,192,43138,1,8,0:0:0:0:
448,192,43138,1,0,0:0:0:0:
64,192,43312,1,0,0:0:0:0:
448,192,43400,1,0,0:0:0:0:
320,192,43487,1,0,0:0:0:0:
64,192,43661,1,2,0:0:0:0:
448,192,43836,1,0,0:0:0:0:
64,192,44010,1,8,0:0:0:0:
192,192,44010,1,0,0:0:0:0:
320,192,44185,1,2,0:0:0:0:
192,192,44359,128,0,44533:0:0:0:0:
320,192,44533,1,8,0:0:0:0:
448,192,44533,1,0,0:0:0:0:
64,192,44708,1,0,0:0:0:0:
192,192,44795,1,0,0:0:0:0:
320,192,44882,1,0,0:0:0:0:
448,192,45057,128,2,45406:0:0:0:0:
64,192,45406,1,8,0:0:0:0:
192,192,45406,1,0,0:0:0:0:
320,192,45580,1,2,0:0:0:0:
192,192,45754,128,0,46103:0:0:0:0:
320,192,45929,1,8,0:0:0:0:
448,192,45929,1,0,0:0:0:0:
64,192,46103,1,0,0:0:0:0:
448,192,46190,1,0,0:0:0:0:
320,192,46278,1,0,0:0:0:0:
64,192,46452,1,2,0:0:0:0:
448,192,46626,1,0,0:0:0:0:
64,192,46801,1,8,0:0:0:0:
192,192,46801,1,0,0:0:0:0:
320,192,46975,1,2,0:0:0:0:
192,192,47150,128,0,47324:0:0:0:0:
64,192,47324,1,8,0:0:0:0:
448,192,47324,1,0,0:0:0:0:
320,192,47499,1,0,0:0:0:0:
192,192,47586,1,0,0:0:0:0:
64,192,47673,1,0,0:0:0:0:
320,192,47847,1,4,0:0:0:0:
448,192,47847,1,2,0:0:0:0:
320,192,48545,1,4,0:0:0:0:
448,192,48545,1,2,0:0:0:0:
320,192,49243,1,4,0:0:0:0:
448,192,49243,1,2,0:0:0:0:
64,192,49940,1,0,0:0:0:70:tom.wav
448,192,50115,1,0,0:0:0:0:
320,192,50202,1,0,0:0:0:70:LR_Snare Hit Hard.wav
64,192,50289,1,0,0:0:0:70:LR_Snare Hit Hard.wav
192,192,50406,1,0,0:0:0:0:
320,192,50522,1,0,0:0:0:0:
64,192,50638,1,4,0:0:0:0:
448,192,50638,1,2,0:0:0:0:
64,192,50987,1,8,0:0:0:0:
192,192,50987,1,0,0:0:0:0:
448,192,51161,1,2,0:0:0:0:
192,192,51249,1,0,0:0:0:0:
320,192,51336,1,0,0:0:0:0:
64,192,51510,1,8,0:0:0:0:
192,192,51510,1,0,0:0:0:0:
448,192,51685,1,0,0:0:0:0:
192,192,51772,1,0,0:0:0:0:
320,192,51859,1,0,0:0:0:0:
64,192,52033,1,2,0:0:0:0:
192,192,52208,1,0,0:0:0:0:
320,192,52382,1,8,0:0:0:0:
448,192,52382,1,0,0:0:0:0:
64,192,52557,1,0,0:0:0:0:
320,192,52644,1,0,0:0:0:0:
192,192,52731,1,0,0:0:0:0:
320,192,52906,1,8,0:0:0:0:
448,192,52906,1,0,0:0:0:0:
64,192,53080,1,0,0:0:0:0:
320,192,53167,1,0,0:0:0:0:
192,192,53254,1,0,0:0:0:0:
64,192,53429,1,8,0:0:0:0:
448,192,53429,1,2,0:0:0:0:
192,192,53603,1,0,0:0:0:0:
320,192,53690,1,0,0:0:0:0:
64,192,53778,1,8,0:0:0:0:
448,192,53778,1,0,0:0:0:0:
192,192,53952,1,2,0:0:0:0:
320,192,54039,1,0,0:0:0:0:
64,192,54126,1,0,0:0:0:0:
448,192,54301,1,0,0:0:0:0:
64,192,54475,1,0,0:0:0:0:
320,192,54650,1,0,0:0:0:0:
64,192,54824,1,8,0:0:0:0:
192,192,54824,1,0,0:0:0:0:
448,192,54999,1,0,0:0:0:0:
320,192,55086,1,0,0:0:0:0:
192,192,55173,1,2,0:0:0:0:
64,192,55347,1,0,0:0:0:0:
192,192,55522,1,8,0:0:0:0:
448,192,55522,1,0,0:0:0:0:
320,192,55696,1,0,0:0:0:0:
192,192,55871,1,8,0:0:0:0:
448,192,55871,1,0,0:0:0:0:
320,192,56045,1,0,0:0:0:70:shortdrumthing.wav
192,192,56132,1,0,0:0:0:70:shortdrumthing.wav
64,192,56219,1,2,0:0:0:0:
64,192,56568,1,8,0:0:0:0:
192,192,56568,1,0,0:0:0:0:
320,192,56743,1,2,0:0:0:0:
64,192,56830,1,0,0:0:0:0:
448,192,56917,1,0,0:0:0:0:
192,192,57092,1,0,0:0:0:0:
64,192,57266,1,8,0:0:0:0:
320,192,57266,1,0,0:0:0:0:
448,192,57440,1,0,0:0:0:0:
320,192,57528,1,0,0:0:0:0:
192,192,57615,1,0,0:0:0:0:
64,192,57789,1,8,0:0:0:0:
320,192,57789,1,0,0:0:0:0:
192,192,57964,1,8,0:0:0:0:
448,192,57964,1,0,0:0:0:0:
64,192,58138,1,0,0:0:0:0:
192,192,58225,1,0,0:0:0:0:
320,192,58312,1,8,0:0:0:0:
448,192,58312,1,0,0:0:0:0:
192,192,58487,1,2,0:0:0:0:
64,192,58661,1,0,0:0:0:0:
320,192,58836,1,8,0:0:0:0:
448,192,58836,1,0,0:0:0:0:
192,192,58923,1,8,0:0:0:0:
320,192,59010,1,2,0:0:0:0:
64,192,59185,1,0,0:0:0:0:
320,192,59359,1,8,0:0:0:0:
448,192,59359,1,0,0:0:0:0:
64,192,59533,1,2,0:0:0:0:
192,192,59621,1,0,0:0:0:0:
320,192,59708,1,0,0:0:0:0:
64,192,59882,1,8,0:0:0:0:
192,192,59882,1,0,0:0:0:0:
448,192,60057,1,0,0:0:0:0:
320,192,60144,1,0,0:0:0:0:
192,192,60231,1,0,0:0:0:0:
64,192,60406,1,8,0:0:0:0:
320,192,60406,1,0,0:0:0:0:
192,192,60580,1,2,0:0:0:0:
64,192,60754,1,8,0:0:0:0:
320,192,60754,1,0,0:0:0:0:
448,192,60929,1,0,0:0:0:0:
320,192,61103,128,2,61278:0:0:0:0:
64,192,61278,128,0,61452:0:0:0:0:
192,192,61452,128,0,61626:0:0:0:0:
320,192,61626,128,0,61801:0:0:0:0:
64,192,61801,1,4,0:0:0:0:
448,192,61801,1,2,0:0:0:0:
64,192,62150,1,8,0:0:0:0:
192,192,62150,1,0,0:0:0:0:
448,192,62324,1,2,0:0:0:0:
192,192,62411,1,0,0:0:0:0:
320,192,62499,1,0,0:0:0:0:
64,192,62673,1,8,0:0:0:0:
192,192,62673,1,0,0:0:0:0:
448,192,62847,1,0,0:0:0:0:
192,192,62935,1,0,0:0:0:0:
320,192,63022,1,0,0:0:0:0:
64,192,63196,1,2,0:0:0:0:
192,192,63371,1,0,0:0:0:0:
320,192,63545,1,8,0:0:0:0:
448,192,63545,1,0,0:0:0:0:
64,192,63719,1,0,0:0:0:0:
320,192,63807,1,0,0:0:0:0:
192,192,63894,1,0,0:0:0:0:
320,192,64068,1,8,0:0:0:0:
448,192,64068,1,0,0:0:0:0:
64,192,64243,1,0,0:0:0:0:
320,192,64330,1,0,0:0:0:0:
192,192,64417,1,0,0:0:0:0:
64,192,64592,1,8,0:0:0:0:
448,192,64592,1,2,0:0:0:0:
192,192,64766,1,0,0:0:0:0:
320,192,64853,1,0,0:0:0:0:
64,192,64940,1,8,0:0:0:0:
448,192,64940,1,0,0:0:0:0:
192,192,65115,1,2,0:0:0:0:
320,192,65202,1,0,0:0:0:0:
64,192,65289,1,0,0:0:0:0:
448,192,65464,1,0,0:0:0:0:
64,192,65638,1,0,0:0:0:0:
320,192,65812,1,0,0:0:0:0:
64,192,65987,1,8,0:0:0:0:
192,192,65987,1,0,0:0:0:0:
448,192,66161,1,0,0:0:0:0:
320,192,66249,1,0,0:0:0:0:
192,192,66336,1,2,0:0:0:0:
64,192,66510,1,0,0:0:0:0:
192,192,66685,1,8,0:0:0:0:
448,192,66685,1,0,0:0:0:0:
320,192,66859,1,0,0:0:0:0:
192,192,67033,1,8,0:0:0:0:
448,192,67033,1,0,0:0:0:0:
320,192,67208,1,0,0:0:0:70:shortdrumthing.wav
192,192,67295,1,0,0:0:0:70:shortdrumthing.wav
64,192,67382,1,2,0:0:0:0:
64,192,67731,1,8,0:0:0:0:
192,192,67731,1,0,0:0:0:0:
320,192,67906,1,2,0:0:0:0:
192,192,67993,1,0,0:0:0:0:
64,192,68080,1,0,0:0:0:0:
448,192,68254,1,0,0:0:0:0:
64,192,68429,1,8,0:0:0:0:
320,192,68429,1,0,0:0:0:0:
448,192,68603,1,0,0:0:0:0:
320,192,68690,1,0,0:0:0:0:
192,192,68778,1,0,0:0:0:0:
64,192,68952,1,8,0:0:0:0:
320,192,68952,1,0,0:0:0:0:
192,192,69126,1,8,0:0:0:0:
448,192,69126,1,0,0:0:0:0:
64,192,69301,1,0,0:0:0:0:
192,192,69388,1,0,0:0:0:0:
320,192,69475,1,8,0:0:0:0:
448,192,69475,1,0,0:0:0:0:
192,192,69650,1,2,0:0:0:0:
64,192,69824,1,0,0:0:0:0:
320,192,69999,1,8,0:0:0:0:
448,192,69999,1,0,0:0:0:0:
192,192,70086,1,8,0:0:0:0:
320,192,70173,1,2,0:0:0:0:
64,192,70347,1,0,0:0:0:0:
320,192,70522,1,8,0:0:0:0:
448,192,70522,1,0,0:0:0:0:
192,192,70696,1,2,0:0:0:0:
448,192,70783,1,0,0:0:0:0:
320,192,70871,1,0,0:0:0:0:
64,192,71045,1,8,0:0:0:0:
448,192,71045,1,0,0:0:0:0:
192,192,71219,1,0,0:0:0:0:
320,192,71307,1,0,0:0:0:0:
64,192,71394,1,0,0:0:0:0:
64,192,71568,1,4,0:0:0:0:
320,192,71568,1,2,0:0:0:0:
192,192,72092,1,4,0:0:0:0:
448,192,72092,128,2,72789:0:0:0:0:
64,192,72964,1,12,0:0:0:0:
448,192,72964,1,2,0:0:0:0:
192,192,73138,1,0,0:0:0:0:
64,192,73312,1,0,0:0:0:0:
192,192,73487,1,8,0:0:0:0:
448,192,73487,1,0,0:0:0:0:
64,192,73661,1,0,0:0:0:0:
320,192,73749,1,0,0:0:0:0:
320,192,73923,1,0,0:0:0:0:
64,192,74010,1,8,0:0:0:0:
448,192,74010,1,0,0:0:0:0:
320,192,74185,1,0,0:0:0:0:
448,192,74359,1,0,0:0:0:0:
64,192,74533,1,8,0:0:0:0:
320,192,74533,1,0,0:0:0:0:
448,192,74708,1,0,0:0:0:0:
192,192,74795,1,0,0:0:0:0:
192,192,74969,1,0,0:0:0:0:
64,192,75057,1,8,0:0:0:0:
448,192,75057,1,0,0:0:0:0:
192,192,75231,1,0,0:0:0:0:
64,192,75406,1,0,0:0:0:0:
192,192,75580,1,0,0:0:0:0:
64,192,75754,1,2,0:0:0:0:
320,192,75929,1,0,0:0:0:0:
64,192,76103,1,8,0:0:0:0:
192,192,76103,1,0,0:0:0:0:
320,192,76278,1,0,0:0:0:0:
64,192,76365,1,0,0:0:0:0:
64,192,76539,1,0,0:0:0:0:
320,192,76626,1,8,0:0:0:0:
448,192,76626,1,0,0:0:0:0:
192,192,76801,1,0,0:0:0:0:
448,192,76888,1,0,0:0:0:0:
448,192,77062,1,0,0:0:0:0:
192,192,77150,1,0,0:0:0:70:LR_Snare Hit Hard.wav
320,192,77150,1,0,0:0:0:0:
64,192,77411,1,0,0:0:0:70:LR_Snare Hit Hard.wav
448,192,77499,1,0,0:0:0:70:LR_Snare Hollow.wav
192,192,77673,1,0,0:0:0:70:LR_Snare Hit Hard.wav
320,192,77673,1,0,0:0:0:0:
64,192,77935,1,0,0:0:0:70:LR_Snare Hit Hard.wav
448,192,78022,1,0,0:0:0:70:LR_Snare Hollow.wav
192,192,78196,1,0,0:0:0:70:LR_Snare Hit Hard.wav
320,192,78196,1,0,0:0:0:0:
64,192,78283,1,0,0:0:0:70:LR_Snare Hit Hard.wav
320,192,78545,1,4,0:0:0:0:
448,192,78545,1,2,0:0:0:0:
320,192,79243,1,2,0:0:0:0:
448,192,79243,1,0,0:0:0:0:
320,192,80202,1,0,0:0:0:0:
64,192,80289,128,2,82731:0:0:0:0:
192,192,80289,1,0,0:0:0:0:
