osu file format v14

[General]
AudioFilename: audio.mp3
AudioLeadIn: 0
PreviewTime: 50638
Countdown: 0
SampleSet: Drum
StackLeniency: 0.7
Mode: 3
LetterboxInBreaks: 0
SpecialStyle: 0
WidescreenStoryboard: 1

[Editor]
Bookmarks: 17150,28312,39475,50638,72964
DistanceSpacing: 5.5
BeatDivisor: 4
GridSize: 32
TimelineZoom: 1.399999

[Metadata]
Title:MOBO * MOGA
TitleUnicode:MOBO★MOGA
Artist:Orange Lounge
ArtistUnicode:Orange Lounge
Creator:Xnery
Version:Easy
Source:Dance Maniax
Tags:舟木智介 tomosuke funaki 徳井志津江 shizue tokui 桜井敏郎 toshio sakurai フレンチポップ video game jazz french pop chanson モボ・モガ modern boy girl dance maniax soundtrack tocp-64067 beatmania iidx 5th style original soundtracks kmca-106 ddr dancedancerevolution extreme pop'n music 8 bemani best for the 10th anniversary disc 5 lc-1617 bossa nova lounge house drum'n'bass drum and bass dnb ♪♪♪♪♪ tart&toffee
BeatmapID:3202246
BeatmapSetID:1501294

[Difficulty]
HPDrainRate:6
CircleSize:4
OverallDifficulty:6
ApproachRate:5
SliderMultiplier:1.4
SliderTickRate:1

[Events]
//Background and Video events
0,0,"mobomoga.jpg",0,0
//Break Periods
//Storyboard Layer 0 (Background)
//Storyboard Layer 1 (Fail)
//Storyboard Layer 2 (Pass)
//Storyboard Layer 3 (Foreground)
//Storyboard Layer 4 (Overlay)
//Storyboard Sound Samples
Sample,1452,0,"LR_Clap hollow echo.wav",50
Sample,2847,0,"LR_Clap hollow echo.wav",50
Sample,4243,0,"LR_Clap hollow echo.wav",50
Sample,5638,0,"LR_Clap hollow echo.wav",50
Sample,7033,0,"LR_Clap hollow echo.wav",50
Sample,7731,0,"LR_Clap hollow echo.wav",50
Sample,8429,0,"LR_Clap hollow echo.wav",50
Sample,9824,0,"LR_Clap hollow echo.wav",50
Sample,10522,0,"LR_Clap hollow echo.wav",50
Sample,11219,0,"LR_Clap hollow echo.wav",50
Sample,12615,0,"LR_Clap hollow echo.wav",50
Sample,13312,0,"LR_Clap hollow echo.wav",50
Sample,14010,0,"LR_Clap hollow echo.wav",50
Sample,14621,0,"LR_Snare Hit Hard.wav",50
Sample,15144,0,"LR_Snare Hit Hard.wav",50
Sample,15493,0,"LR_Snare Hit Hard.wav",50
Sample,27876,0,"LR_Snare Hit Hard.wav",50
Sample,50202,0,"LR_Snare Hit Hard.wav",50
Sample,56089,0,"shortdrumthing.wav",50
Sample,56132,0,"shortdrumthing.wav",50
Sample,56176,0,"shortdrumthing.wav",50
Sample,58923,0,"drum-hitclap.wav",50
Sample,67251,0,"shortdrumthing.wav",50
Sample,67295,0,"shortdrumthing.wav",50
Sample,67339,0,"shortdrumthing.wav",50
Sample,70086,0,"drum-hitclap.wav",50
Sample,77411,0,"LR_Snare Hit Hard.wav",50
Sample,77935,0,"LR_Snare Hit Hard.wav",50
Sample,78283,0,"LR_Snare Hit Hard.wav",50

[TimingPoints]
406,348.837209302326,4,3,1,50,1,0
50638,-100,4,3,1,50,0,1
72964,-100,4,3,1,50,0,0

[HitObjects]
448,192,406,5,0,0:0:0:0:
448,192,754,1,0,0:0:0:70:LR_Clap hollow echo.wav
320,192,1103,1,0,0:0:0:0:
320,192,1278,1,0,0:0:0:0:
192,192,1626,1,0,0:0:0:0:
192,192,2150,1,0,0:0:0:70:LR_Clap hollow echo.wav
64,192,2499,1,0,0:0:0:0:
64,192,2673,1,0,0:0:0:70:LR_Clap hollow echo.wav
192,192,3022,1,0,0:0:0:0:
448,192,3196,1,0,0:0:0:0:
448,192,3545,1,0,0:0:0:70:LR_Clap hollow echo.wav
320,192,3894,1,0,0:0:0:0:
320,192,4068,1,0,0:0:0:0:
192,192,4417,1,0,0:0:0:0:
192,192,4940,1,0,0:0:0:70:LR_Clap hollow echo.wav
64,192,5289,1,0,0:0:0:0:
64,192,5464,1,0,0:0:0:70:LR_Clap hollow echo.wav
192,192,5812,1,0,0:0:0:0:
320,192,5987,1,4,0:0:0:0:
448,192,5987,1,0,0:0:0:0:
448,192,6336,1,0,0:0:0:70:LR_Clap hollow echo.wav
320,192,6685,1,0,0:0:0:0:
320,192,6859,1,0,0:0:0:0:
192,192,7208,1,0,0:0:0:0:
192,192,7557,1,0,0:0:0:0:
64,192,7906,1,0,0:0:0:0:
64,192,8254,1,0,0:0:0:70:LR_Clap hollow echo.wav
320,192,8603,1,0,0:0:0:0:
448,192,8778,1,0,0:0:0:0:
448,192,9126,1,0,0:0:0:70:LR_Clap hollow echo.wav
320,192,9475,1,0,0:0:0:0:
320,192,9650,1,0,0:0:0:0:
192,192,9999,1,0,0:0:0:0:
192,192,10347,1,0,0:0:0:0:
64,192,10696,1,0,0:0:0:0:
64,192,11045,1,0,0:0:0:70:LR_Clap hollow echo.wav
320,192,11394,1,0,0:0:0:0:
448,192,11568,1,0,0:0:0:0:
448,192,11917,1,0,0:0:0:70:LR_Clap hollow echo.wav
320,192,12266,1,0,0:0:0:0:
320,192,12440,1,0,0:0:0:0:
192,192,12789,1,0,0:0:0:0:
192,192,13138,1,0,0:0:0:0:
64,192,13487,1,0,0:0:0:0:
64,192,13836,1,0,0:0:0:70:LR_Clap hollow echo.wav
320,192,14185,1,0,0:0:0:0:
192,192,14359,1,0,0:0:0:70:LR_Snare Hit Hard.wav
320,192,14708,1,0,0:0:0:70:LR_Snare Hollow.wav
448,192,14708,1,0,0:0:0:0:
192,192,14882,1,0,0:0:0:70:LR_Snare Hit Hard.wav
320,192,15231,1,0,0:0:0:70:LR_Snare Hollow.wav
448,192,15231,1,0,0:0:0:0:
192,192,15406,1,0,0:0:0:70:LR_Snare Hit Hard.wav
64,192,15754,1,8,0:0:0:0:
448,192,15754,1,0,0:0:0:0:
320,192,16016,1,0,0:0:0:0:
64,192,16278,1,8,0:0:0:0:
448,192,16278,1,0,0:0:0:0:
192,192,16539,1,0,0:0:0:0:
64,192,16801,1,2,0:0:0:0:
320,192,16975,1,8,0:0:0:0:
448,192,16975,1,0,0:0:0:0:
64,192,17150,1,2,0:0:0:0:
192,192,17150,1,4,0:0:0:0:
320,192,17499,1,8,0:0:0:0:
448,192,17499,128,0,17847:0:0:0:0:
64,192,17847,1,0,0:0:0:0:
320,192,18022,1,2,0:0:0:0:
192,192,18196,1,8,0:0:0:0:
64,192,18371,1,0,0:0:0:0:
448,192,18545,1,2,0:0:0:0:
64,192,18894,1,8,0:0:0:0:
192,192,18894,1,0,0:0:0:0:
64,192,19417,1,2,0:0:0:0:
320,192,19592,1,8,0:0:0:0:
448,192,19592,1,0,0:0:0:0:
64,192,19940,1,2,0:0:0:0:
320,192,20289,1,8,0:0:0:0:
448,192,20289,128,0,20638:0:0:0:0:
64,192,20638,1,0,0:0:0:0:
320,192,20812,1,2,0:0:0:0:
192,192,20987,1,8,0:0:0:0:
64,192,21161,1,0,0:0:0:0:
448,192,21336,1,2,0:0:0:0:
64,192,21685,1,8,0:0:0:0:
192,192,21685,1,0,0:0:0:0:
64,192,22208,1,2,0:0:0:0:
320,192,22382,1,8,0:0:0:0:
448,192,22382,1,0,0:0:0:0:
64,192,22731,1,2,0:0:0:0:
320,192,23080,1,8,0:0:0:0:
448,192,23080,128,0,23429:0:0:0:0:
64,192,23429,1,0,0:0:0:0:
320,192,23603,1,2,0:0:0:0:
192,192,23778,1,8,0:0:0:0:
64,192,23952,1,0,0:0:0:0:
448,192,24126,1,2,0:0:0:0:
64,192,24475,1,8,0:0:0:0:
192,192,24475,1,0,0:0:0:0:
64,192,24999,1,2,0:0:0:0:
320,192,25173,1,8,0:0:0:0:
448,192,25173,1,0,0:0:0:0:
64,192,25522,1,2,0:0:0:0:
192,192,25522,1,0,0:0:0:0:
64,192,26219,1,2,0:0:0:0:
192,192,26219,1,0,0:0:0:0:
64,192,26917,1,2,0:0:0:0:
192,192,26917,1,0,0:0:0:0:
320,192,27266,1,0,0:0:0:70:LR_Snare Hit Hard.wav
64,192,27440,1,0,0:0:0:70:LR_Snare Hit Hard.wav
192,192,27702,1,0,0:0:0:70:LR_Snare Hit Hard.wav
448,192,27964,1,0,0:0:0:70:LR_Snare Hit Hard.wav
64,192,28312,1,4,0:0:0:0:
448,192,28312,128,2,28661:0:0:0:0:
320,192,28661,1,8,0:0:0:0:
192,192,28836,128,0,29185:0:0:0:0:
320,192,29185,1,2,0:0:0:0:
64,192,29359,1,8,0:0:0:0:
448,192,29359,1,0,0:0:0:0:
320,192,29708,128,2,30057:0:0:0:0:
192,192,30057,1,8,0:0:0:0:
64,192,30231,128,0,30580:0:0:0:0:
192,192,30580,1,2,0:0:0:0:
320,192,30754,1,8,0:0:0:0:
448,192,30754,1,0,0:0:0:0:
448,192,31103,128,2,31452:0:0:0:0:
320,192,31452,1,8,0:0:0:0:
192,192,31626,128,0,31975:0:0:0:0:
320,192,31975,1,2,0:0:0:0:
64,192,32150,1,8,0:0:0:0:
448,192,32150,1,0,0:0:0:0:
320,192,32499,128,2,32847:0:0:0:0:
192,192,32847,1,8,0:0:0:0:
64,192,33022,128,0,33371:0:0:0:0:
192,192,33371,1,2,0:0:0:0:
320,192,33545,1,8,0:0:0:0:
448,192,33545,1,0,0:0:0:0:
448,192,33894,128,2,34243:0:0:0:0:
320,192,34243,1,8,0:0:0:0:
192,192,34417,128,0,34766:0:0:0:0:
320,192,34766,1,2,0:0:0:0:
64,192,34940,1,8,0:0:0:0:
448,192,34940,1,0,0:0:0:0:
320,192,35289,128,2,35638:0:0:0:0:
192,192,35638,1,8,0:0:0:0:
64,192,35812,128,0,36161:0:0:0:0:
192,192,36161,1,2,0:0:0:0:
320,192,36336,1,8,0:0:0:0:
448,192,36336,1,0,0:0:0:0:
448,192,36685,128,2,37033:0:0:0:0:
320,192,37033,1,8,0:0:0:0:
192,192,37208,128,0,37557:0:0:0:0:
320,192,37557,1,2,0:0:0:0:
64,192,37731,1,8,0:0:0:0:
448,192,37731,1,0,0:0:0:0:
320,192,38080,128,2,38429:0:0:0:0:
192,192,38429,1,8,0:0:0:0:
64,192,38603,128,0,38952:0:0:0:0:
192,192,38952,1,2,0:0:0:0:
320,192,39126,1,8,0:0:0:0:
448,192,39126,1,0,0:0:0:0:
320,192,39475,1,4,0:0:0:0:
448,192,39475,1,2,0:0:0:0:
64,192,39650,1,0,0:0:0:0:
192,192,39824,1,8,0:0:0:0:
320,192,39824,1,0,0:0:0:0:
448,192,39999,128,2,40347:0:0:0:0:
64,192,40347,1,8,0:0:0:0:
192,192,40347,1,0,0:0:0:0:
320,192,40522,1,0,0:0:0:0:
192,192,40696,1,0,0:0:0:0:
64,192,40871,128,2,41219:0:0:0:0:
320,192,41219,1,8,0:0:0:0:
448,192,41219,1,0,0:0:0:0:
64,192,41394,1,2,0:0:0:0:
192,192,41568,1,0,0:0:0:0:
320,192,41743,128,8,42092:0:0:0:0:
448,192,41743,1,0,0:0:0:0:
448,192,42266,1,2,0:0:0:0:
64,192,42440,1,0,0:0:0:0:
192,192,42615,1,8,0:0:0:0:
320,192,42615,1,0,0:0:0:0:
448,192,42789,128,2,43138:0:0:0:0:
64,192,43138,1,8,0:0:0:0:
192,192,43138,1,0,0:0:0:0:
320,192,43312,1,0,0:0:0:0:
192,192,43487,1,0,0:0:0:0:
64,192,43661,128,2,44010:0:0:0:0:
320,192,44010,1,8,0:0:0:0:
448,192,44010,1,0,0:0:0:0:
64,192,44185,1,2,0:0:0:0:
192,192,44359,1,0,0:0:0:0:
320,192,44533,128,8,44882:0:0:0:0:
448,192,44533,1,0,0:0:0:0:
448,192,45057,1,2,0:0:0:0:
64,192,45231,1,0,0:0:0:0:
192,192,45406,1,8,0:0:0:0:
320,192,45406,1,0,0:0:0:0:
448,192,45580,128,2,45929:0:0:0:0:
64,192,45929,1,8,0:0:0:0:
192,192,45929,1,0,0:0:0:0:
320,192,46103,1,0,0:0:0:0:
192,192,46278,1,0,0:0:0:0:
64,192,46452,128,2,46801:0:0:0:0:
320,192,46801,1,8,0:0:0:0:
448,192,46801,1,0,0:0:0:0:
64,192,46975,1,2,0:0:0:0:
192,192,47150,1,0,0:0:0:0:
320,192,47324,128,8,47673:0:0:0:0:
448,192,47324,1,0,0:0:0:0:
64,192,47847,1,4,0:0:0:0:
192,192,47847,1,2,0:0:0:0:
64,192,48545,1,4,0:0:0:0:
192,192,48545,1,2,0:0:0:0:
64,192,49243,1,4,0:0:0:0:
192,192,49243,1,2,0:0:0:0:
320,192,49940,1,0,0:0:0:70:tom.wav
192,192,50289,1,0,0:0:0:70:LR_Snare Hit Hard.wav
320,192,50464,1,2,0:0:0:0:
64,192,50638,1,4,0:0:0:0:
448,192,50638,128,2,50987:0:0:0:0:
192,192,50987,1,8,0:0:0:0:
320,192,51161,128,2,51510:0:0:0:0:
448,192,51510,1,8,0:0:0:0:
192,192,51685,1,0,0:0:0:0:
320,192,51859,1,0,0:0:0:0:
64,192,52033,1,2,0:0:0:0:
448,192,52382,1,8,0:0:0:0:
192,192,52644,1,0,0:0:0:0:
448,192,52906,1,8,0:0:0:0:
192,192,53167,1,0,0:0:0:0:
64,192,53429,1,8,0:0:0:0:
448,192,53429,1,2,0:0:0:0:
448,192,53778,1,8,0:0:0:0:
64,192,53952,1,2,0:0:0:0:
192,192,54301,1,0,0:0:0:0:
320,192,54475,1,0,0:0:0:0:
64,192,54650,1,0,0:0:0:0:
448,192,54824,1,8,0:0:0:0:
192,192,55173,1,2,0:0:0:0:
320,192,55522,128,8,55871:0:0:0:0:
448,192,55871,1,8,0:0:0:0:
320,192,56045,1,0,0:0:0:70:shortdrumthing.wav
192,192,56219,128,2,56568:0:0:0:0:
320,192,56568,1,8,0:0:0:0:
64,192,56743,128,2,57266:0:0:0:0:
192,192,57266,1,8,0:0:0:0:
320,192,57440,1,0,0:0:0:0:
192,192,57789,1,8,0:0:0:0:
320,192,57964,1,8,0:0:0:0:
448,192,58312,1,8,0:0:0:0:
64,192,58487,1,2,0:0:0:0:
320,192,58836,1,8,0:0:0:0:
192,192,59010,1,2,0:0:0:0:
320,192,59359,1,8,0:0:0:0:
64,192,59533,1,2,0:0:0:0:
192,192,59882,1,8,0:0:0:0:
64,192,60057,1,0,0:0:0:0:
320,192,60406,1,8,0:0:0:0:
64,192,60580,1,2,0:0:0:0:
320,192,60754,1,8,0:0:0:0:
448,192,60929,1,0,0:0:0:0:
192,192,61103,128,2,61452:0:0:0:0:
320,192,61452,128,0,61801:0:0:0:0:
64,192,61801,1,4,0:0:0:0:
448,192,61801,128,2,62150:0:0:0:0:
192,192,62150,1,8,0:0:0:0:
320,192,62324,128,2,62673:0:0:0:0:
448,192,62673,1,8,0:0:0:0:
192,192,62847,1,0,0:0:0:0:
320,192,63022,1,0,0:0:0:0:
64,192,63196,1,2,0:0:0:0:
448,192,63545,1,8,0:0:0:0:
192,192,63807,1,0,0:0:0:0:
448,192,64068,1,8,0:0:0:0:
192,192,64330,1,0,0:0:0:0:
64,192,64592,1,8,0:0:0:0:
448,192,64592,1,2,0:0:0:0:
448,192,64940,1,8,0:0:0:0:
64,192,65115,1,2,0:0:0:0:
192,192,65464,1,0,0:0:0:0:
320,192,65638,1,0,0:0:0:0:
64,192,65812,1,0,0:0:0:0:
448,192,65987,1,8,0:0:0:0:
192,192,66336,1,2,0:0:0:0:
64,192,66685,1,8,0:0:0:0:
192,192,66859,1,0,0:0:0:0:
320,192,67033,1,8,0:0:0:0:
448,192,67208,1,0,0:0:0:70:shortdrumthing.wav
192,192,67382,128,2,67731:0:0:0:0:
320,192,67731,1,8,0:0:0:0:
64,192,67906,128,2,68429:0:0:0:0:
192,192,68429,1,8,0:0:0:0:
320,192,68603,1,0,0:0:0:0:
192,192,68952,1,8,0:0:0:0:
320,192,69126,1,8,0:0:0:0:
448,192,69475,1,8,0:0:0:0:
64,192,69650,1,2,0:0:0:0:
320,192,69999,1,8,0:0:0:0:
192,192,70173,1,2,0:0:0:0:
320,192,70522,1,8,0:0:0:0:
448,192,70696,128,2,71045:0:0:0:0:
320,192,71045,1,8,0:0:0:0:
192,192,71219,128,0,71568:0:0:0:0:
64,192,71568,1,4,0:0:0:0:
320,192,71568,1,2,0:0:0:0:
192,192,72092,1,4,0:0:0:0:
448,192,72092,128,2,72789:0:0:0:0:
64,192,72964,1,12,0:0:0:0:
192,192,72964,1,2,0:0:0:0:
448,192,73138,1,0,0:0:0:0:
192,192,73312,1,0,0:0:0:0:
320,192,73487,1,8,0:0:0:0:
448,192,73487,1,0,0:0:0:0:
192,192,73661,1,0,0:0:0:0:
64,192,74010,1,8,0:0:0:0:
192,192,74010,1,0,0:0:0:0:
320,192,74185,1,0,0:0:0:0:
64,192,74359,1,0,0:0:0:0:
320,192,74533,1,8,0:0:0:0:
448,192,74533,1,0,0:0:0:0:
64,192,74708,1,0,0:0:0:0:
320,192,75057,1,8,0:0:0:0:
448,192,75057,1,0,0:0:0:0:
192,192,75231,1,0,0:0:0:0:
448,192,75406,1,0,0:0:0:0:
192,192,75580,1,0,0:0:0:0:
448,192,75754,1,2,0:0:0:0:
64,192,76103,1,8,0:0:0:0:
448,192,76103,1,0,0:0:0:0:
192,192,76365,1,0,0:0:0:0:
64,192,76626,1,8,0:0:0:0:
448,192,76626,1,0,0:0:0:0:
320,192,76888,1,0,0:0:0:0:
192,192,77150,1,0,0:0:0:70:LR_Snare Hit Hard.wav
320,192,77499,1,0,0:0:0:70:LR_Snare Hollow.wav
448,192,77499,1,0,0:0:0:0:
192,192,77673,1,0,0:0:0:70:LR_Snare Hit Hard.wav
320,192,78022,1,0,0:0:0:70:LR_Snare Hollow.wav
448,192,78022,1,0,0:0:0:0:
192,192,78196,1,0,0:0:0:70:LR_Snare Hit Hard.wav
64,192,78545,1,4,0:0:0:0:
192,192,78545,1,2,0:0:0:0:
64,192,79243,1,2,0:0:0:0:
192,192,79243,1,0,0:0:0:0:
320,192,80115,1,0,0:0:0:0:
64,192,80289,128,2,82731:0:0:0:0:
192,192,80289,1,0,0:0:0:0:
