osu file format v14

[General]
AudioFilename: MOBOMOGA.ogg
AudioLeadIn: 0
PreviewTime:28938
Countdown: 0
SampleSet: Soft
StackLeniency: 0.3
Mode: 0
LetterboxInBreaks: 0
WidescreenStoryboard: 1

[Editor]
Bookmarks: 14298,14821,15345,49879,72903,82321
DistanceSpacing: 1.6
BeatDivisor: 4
GridSize: 8
TimelineZoom: 1.7

[Metadata]
Title:MOBO * MOGA
TitleUnicode:MOBO★MOGA
Artist:Orange Lounge
ArtistUnicode:Orange Lounge
Creator:Saturnalize
Version:Another
Source:Dance Maniax
Tags:舟木智介 tomosuke funaki 徳井志津江 shizue tokui 桜井敏郎 toshio sakurai フレンチポップ video game jazz french pop chanson モボ・モガ modern boy girl ost tocp-64067 beatmania iidx 5th style original soundtracks kmca-106 ddr dancedancerevolution extreme pop'n music 8 bemani best for the 10th anniversary disc 5 lc-1617 bossa nova lounge house drum'n'bass drum and bass dnb tart&toffee タルト&タフィ
BeatmapID:3737401
BeatmapSetID:1739817

[Difficulty]
HPDrainRate:5
CircleSize:4
OverallDifficulty:8
ApproachRate:9
SliderMultiplier:1.7
SliderTickRate:1

[Events]
//Background and Video events
0,0,"weeeemen.jpg",0,0
//Break Periods
//Storyboard Layer 0 (Background)
//Storyboard Layer 1 (Fail)
//Storyboard Layer 2 (Pass)
//Storyboard Layer 3 (Foreground)
//Storyboard Layer 4 (Overlay)
//Storyboard Sound Samples

[TimingPoints]
1380,348.837209302326,4,2,69,50,1,0
1380,-133.333333333333,4,2,69,50,0,0
6961,-117.647058823529,4,2,69,60,0,0
15333,-100,4,2,52,70,0,0
15464,-100,4,2,53,70,0,0
15551,-100,4,2,52,70,0,0
15987,-100,4,2,53,70,0,0
16074,-100,4,2,52,70,0,0
16510,-100,4,2,53,70,0,0
16598,-100,4,2,52,70,0,0
16728,-100,4,2,53,70,0,0
16816,-100,4,2,52,70,0,0
16902,-100,4,2,52,70,0,0
17034,-100,4,2,54,70,0,0
17076,-100,4,2,54,70,0,0
17121,-100,4,2,52,70,0,0
17252,-100,4,2,53,70,0,0
17339,-100,4,2,52,70,0,0
17426,-100,4,2,52,70,0,0
17557,-100,4,2,53,70,0,0
17600,-100,4,2,53,70,0,0
17644,-100,4,2,52,70,0,0
17774,-100,4,2,52,70,0,0
17949,-100,4,2,53,70,0,0
18124,-83.3333333333333,4,2,53,80,0,0
18909,-66.6666666666667,4,2,53,80,0,0
19345,-83.3333333333333,4,2,53,80,0,0
21786,-66.6666666666667,4,2,53,80,0,0
21961,-83.3333333333333,4,2,53,80,0,0
24577,-66.6666666666667,4,2,53,80,0,0
24752,-83.3333333333333,4,2,53,80,0,0
26496,-83.3333333333333,4,2,54,80,0,0
26583,-83.3333333333333,4,2,53,5,0,0
26670,-83.3333333333333,4,2,54,80,0,0
27281,-83.3333333333333,4,2,53,5,0,0
27368,-83.3333333333333,4,2,54,80,0,0
27978,-83.3333333333333,4,2,53,5,0,0
28153,-83.3333333333333,4,2,52,80,0,0
28239,-83.3333333333333,4,2,52,80,0,0
28938,-100,4,2,52,70,0,0
29286,-83.3333333333333,4,2,53,70,0,0
30332,-83.3333333333333,4,2,53,70,0,0
40449,-83.3333333333333,4,2,54,70,0,0
40972,-83.3333333333333,4,2,54,70,0,0
48909,-83.3333333333333,4,2,53,5,0,0
48996,-83.3333333333333,4,2,54,70,0,0
49606,-83.3333333333333,4,2,53,5,0,0
49693,-83.3333333333333,4,2,54,70,0,0
50304,-83.3333333333333,4,2,53,5,0,0
50391,-83.3333333333333,4,2,54,70,0,0
50914,-83.3333333333333,4,2,52,70,0,0
51612,-83.3333333333333,4,2,54,70,0,0
78124,-83.3333333333333,4,2,52,70,0,0
78255,-83.3333333333333,4,2,53,70,0,0
78342,-83.3333333333333,4,2,52,70,0,0
78778,-83.3333333333333,4,2,53,70,0,0
78865,-83.3333333333333,4,2,52,70,0,0
79301,-83.3333333333333,4,2,53,70,0,0
79388,-83.3333333333333,4,2,52,70,0,0
79519,-83.3333333333333,4,2,54,70,0,0
79606,-83.3333333333333,4,2,53,5,0,0
79693,-83.3333333333333,4,2,54,70,0,0
80304,-83.3333333333333,4,2,53,5,0,0
80391,-83.3333333333333,4,2,53,70,0,0
81263,-111.111111111111,4,2,53,70,0,0
81350,-111.111111111111,4,2,53,5,0,0

[Colours]
Combo1 : 255,168,125
Combo2 : 255,255,128
Combo3 : 255,128,128

[HitObjects]
78,152,1380,6,0,P|100:128|126:111,1,63.7500024318696,2|0,0:0|0:0,0:0:0:0:
160,29,1728,2,0,P|190:36|217:51,1,63.7500024318696,10|0,0:1|0:0,0:0:0:0:
307,38,2077,1,2,0:0:0:0:
307,38,2252,2,0,P|315:68|317:100,1,63.7500024318696,2|8,0:0|0:1,0:0:0:0:
389,160,2600,1,2,0:0:0:0:
389,160,2775,2,0,P|370:186|357:215,1,63.7500024318696
283,264,3124,2,0,P|296:293|315:318,1,63.7500024318696,10|0,0:1|0:0,0:0:0:0:
389,368,3473,1,2,0:0:0:0:
224,348,3647,1,10,0:1:0:0:
224,348,3821,1,8,0:1:0:0:
136,367,3996,1,0,0:0:0:0:
49,382,4170,6,0,P|48:350|56:319,1,63.7500024318696,2|0,0:0|0:0,0:0:0:0:
38,231,4519,2,0,P|65:214|95:206,1,63.7500024318696,10|0,0:1|0:0,0:0:0:0:
163,145,4868,1,2,0:0:0:0:
163,145,5042,2,0,P|190:160|213:182,1,63.7500024318696,2|8,0:0|0:1,0:0:0:0:
281,248,5391,1,2,0:0:0:0:
281,248,5565,2,0,P|308:232|331:210,1,63.7500024318696
420,199,5914,2,0,P|420:167|412:136,1,63.7500024318696,10|0,0:1|0:0,0:0:0:0:
350,71,6263,1,2,0:0:0:0:
500,135,6438,1,10,0:1:0:0:
500,135,6612,1,8,0:1:0:0:
402,8,6786,1,0,0:0:0:0:
227,66,6961,6,0,P|212:128|229:188,1,108.375002067089,6|0,1:2|0:0,0:0:0:0:
238,183,7310,2,0,L|331:176,1,72.2500013780594,10|8,3:1|0:2,0:0:0:0:
343,307,7659,1,2,1:2:0:0:
343,307,7833,2,0,L|258:300,1,72.2500013780594,2|8,0:2|3:3,0:0:0:0:
111,371,8182,2,0,P|165:345|189:308,1,72.2500013780594,2|0,3:2|1:0,0:0:0:0:
140,241,8531,2,0,P|144:181|127:141,1,72.2500013780594,2|8,0:2|3:3,0:0:0:0:
32,63,8880,2,0,P|27:122|49:161,1,72.2500013780594,2|0,0:2|1:0,0:0:0:0:
141,169,9228,2,0,P|171:188|206:196,1,72.2500013780594,10|8,0:3|3:1,0:0:0:0:
205,196,9577,1,0,3:0:0:0:
351,57,9752,6,0,P|341:123|337:180,1,108.375002067089,2|0,1:2|0:0,0:0:0:0:
324,181,10100,2,0,P|329:231|339:266,1,72.2500013780594,10|8,3:1|0:0,0:0:0:0:
202,339,10449,1,2,1:2:0:0:
202,339,10624,2,0,L|212:257,1,72.2500013780594,2|8,1:2|3:3,0:0:0:0:
29,168,10973,2,0,L|18:253,1,72.2500013780594,2|0,3:2|1:0,0:0:0:0:
128,190,11321,2,0,L|117:275,1,72.2500013780594,2|8,0:2|3:3,0:0:0:0:
229,137,11670,2,0,L|218:52,1,72.2500013780594,2|0,0:2|1:2,0:0:0:0:
328,115,12018,2,0,L|317:30,1,72.2500013780594,10|8,0:3|3:1,0:0:0:0:
318,43,12368,1,0,3:0:0:0:
384,199,12542,6,2,P|328:195|270:226,1,108.375002067089,2|0,1:3|0:0,0:2:0:0:
269,234,12891,2,0,P|300:267|314:310,1,72.2500013780594,8|8,3:1|0:2,0:0:0:0:
446,241,13240,1,2,1:2:0:0:
446,241,13414,2,0,P|422:206|388:188,1,72.2500013780594,2|8,0:2|3:3,0:0:0:0:
494,80,13763,2,0,P|451:92|404:89,1,72.2500013780594,2|0,3:2|1:0,0:0:0:0:
331,122,14112,2,0,P|299:90|279:46,1,72.2500013780594,2|8,0:2|3:3,0:0:0:0:
228,224,14461,2,0,P|271:212|319:216,1,72.2500013780594,2|0,0:2|1:2,0:0:0:0:
363,280,14810,2,0,P|394:311|414:355,1,72.2500013780594,10|8,0:3|3:1,0:0:0:0:
407,335,15159,1,0,3:1:0:0:
238,376,15333,5,10,0:2:0:0:
109,290,15507,1,2,0:3:0:0:
107,268,15595,1,8,0:2:0:0:
104,246,15682,1,8,0:1:0:0:
262,266,15856,5,8,0:2:0:0:
391,180,16030,1,2,0:3:0:0:
393,158,16118,1,8,0:2:0:0:
396,136,16205,1,8,0:1:0:0:
238,156,16380,5,8,0:2:0:0:
235,177,16467,1,8,0:2:0:0:
232,198,16554,1,2,0:3:0:0:
229,219,16641,1,0,0:0:0:0:
226,240,16728,1,8,0:2:0:0:
118,248,16903,5,0,0:0:0:0:
118,248,16990,1,8,0:2:0:0:
68,154,17164,1,0,0:0:0:0:
68,154,17252,1,8,0:2:0:0:
146,76,17426,1,0,0:0:0:0:
146,76,17513,1,8,0:2:0:0:
247,121,17688,1,0,0:0:0:0:
247,121,17775,2,0,P|264:152|271:173,1,42.5,8|8,0:2|0:2,0:0:0:0:
360,224,17949,5,10,0:2:0:0:
339,261,18036,1,2,0:2:0:0:
323,310,18124,6,0,P|271:274|184:261,1,152.999995330811,6|0,1:2|0:0,0:0:0:0:
112,320,18473,2,2,L|115:370,1,50.9999984436036,10|0,0:2|0:0,0:1:0:0:
50,252,18647,1,0,0:0:0:0:
50,252,18734,1,2,0:3:0:0:
50,252,18821,1,2,0:2:0:0:
190,133,18996,2,2,L|181:290,1,127.500004863739,2|8,1:2|0:2,0:1:0:0:
6,159,19345,1,2,0:2:0:0:
6,159,19432,1,0,0:0:0:0:
6,159,19519,5,0,1:2:0:0:
193,25,19693,2,0,L|200:150,1,101.999996887207,2|8,0:2|0:2,0:0:0:0:
179,294,20042,2,0,P|197:275|229:256,1,50.9999984436036,2|2,0:2|0:3,0:0:0:0:
270,204,20217,2,0,P|295:210|327:228,1,50.9999984436036,0|2,0:0|0:3,0:0:0:0:
395,216,20391,2,0,P|383:265|375:316,2,101.999996887207,2|8|0,1:2|0:1|0:0,0:0:0:0:
471,72,20914,6,0,B|428:84|393:57|411:54|370:23|327:33,1,152.999995330811,2|0,1:2|0:0,0:0:0:0:
260,78,21263,2,2,P|247:43|253:-1,1,50.9999984436036,8|0,2:2|0:0,0:1:0:0:
132,70,21438,1,0,0:0:0:0:
132,70,21525,1,2,0:3:0:0:
132,70,21612,1,2,0:2:0:0:
298,150,21786,2,2,P|294:112|335:26,1,127.500004863739,2|8,1:2|0:2,0:1:0:0:
454,124,22135,1,2,0:2:0:0:
454,124,22223,1,0,0:0:0:0:
454,124,22310,5,0,1:0:0:0:
365,252,22484,2,0,P|322:279|272:287,1,101.999996887207,2|8,0:2|0:2,0:0:0:0:
124,360,22833,2,0,P|114:330|88:298,1,50.9999984436036,2|2,0:0|0:3,0:0:0:0:
38,273,23007,2,0,P|31:242|38:201,1,50.9999984436036,0|2,0:0|0:3,0:0:0:0:
70,155,23182,1,12,1:3:0:0:
103,313,23356,2,0,P|146:286|176:245,1,101.999996887207,8|0,0:1|0:2,0:0:0:0:
185,61,23705,6,0,B|224:62|247:96|247:96|273:63|317:68,1,152.999995330811,2|0,1:2|0:0,0:0:0:0:
380,112,24054,2,2,L|389:171,1,50.9999984436036,10|0,0:2|0:0,0:1:0:0:
474,196,24228,1,0,0:0:0:0:
474,196,24316,1,2,0:3:0:0:
474,196,24403,1,2,0:2:0:0:
315,208,24577,2,2,L|295:334,1,127.500004863739,2|8,1:2|0:2,0:1:0:0:
127,345,24926,1,2,0:2:0:0:
127,345,25013,1,0,0:0:0:0:
127,345,25100,5,0,1:0:0:0:
30,193,25275,2,0,L|130:177,1,101.999996887207,2|8,0:2|0:2,0:0:0:0:
241,15,25624,2,0,P|235:60|244:93,1,50.9999984436036,2|2,0:2|0:3,0:0:0:0:
207,141,25798,2,0,P|234:177|264:194,1,50.9999984436036,0|2,0:0|0:3,0:0:0:0:
315,208,25973,2,0,L|415:223,2,101.999996887207,2|8|0,1:2|0:1|0:0,0:0:0:0:
147,307,26496,5,2,1:1:0:0:
8,329,26670,1,2,0:3:0:0:
8,329,26845,1,2,0:3:0:0:
8,329,27019,1,2,0:3:0:0:
91,193,27193,5,2,1:1:0:0:
230,215,27367,1,2,0:3:0:0:
230,215,27542,1,2,0:3:0:0:
230,215,27716,1,2,0:3:0:0:
144,87,27891,5,2,1:1:0:0:
199,345,28153,5,8,0:2:0:0:
199,345,28240,2,0,P|161:327|122:321,1,50.9999984436036,8|0,0:1|0:0,0:0:0:0:
68,276,28414,2,0,P|46:290|27:307,1,50.9999984436036,8|0,0:1|0:0,0:0:0:0:
113,178,28589,1,8,0:2:0:0:
113,178,28676,2,0,P|132:194|153:208,1,50.9999984436036,8|0,0:1|0:0,0:0:0:0:
238,159,28850,1,8,0:1:0:0:
238,159,28938,2,0,P|273:148|314:118,1,85,8|0,0:1|0:0,0:0:0:0:
464,58,29286,6,0,P|440:168|434:224,1,152.999995330811,6|0,1:2|0:0,0:0:0:0:
490,269,29635,2,0,P|502:324|505:352,1,50.9999984436036,8|0,0:2|0:0,0:0:0:0:
435,368,29810,1,2,0:2:0:0:
435,368,29897,1,2,0:3:0:0:
435,368,29984,1,0,0:0:0:0:
291,288,30159,1,0,1:0:0:0:
129,374,30333,2,0,P|179:371|226:352,1,101.999996887207,10|0,0:1|0:0,0:0:0:0:
295,141,30682,5,2,1:2:0:0:
161,121,30856,1,0,0:0:0:0:
288,148,31031,2,0,P|251:160|214:179,1,50.9999984436036,8|0,0:2|0:3,0:0:0:0:
154,128,31205,2,0,P|117:140|80:159,1,50.9999984436036,2|2,0:2|0:3,0:0:0:0:
0,123,31380,2,0,P|29:176|44:231,1,101.999996887207,0|8,0:0|1:3,0:0:0:0:
140,335,31728,2,0,P|143:284|155:234,1,101.999996887207,10|0,0:1|0:0,0:0:0:0:
164,229,31990,1,0,0:0:0:0:
172,224,32077,6,0,L|324:232,1,152.999995330811,2|0,1:2|0:0,0:0:0:0:
379,291,32426,2,0,P|378:317|372:342,1,50.9999984436036,8|0,0:2|0:0,0:0:0:0:
416,191,32600,1,2,0:2:0:0:
416,191,32688,1,2,0:3:0:0:
416,191,32775,1,0,0:0:0:0:
284,94,32949,1,0,1:0:0:0:
436,33,33124,2,0,L|305:24,1,101.999996887207,10|0,0:1|0:0,0:0:0:0:
194,140,33473,6,0,P|136:92|62:80,1,152.999995330811,2|0,1:2|0:0,0:0:0:0:
49,90,33821,1,8,0:2:0:0:
70,210,33996,1,2,0:2:0:0:
91,330,34170,1,0,0:2:0:0:
97,337,34345,6,0,P|81:316|63:298,1,50.9999984436036,8|0,1:3|0:3,0:0:0:0:
76,217,34519,2,0,P|60:196|42:178,1,50.9999984436036,10|0,0:1|0:3,0:0:0:0:
55,97,34693,2,0,P|39:76|21:58,1,50.9999984436036,2|0,0:2|0:3,0:0:0:0:
135,140,34868,6,0,B|175:157|211:125|196:121|231:89|274:105,1,152.999995330811,2|0,1:2|0:0,0:0:0:0:
342,64,35217,2,0,P|330:25|334:3,1,50.9999984436036,8|0,0:2|0:0,0:0:0:0:
313,185,35391,1,2,0:2:0:0:
313,185,35478,1,2,0:3:0:0:
313,185,35566,1,0,0:0:0:0:
467,138,35740,1,0,1:0:0:0:
498,319,35914,2,0,P|431:287|404:284,1,101.999996887207,10|0,0:1|0:0,0:0:0:0:
222,356,36263,5,2,1:2:0:0:
232,211,36438,1,0,0:2:0:0:
222,356,36612,2,0,P|231:323|244:291,1,50.9999984436036,8|0,0:2|0:0,0:0:0:0:
232,211,36786,2,0,P|241:178|254:146,1,50.9999984436036,2|2,0:2|0:3,0:0:0:0:
253,32,36961,2,0,P|208:58|160:74,1,101.999996887207,0|8,0:2|1:3,0:0:0:0:
53,240,37310,2,0,P|101:256|145:281,1,101.999996887207,10|0,0:1|0:0,0:0:0:0:
150,290,37571,1,0,0:0:0:0:
155,298,37659,6,0,L|152:145,1,152.999995330811,2|0,1:2|0:0,0:0:0:0:
245,111,38007,2,10,L|245:161,1,50.9999984436036,8|0,0:2|0:2,0:2:0:0:
161,57,38182,1,2,0:2:0:0:
161,57,38269,1,2,0:3:0:0:
161,57,38356,1,0,0:0:0:0:
352,84,38531,1,0,1:2:0:0:
233,248,38705,2,0,P|186:228|135:220,1,101.999996887207,10|0,0:1|0:0,0:0:0:0:
326,342,39054,6,0,L|486:331,1,152.999995330811,2|0,1:2|0:0,0:0:0:0:
482,249,39403,2,0,L|485:198,1,50.9999984436036,8|0,0:2|0:0,0:0:0:0:
489,116,39577,1,2,0:2:0:0:
458,118,39664,1,2,0:3:0:0:
427,120,39752,1,0,0:0:0:0:
397,122,39839,1,2,0:3:0:0:
366,124,39926,1,8,1:3:0:0:
225,12,40100,2,0,B|208:102|259:71|237:160,1,152.999995330811,10|0,0:1|0:0,0:0:0:0:
231,167,40449,5,4,1:2:0:0:
111,44,40624,1,2,0:1:0:0:
10,181,40798,2,0,P|9:213|18:239,1,50.9999984436036,8|0,0:2|0:0,0:1:0:0:
59,293,40973,2,2,L|256:281,1,152.999995330811,2|0,1:1|0:0,0:1:0:0:
217,292,41321,1,8,0:2:0:0:
279,141,41496,2,2,P|293:181|308:202,1,50.9999984436036,0|2,0:2|0:3,0:1:0:0:
375,210,41670,2,2,P|416:217|442:215,1,50.9999984436036,0|2,0:2|0:3,0:1:0:0:
503,191,41845,6,0,L|510:88,1,101.999996887207,2|0,1:1|0:2,0:0:0:0:
297,188,42193,2,2,L|304:291,1,101.999996887207,8|0,0:2|1:3,0:1:0:0:
458,317,42542,1,2,0:1:0:0:
408,134,42717,1,8,0:2:0:0:
221,224,42891,1,2,0:2:0:0:
216,249,42978,1,2,2:3:0:0:
211,274,43066,1,0,0:2:0:0:
206,299,43153,1,2,2:3:0:0:
201,324,43240,5,0,1:0:0:0:
38,335,43414,1,2,0:1:0:0:
4,174,43589,2,0,P|43:162|69:132,1,50.9999984436036,8|0,0:2|0:0,0:1:0:0:
97,89,43763,2,2,L|256:83,1,152.999995330811,2|0,1:1|0:0,0:1:0:0:
255,91,44112,1,8,0:2:0:0:
411,46,44286,2,2,P|399:76|394:107,1,50.9999984436036,0|2,0:2|0:3,0:1:0:0:
349,156,44461,2,2,P|353:187|364:217,1,50.9999984436036,0|2,0:2|0:3,0:1:0:0:
406,264,44635,2,0,L|391:375,1,101.999996887207,2|0,1:1|0:2,0:0:0:0:
226,322,44984,2,2,L|212:220,1,101.999996887207,8|0,0:2|1:2,0:1:0:0:
349,156,45333,5,2,0:1:0:0:
224,23,45507,1,8,0:2:0:0:
129,180,45682,1,2,0:2:0:0:
103,183,45769,1,2,0:3:0:0:
78,187,45856,1,0,0:0:0:0:
53,191,45943,1,2,0:3:0:0:
28,195,46030,5,0,1:0:0:0:
153,328,46205,1,2,0:1:0:0:
226,171,46380,2,0,P|233:146|233:121,1,50.9999984436036,8|0,0:2|0:0,0:1:0:0:
194,49,46554,2,2,P|254:107|328:125,1,152.999995330811,2|0,1:1|0:1,0:1:0:0:
327,118,46903,1,8,0:2:0:0:
439,217,47077,2,2,P|401:230|374:250,1,50.9999984436036,0|2,0:2|0:3,0:1:0:0:
310,250,47252,2,2,P|302:289|306:322,1,50.9999984436036,0|2,0:2|0:3,0:1:0:0:
277,377,47426,6,0,P|224:363|179:306,1,101.999996887207,2|0,1:1|0:0,0:0:0:0:
60,239,47775,2,2,P|45:186|72:118,1,101.999996887207,8|0,0:2|1:2,0:1:0:0:
183,48,48124,1,2,0:1:0:0:
234,215,48298,1,8,0:2:0:0:
349,116,48473,1,2,0:2:0:0:
374,119,48560,1,2,0:3:0:0:
399,123,48647,1,0,0:0:0:0:
424,126,48734,1,2,0:3:0:0:
449,130,48821,5,6,1:1:0:0:
475,291,48996,1,2,0:3:0:0:
475,291,49170,1,2,0:3:0:0:
475,291,49345,1,2,0:3:0:0:
331,360,49519,5,6,1:1:0:0:
357,199,49694,1,2,0:3:0:0:
357,199,49868,1,2,0:3:0:0:
357,199,50043,1,2,0:3:0:0:
227,114,50217,5,6,1:1:0:0:
253,275,50391,1,2,0:3:0:0:
253,275,50565,1,2,0:3:0:0:
253,275,50740,1,2,0:3:0:0:
101,369,50914,5,8,0:3:0:0:
173,224,51089,2,0,P|156:206|139:194,2,33.9999989624024,8|8|8,0:2|0:2|0:1,0:0:0:0:
187,221,51263,2,0,P|194:187|193:154,2,67.9999979248048,8|2|2,0:1|0:2|0:2,0:0:0:0:
275,263,51612,6,0,P|347:278|402:343,1,152.999995330811,6|0,1:2|0:0,0:0:0:0:
394,344,51961,1,10,0:2:0:0:
458,257,52135,2,0,P|490:231|509:222,2,50.9999984436036,8|2|0,1:3|0:3|0:0,0:0:0:0:
315,381,52484,1,10,0:2:0:0:
153,310,52659,2,0,L|143:185,1,101.999996887207,8|0,0:3|0:3,0:0:0:0:
12,120,53007,6,0,P|78:136|158:62,1,152.999995330811,0|0,1:3|0:0,0:0:0:0:
140,83,53356,1,10,0:2:0:0:
274,45,53531,5,0,0:0:0:0:
272,57,53618,1,2,0:3:0:0:
270,70,53705,1,0,0:0:0:0:
268,82,53792,1,2,0:3:0:0:
266,95,53879,1,10,0:2:0:0:
385,92,54054,5,0,0:0:0:0:
383,105,54141,1,2,0:3:0:0:
381,117,54228,1,0,0:0:0:0:
379,130,54315,1,2,0:3:0:0:
377,142,54403,6,0,P|411:194|498:194,1,152.999995330811,10|0,1:2|0:0,0:0:0:0:
503,189,54752,2,0,P|450:212|428:264,1,101.999996887207,10|8,0:2|1:3,0:0:0:0:
292,337,55100,1,0,0:2:0:0:
138,279,55275,1,2,0:2:0:0:
279,359,55449,2,0,L|329:348,1,50.9999984436036,0|0,3:2|0:3,0:0:0:0:
128,300,55624,2,0,L|178:289,1,50.9999984436036,0|0,3:2|0:3,0:0:0:0:
0,225,55798,6,0,B|51:217|51:217|62:90,1,152.999995330811,10|0,0:2|0:0,0:0:0:0:
64,90,56147,2,0,B|115:98|115:98|126:225,1,152.999995330811,0|0,1:2|0:0,0:0:0:0:
124,209,56496,1,10,0:2:0:0:
274,269,56670,1,8,0:3:0:0:
402,167,56845,1,10,0:2:0:0:
388,13,57019,1,8,0:2:0:0:
388,13,57106,1,8,0:2:0:0:
388,13,57193,6,0,L|233:31,1,152.999995330811,10|0,1:2|0:0,0:0:0:0:
220,27,57542,2,0,P|209:64|228:128,2,101.999996887207,10|8|0,0:2|1:3|0:0,0:0:0:0:
399,95,58240,5,10,0:2:0:0:
241,137,58414,2,0,P|212:163|197:228,1,101.999996887207,2|0,0:2|0:0,0:0:0:0:
52,199,58763,5,10,0:2:0:0:
209,240,58937,2,0,P|237:266|252:331,1,101.999996887207,10|0,0:2|0:0,0:0:0:0:
420,312,59286,5,10,0:2:0:0:
244,336,59461,2,0,P|233:214|231:192,1,101.999996887207,8|0,1:3|0:3,0:0:0:0:
218,76,59810,1,8,0:2:0:0:
218,76,59897,1,8,0:2:0:0:
218,76,59984,6,0,P|171:126|58:107,1,152.999995330811,2|0,1:2|0:0,0:0:0:0:
80,122,60333,2,0,P|57:78|63:29,1,101.999996887207,10|8,0:2|1:3,0:0:0:0:
3,224,60682,1,0,0:0:0:0:
13,225,60769,1,2,0:3:0:0:
23,226,60856,1,10,0:2:0:0:
81,310,61031,1,8,0:3:0:0:
179,335,61205,1,0,0:0:0:0:
278,311,61380,2,0,L|287:206,1,101.999996887207,10|0,0:2|1:0,0:0:0:0:
433,268,61728,2,0,L|442:163,1,101.999996887207,10|2,0:2|0:2,0:0:0:0:
286,209,62077,6,0,L|279:135,1,50.9999984436036,0|2,1:0|0:3,0:0:0:0:
177,178,62252,2,0,L|170:104,1,50.9999984436036,8|0,0:3|0:0,0:0:0:0:
90,245,62426,1,0,0:3:0:0:
90,245,62513,1,2,0:3:0:0:
90,245,62600,1,0,0:3:0:0:
192,350,62775,6,0,L|354:320,1,152.999995330811,4|0,1:2|0:0,0:0:0:0:
350,328,63124,1,10,0:2:0:0:
428,221,63298,2,0,P|433:180|419:139,2,50.9999984436036,8|2|0,1:3|0:3|0:0,0:0:0:0:
273,361,63647,1,10,0:2:0:0:
136,212,63821,2,0,P|92:198|22:208,1,101.999996887207,8|0,0:3|0:3,0:0:0:0:
41,377,64170,6,0,L|203:347,1,152.999995330811,0|0,1:0|0:0,0:0:0:0:
199,355,64519,1,10,0:2:0:0:
320,364,64693,5,0,0:0:0:0:
321,351,64780,1,2,0:3:0:0:
322,338,64867,1,0,0:0:0:0:
323,325,64954,1,2,0:3:0:0:
324,313,65041,1,10,0:2:0:0:
454,338,65217,5,0,0:0:0:0:
455,325,65304,1,2,0:3:0:0:
456,312,65391,1,0,0:0:0:0:
457,299,65478,1,2,0:3:0:0:
458,287,65566,6,0,P|415:251|431:150,1,152.999995330811,10|0,1:2|0:0,0:0:0:0:
430,158,65914,2,0,P|378:174|315:149,1,101.999996887207,10|8,0:2|1:3,0:0:0:0:
242,26,66263,1,0,0:2:0:0:
89,84,66438,1,2,0:2:0:0:
229,43,66612,2,0,P|251:39|304:45,1,50.9999984436036,8|0,0:3|0:0,0:0:0:0:
81,100,66786,2,0,P|103:96|156:102,1,50.9999984436036,0|0,3:2|0:0,0:0:0:0:
8,207,66961,6,0,P|71:220|124:325,1,152.999995330811,10|0,0:2|0:0,0:0:0:0:
123,298,67310,2,0,P|164:235|237:216,1,152.999995330811,0|0,1:2|0:0,0:0:0:0:
246,225,67659,1,10,0:2:0:0:
328,365,67833,1,8,0:3:0:0:
467,280,68007,1,10,0:2:0:0:
384,140,68181,1,8,0:2:0:0:
384,140,68269,1,8,0:2:0:0:
384,140,68356,6,0,L|222:137,1,152.999995330811,2|0,1:2|0:0,0:0:0:0:
222,131,68705,2,0,P|248:82|251:26,2,101.999996887207,10|8|0,0:2|1:3|0:0,0:0:0:0:
401,256,69403,5,10,0:2:0:0:
242,219,69577,2,0,P|215:170|212:114,1,101.999996887207,2|0,0:2|0:0,0:0:0:0:
61,343,69926,5,10,0:2:0:0:
220,306,70100,2,0,P|246:257|249:201,1,101.999996887207,10|0,0:2|0:0,0:0:0:0:
398,361,70449,5,10,0:2:0:0:
230,310,70624,2,0,L|231:186,1,101.999996887207,8|0,1:3|0:2,0:0:0:0:
229,51,70973,1,8,0:2:0:0:
229,51,71060,1,8,0:2:0:0:
229,51,71147,6,0,P|282:81|372:41,1,152.999995330811,2|0,1:2|0:0,0:0:0:0:
367,42,71496,1,10,0:2:0:0:
474,163,71670,1,0,1:0:0:0:
322,224,71845,2,0,P|278:193|225:178,1,101.999996887207,0|10,0:0|0:0,0:0:0:0:
425,354,72193,2,0,P|462:319|508:298,1,101.999996887207
332,216,72542,6,0,L|109:242,1,203.999993774414,6|0,1:2|0:0,0:0:0:0:
69,89,73066,6,2,B|161:66|214:152|183:158|232:237|317:226,1,305.999990661621,4|0,1:2|0:0,0:1:0:0:
316,226,73938,5,6,1:2:0:0:
414,92,74112,1,2,0:2:0:0:
414,258,74286,1,2,0:2:0:0:
316,124,74461,1,10,0:2:0:0:
473,175,74635,1,2,0:2:0:0:
245,274,74984,5,10,0:2:0:0:
147,140,75158,1,2,0:2:0:0:
147,306,75332,1,2,0:2:0:0:
245,172,75507,1,10,0:2:0:0:
88,223,75681,1,2,0:2:0:0:
345,330,76031,5,10,0:2:0:0:
443,196,76205,1,2,0:2:0:0:
443,362,76379,1,2,0:2:0:0:
345,228,76554,1,2,0:2:0:0:
502,279,76728,6,0,P|434:280|346:335,1,152.999995330811,2|0,1:2|0:0,0:0:0:0:
357,329,77077,2,0,P|291:306|258:263,1,101.999996887207,8|2,0:2|0:3,0:0:0:0:
194,138,77426,1,2,0:3:0:0:
194,138,77513,1,0,3:3:0:0:
194,138,77600,1,8,0:2:0:0:
130,304,77775,2,0,P|157:336|168:361,1,50.9999984436036,2|0,0:3|3:3,0:0:0:0:
165,355,77949,2,0,P|178:333|196:315,1,50.9999984436036,2|0,0:3|3:3,0:0:0:0:
212,308,78124,5,8,0:2:0:0:
341,222,78298,1,2,0:3:0:0:
343,200,78386,1,8,0:2:0:0:
346,178,78473,1,8,0:1:0:0:
188,198,78647,5,8,0:2:0:0:
59,112,78821,1,2,0:3:0:0:
57,90,78909,1,8,0:2:0:0:
54,68,78996,1,8,0:1:0:0:
195,32,79171,5,8,0:2:0:0:
198,53,79258,1,8,0:2:0:0:
201,74,79345,1,2,0:3:0:0:
204,95,79432,1,0,0:0:0:0:
207,116,79519,5,6,1:1:0:0:
364,75,79693,1,2,0:3:0:0:
364,75,79868,1,2,0:3:0:0:
364,75,80042,1,2,0:3:0:0:
255,219,80217,5,2,1:1:0:0:
98,178,80391,1,2,0:3:0:0:
98,178,80566,1,2,0:3:0:0:
98,178,80740,1,2,0:3:0:0:
98,178,80914,1,2,0:3:0:0:
98,178,81089,1,2,0:3:0:0:
223,312,81263,6,0,B|322:305|400:231|440:188|504:99|387:-3|326:44|297:85|297:85|251:41|147:54|151:171|189:221|226:251|368:312|453:266|453:266|427:315|455:368,1,1070.99996731567,2|0,1:2|0:0,0:0:0:0:
