osu file format v14

[General]
AudioFilename: audio.mp3
AudioLeadIn: 0
PreviewTime: 20352
Countdown: 0
SampleSet: Normal
StackLeniency: 0
Mode: 1
LetterboxInBreaks: 0
WidescreenStoryboard: 1

[Editor]
Bookmarks: 32352
DistanceSpacing: 3.8
BeatDivisor: 4
GridSize: 32
TimelineZoom: 1.7

[Metadata]
Title:LOVE IS ORANGE
TitleUnicode:LOVE IS ORANGE
Artist:Orange Lounge
ArtistUnicode:Orange Lounge
Creator:The Law
Version:Muzukashii
Source:beatmania IIDX 8th style
Tags:eltigant 舟木智介 tomosuke funaki 徳井志津江 shizue tokui ddr dancedancerevolution dance revolution bemani hard chanson pop'n music 10 reflec beat marble lc-1363 -re edition- lc-1785 konami 573 bemani music focus 5th set french pop video game videogame ハードシャンソン tart&toffee
BeatmapID:4485754
BeatmapSetID:2130753

[Difficulty]
HPDrainRate:7
CircleSize:5
OverallDifficulty:5
ApproachRate:5
SliderMultiplier:1.4
SliderTickRate:1

[Events]
//Background and Video events
0,0,"oragne.jpg",0,0
//Break Periods
//Storyboard Layer 0 (Background)
//Storyboard Layer 1 (Fail)
//Storyboard Layer 2 (Pass)
//Storyboard Layer 3 (Foreground)
//Storyboard Layer 4 (Overlay)
//Storyboard Sound Samples

[TimingPoints]
353,333.333333333333,4,1,0,70,1,0
353,-111.111111111111,4,1,0,70,0,0
10852,-100,4,1,0,70,0,0
20186,-90.9090909090909,4,1,0,70,0,0
21352,-111.111111111111,4,1,0,70,0,0
32186,-100,4,1,0,70,0,0
36186,-90.9090909090909,4,1,0,70,0,0
37186,-111.111111111111,4,1,0,70,0,0
48186,-100,4,1,0,70,0,0
58686,-95.2380952380952,4,1,0,70,0,0
69519,-80,4,1,0,70,0,0
80186,-90.9090909090909,4,1,0,70,0,0
91019,-83.3333333333333,4,1,0,70,0,1
101602,-83.3333333333333,4,1,0,70,0,0

[HitObjects]
256,192,353,5,0,0:0:0:0:
256,192,686,1,8,0:0:0:0:
256,192,852,1,0,0:0:0:0:
256,192,1352,1,8,0:0:0:0:
256,192,1686,1,0,0:0:0:0:
256,192,2019,1,8,0:0:0:0:
256,192,2186,1,0,0:0:0:0:
256,192,2519,1,8,0:0:0:0:
256,192,2686,1,8,0:0:0:0:
256,192,3019,1,0,0:0:0:0:
256,192,3352,1,8,0:0:0:0:
256,192,3519,1,0,0:0:0:0:
256,192,4019,1,8,0:0:0:0:
256,192,4352,1,0,0:0:0:0:
256,192,4686,1,8,0:0:0:0:
256,192,4852,1,0,0:0:0:0:
256,192,5186,1,8,0:0:0:0:
256,192,5352,1,8,0:0:0:0:
256,192,5519,1,8,0:0:0:0:
256,192,5686,1,0,0:0:0:0:
256,192,6019,1,8,0:0:0:0:
256,192,6186,1,0,0:0:0:0:
256,192,6686,1,8,0:0:0:0:
256,192,7019,1,0,0:0:0:0:
256,192,7352,1,8,0:0:0:0:
256,192,7519,1,0,0:0:0:0:
256,192,7852,1,0,0:0:0:0:
256,192,8019,1,8,0:0:0:0:
256,192,8352,1,0,0:0:0:0:
256,192,8686,1,8,0:0:0:0:
256,192,8852,1,0,0:0:0:0:
256,192,9352,1,8,0:0:0:0:
256,192,9686,1,0,0:0:0:0:
256,192,10019,1,8,0:0:0:0:
256,192,10186,1,0,0:0:0:0:
256,192,10352,1,8,0:0:0:0:
256,192,10436,1,8,0:0:0:0:
256,192,10519,1,8,0:0:0:0:
256,192,10686,1,0,0:0:0:0:
256,192,11019,1,4,0:0:0:0:
256,192,11352,1,8,0:0:0:0:
256,192,11519,1,0,0:0:0:0:
256,192,11686,1,0,0:0:0:0:
256,192,11852,1,8,0:0:0:0:
256,192,12019,1,0,0:0:0:0:
256,192,12352,1,0,0:0:0:0:
256,192,12686,1,8,0:0:0:0:
256,192,12852,1,0,0:0:0:0:
259,196,12936,1,0,0:0:0:0:
259,196,13019,1,0,0:0:0:0:
256,192,13186,1,8,0:0:0:0:
256,192,13352,1,0,0:0:0:0:
256,192,13519,1,8,0:0:0:0:
256,192,13686,1,0,0:0:0:0:
256,192,14019,1,8,0:0:0:0:
256,192,14186,1,0,0:0:0:0:
256,192,14353,1,8,0:0:0:0:
256,192,14519,1,8,0:0:0:0:
256,192,14686,1,0,0:0:0:0:
256,192,15019,1,0,0:0:0:0:
256,192,15186,1,0,0:0:0:0:
256,192,15353,1,8,0:0:0:0:
256,192,15519,1,0,0:0:0:0:
256,192,15686,1,8,0:0:0:0:
256,192,15852,1,8,0:0:0:0:
256,192,16019,1,0,0:0:0:0:
256,192,16352,1,0,0:0:0:0:
256,192,16686,1,8,0:0:0:0:
256,192,17020,1,0,0:0:0:0:
256,192,17186,1,8,0:0:0:0:
256,192,17353,1,0,0:0:0:0:
256,192,17686,1,0,0:0:0:0:
256,192,18020,1,8,0:0:0:0:
256,192,18186,1,0,0:0:0:0:
256,192,18269,1,0,0:0:0:0:
256,192,18353,1,0,0:0:0:0:
256,192,18520,1,8,0:0:0:0:
256,192,18686,1,0,0:0:0:0:
256,192,18853,1,8,0:0:0:0:
256,192,19020,1,0,0:0:0:0:
256,192,19353,1,8,0:0:0:0:
256,192,19519,1,0,0:0:0:0:
256,192,19687,1,8,0:0:0:0:
256,192,19853,1,8,0:0:0:0:
256,192,20020,1,0,0:0:0:0:
256,192,20352,1,8,0:0:0:0:
256,192,20519,1,8,0:0:0:0:
256,192,20686,1,8,0:0:0:0:
256,192,21686,1,4,0:0:0:0:
256,192,22019,1,8,0:0:0:0:
256,192,22186,1,0,0:0:0:0:
256,192,22352,1,8,0:0:0:0:
256,192,22686,1,0,0:0:0:0:
256,192,22852,1,8,0:0:0:0:
256,192,23019,1,0,0:0:0:0:
256,192,23186,1,0,0:0:0:0:
256,192,23352,1,8,0:0:0:0:
256,192,23519,1,0,0:0:0:0:
256,192,23602,1,0,0:0:0:0:
256,192,23686,1,0,0:0:0:0:
256,192,23852,1,8,0:0:0:0:
256,192,24019,1,0,0:0:0:0:
256,192,24352,1,0,0:0:0:0:
256,192,24519,1,8,0:0:0:0:
256,192,24602,1,8,0:0:0:0:
256,192,24686,1,8,0:0:0:0:
256,192,24852,1,0,0:0:0:0:
256,192,25019,1,8,0:0:0:0:
256,192,25186,1,0,0:0:0:0:
256,192,25352,1,8,0:0:0:0:
256,192,25686,1,0,0:0:0:0:
256,192,25852,1,0,0:0:0:0:
256,192,26019,1,8,0:0:0:0:
256,192,26186,1,0,0:0:0:0:
256,192,26269,1,0,0:0:0:0:
256,192,26352,1,0,0:0:0:0:
256,192,27019,1,0,0:0:0:0:
256,192,27352,1,8,0:0:0:0:
256,192,27519,1,0,0:0:0:0:
256,192,27686,1,0,0:0:0:0:
256,192,28019,1,0,0:0:0:0:
256,192,28186,1,8,0:0:0:0:
256,192,28352,1,0,0:0:0:0:
256,192,28519,1,0,0:0:0:0:
256,192,28686,1,8,0:0:0:0:
256,192,28852,1,8,0:0:0:0:
256,192,28936,1,8,0:0:0:0:
256,192,29019,1,8,0:0:0:0:
256,192,29186,1,0,0:0:0:0:
256,192,29352,1,8,0:0:0:0:
256,192,29686,1,0,0:0:0:0:
256,192,29852,1,0,0:0:0:0:
256,192,30019,1,8,0:0:0:0:
256,192,30186,1,0,0:0:0:0:
256,192,30269,1,0,0:0:0:0:
256,192,30352,1,0,0:0:0:0:
256,192,30519,1,8,0:0:0:0:
256,192,30686,1,0,0:0:0:0:
256,192,31019,1,8,0:0:0:0:
256,192,31186,1,8,0:0:0:0:
256,192,31352,1,0,0:0:0:0:
256,192,31519,1,8,0:0:0:0:
256,192,31602,1,8,0:0:0:0:
256,192,31686,1,8,0:0:0:0:
256,192,32019,1,8,0:0:0:0:
256,192,32352,1,4,0:0:0:0:
256,192,32685,1,8,0:0:0:0:
256,192,32852,1,0,0:0:0:0:
256,192,33019,1,0,0:0:0:0:
256,192,33185,1,8,0:0:0:0:
256,192,33352,1,0,0:0:0:0:
256,192,33685,1,0,0:0:0:0:
256,192,34019,1,8,0:0:0:0:
256,192,34185,1,0,0:0:0:0:
256,192,34269,1,0,0:0:0:0:
256,192,34352,1,0,0:0:0:0:
256,192,34519,1,8,0:0:0:0:
256,192,34685,1,0,0:0:0:0:
256,192,34852,1,0,0:0:0:0:
256,192,35019,1,8,0:0:0:0:
256,192,35352,1,0,0:0:0:0:
256,192,35519,1,8,0:0:0:0:
256,192,35686,1,0,0:0:0:0:
256,192,35852,1,8,0:0:0:0:
256,192,36019,1,0,0:0:0:0:
256,192,36352,1,8,0:0:0:0:
256,192,36519,1,8,0:0:0:0:
256,192,36686,1,8,0:0:0:0:
256,192,37686,1,4,0:0:0:0:
256,192,38019,1,8,0:0:0:0:
256,192,38186,1,0,0:0:0:0:
256,192,38352,1,8,0:0:0:0:
256,192,38686,1,8,0:0:0:0:
256,192,38852,1,0,0:0:0:0:
256,192,39019,1,8,0:0:0:0:
256,192,39186,1,8,0:0:0:0:
256,192,39352,1,0,0:0:0:0:
256,192,39519,1,8,0:0:0:0:
256,192,39602,1,8,0:0:0:0:
256,192,39686,1,8,0:0:0:0:
256,192,39852,1,0,0:0:0:0:
256,192,40019,1,8,0:0:0:0:
256,192,40352,1,0,0:0:0:0:
256,192,40519,1,8,0:0:0:0:
256,192,40602,1,8,0:0:0:0:
256,192,40686,1,8,0:0:0:0:
256,192,40852,1,0,0:0:0:0:
256,192,41019,1,8,0:0:0:0:
256,192,41186,1,0,0:0:0:0:
256,192,41352,1,8,0:0:0:0:
256,192,41686,1,0,0:0:0:0:
256,192,41852,1,0,0:0:0:0:
256,192,42019,1,8,0:0:0:0:
256,192,42186,1,0,0:0:0:0:
256,192,42269,1,0,0:0:0:0:
256,192,42352,1,0,0:0:0:0:
256,192,43019,1,0,0:0:0:0:
256,192,43352,1,8,0:0:0:0:
256,192,43519,1,0,0:0:0:0:
256,192,43686,1,8,0:0:0:0:
256,192,44019,1,0,0:0:0:0:
256,192,44186,1,8,0:0:0:0:
256,192,44352,1,0,0:0:0:0:
256,192,44519,1,0,0:0:0:0:
256,192,44686,1,8,0:0:0:0:
256,192,44852,1,0,0:0:0:0:
256,192,44936,1,0,0:0:0:0:
256,192,45019,1,0,0:0:0:0:
256,192,45186,1,8,0:0:0:0:
256,192,45352,1,0,0:0:0:0:
256,192,45686,1,0,0:0:0:0:
256,192,45852,1,0,0:0:0:0:
256,192,46019,1,8,0:0:0:0:
256,192,46186,1,0,0:0:0:0:
256,192,46269,1,0,0:0:0:0:
256,192,46352,1,0,0:0:0:0:
256,192,46519,1,8,0:0:0:0:
256,192,46686,1,8,0:0:0:0:
256,192,47019,1,0,0:0:0:0:
256,192,47186,1,0,0:0:0:0:
256,192,47352,1,8,0:0:0:0:
256,192,47519,1,0,0:0:0:0:
256,192,47686,1,8,0:0:0:0:
256,192,48352,1,4,0:0:0:0:
256,192,48686,1,8,0:0:0:0:
256,192,48852,1,0,0:0:0:0:
256,192,49019,1,0,0:0:0:0:
256,192,49186,1,8,0:0:0:0:
256,192,49352,1,0,0:0:0:0:
256,192,49519,1,0,0:0:0:0:
256,192,49686,1,8,0:0:0:0:
256,192,50019,1,8,0:0:0:0:
256,192,50186,1,8,0:0:0:0:
256,192,50352,1,0,0:0:0:0:
256,192,50519,1,8,0:0:0:0:
256,192,50686,1,8,0:0:0:0:
256,192,50852,1,0,0:0:0:0:
256,192,51019,1,8,0:0:0:0:
256,192,51352,1,0,0:0:0:0:
256,192,51519,1,8,0:0:0:0:
256,192,51686,1,0,0:0:0:0:
256,192,51852,1,8,0:0:0:0:
256,192,52019,1,8,0:0:0:0:
256,192,52186,1,8,0:0:0:0:
256,192,52352,1,0,0:0:0:0:
256,192,52852,1,8,0:0:0:0:
256,192,53186,1,8,0:0:0:0:
256,192,53352,1,0,0:0:0:0:
256,192,53519,1,8,0:0:0:0:
256,192,53686,1,0,0:0:0:0:
256,192,54020,1,8,0:0:0:0:
256,192,54186,1,8,0:0:0:0:
256,192,54353,1,0,0:0:0:0:
256,192,54520,1,8,0:0:0:0:
256,192,54686,1,0,0:0:0:0:
256,192,54853,1,0,0:0:0:0:
256,192,55020,1,8,0:0:0:0:
256,192,55353,1,0,0:0:0:0:
256,192,55520,1,0,0:0:0:0:
256,192,55686,1,8,0:0:0:0:
256,192,55853,1,0,0:0:0:0:
256,192,56020,1,8,0:0:0:0:
256,192,56186,1,8,0:0:0:0:
256,192,56353,1,0,0:0:0:0:
256,192,56686,1,0,0:0:0:0:
256,192,56853,1,8,0:0:0:0:
256,192,57020,1,0,0:0:0:0:
256,192,57186,1,8,0:0:0:0:
256,192,57353,1,0,0:0:0:0:
256,192,57520,1,0,0:0:0:0:
256,192,57686,1,8,0:0:0:0:
256,192,58019,1,8,0:0:0:0:
256,192,59019,1,4,0:0:0:0:
256,192,59352,1,8,0:0:0:0:
256,192,59519,1,0,0:0:0:0:
256,192,59602,1,0,0:0:0:0:
256,192,59686,1,0,0:0:0:0:
256,192,59852,1,0,0:0:0:0:
256,192,60019,1,8,0:0:0:0:
256,192,60186,1,8,0:0:0:0:
256,192,60352,1,0,0:0:0:0:
256,192,60519,1,0,0:0:0:0:
256,192,60686,1,8,0:0:0:0:
256,192,60852,1,0,0:0:0:0:
256,192,60936,1,0,0:0:0:0:
256,192,61019,1,0,0:0:0:0:
256,192,61186,1,8,0:0:0:0:
256,192,61352,1,0,0:0:0:0:
256,192,61686,1,0,0:0:0:0:
256,192,61852,1,0,0:0:0:0:
256,192,62019,1,8,0:0:0:0:
256,192,62186,1,8,0:0:0:0:
256,192,62269,1,8,0:0:0:0:
256,192,62352,1,8,0:0:0:0:
256,192,62519,1,0,0:0:0:0:
256,192,62686,1,8,0:0:0:0:
256,192,62852,1,8,0:0:0:0:
256,192,63019,1,0,0:0:0:0:
256,192,63186,1,0,0:0:0:0:
256,192,63352,1,8,0:0:0:0:
256,192,63519,1,0,0:0:0:0:
256,192,63602,1,0,0:0:0:0:
256,192,63686,1,0,0:0:0:0:
256,192,64019,1,0,0:0:0:0:
256,192,64352,1,8,0:0:0:0:
256,192,64686,1,0,0:0:0:0:
256,192,64852,1,0,0:0:0:0:
256,192,65019,1,8,0:0:0:0:
256,192,65186,1,0,0:0:0:0:
256,192,65352,1,8,0:0:0:0:
256,192,65519,1,8,0:0:0:0:
256,192,65686,1,0,0:0:0:0:
256,192,65852,1,0,0:0:0:0:
256,192,66019,1,8,0:0:0:0:
256,192,66186,1,0,0:0:0:0:
256,192,66269,1,0,0:0:0:0:
256,192,66352,1,0,0:0:0:0:
256,192,66519,1,8,0:0:0:0:
256,192,66686,1,0,0:0:0:0:
256,192,67019,1,0,0:0:0:0:
256,192,67186,1,0,0:0:0:0:
256,192,67352,1,8,0:0:0:0:
256,192,67519,1,0,0:0:0:0:
256,192,67602,1,0,0:0:0:0:
256,192,67686,1,0,0:0:0:0:
256,192,67852,1,0,0:0:0:0:
256,192,68019,1,8,0:0:0:0:
256,192,68186,1,8,0:0:0:0:
256,192,68352,1,0,0:0:0:0:
256,192,68519,1,0,0:0:0:0:
256,192,68686,1,8,0:0:0:0:
256,192,68769,1,8,0:0:0:0:
256,192,68852,1,8,0:0:0:0:
256,192,69019,1,0,0:0:0:0:
256,192,69186,1,8,0:0:0:0:
256,192,69352,1,0,0:0:0:0:
256,192,69686,1,4,0:0:0:0:
256,192,71019,1,4,0:0:0:0:
256,192,72186,1,0,0:0:0:0:
256,192,72352,1,4,0:0:0:0:
256,192,73686,1,4,0:0:0:0:
256,192,74352,1,4,0:0:0:0:
256,192,75019,1,4,0:0:0:0:
256,192,75852,1,0,0:0:0:0:
256,192,76102,1,0,0:0:0:0:
256,192,76352,1,4,0:0:0:0:
256,192,77186,1,0,0:0:0:0:
256,192,77436,1,0,0:0:0:0:
256,192,77686,1,4,0:0:0:0:
256,192,78519,1,0,0:0:0:0:
256,192,78769,1,0,0:0:0:0:
256,192,79019,1,4,0:0:0:0:
256,192,79269,1,0,0:0:0:0:
256,192,79352,1,0,0:0:0:0:
256,192,79519,1,0,0:0:0:0:
256,192,79686,1,8,0:0:0:0:
256,192,79852,1,8,0:0:0:0:
256,192,80019,1,0,0:0:0:0:
256,192,80352,1,0,0:0:0:0:
256,192,80519,1,0,0:0:0:0:
256,192,80686,1,8,0:0:0:0:
256,192,80852,1,0,0:0:0:0:
256,192,80936,1,0,0:0:0:0:
256,192,81019,1,0,0:0:0:0:
256,192,81186,1,0,0:0:0:0:
256,192,81352,1,8,0:0:0:0:
256,192,81436,1,0,0:0:0:0:
256,192,81686,1,8,0:0:0:0:
256,192,81852,1,8,0:0:0:0:
256,192,82019,1,0,0:0:0:0:
256,192,82186,1,8,0:0:0:0:
256,192,82269,1,8,0:0:0:0:
256,192,82352,1,8,0:0:0:0:
256,192,82519,1,0,0:0:0:0:
256,192,82686,1,8,0:0:0:0:
256,192,82769,1,0,0:0:0:0:
256,192,83019,1,0,0:0:0:0:
256,192,83186,1,0,0:0:0:0:
256,192,83352,1,8,0:0:0:0:
256,192,83519,1,0,0:0:0:0:
256,192,83602,1,0,0:0:0:0:
256,192,83686,1,0,0:0:0:0:
256,192,83852,1,0,0:0:0:0:
256,192,84019,1,8,0:0:0:0:
256,192,84102,1,0,0:0:0:0:
256,192,84352,1,0,0:0:0:0:
256,192,84519,1,0,0:0:0:0:
256,192,84686,1,8,0:0:0:0:
256,192,84852,1,0,0:0:0:0:
256,192,85019,1,8,0:0:0:0:
256,192,85686,1,0,0:0:0:0:
256,192,85853,1,0,0:0:0:0:
256,192,86020,1,8,0:0:0:0:
256,192,86186,1,0,0:0:0:0:
256,192,86270,1,0,0:0:0:0:
256,192,86353,1,0,0:0:0:0:
256,192,86520,1,0,0:0:0:0:
256,192,86686,1,8,0:0:0:0:
256,192,86770,1,0,0:0:0:0:
256,192,87020,1,8,0:0:0:0:
256,192,87186,1,8,0:0:0:0:
256,192,87353,1,0,0:0:0:0:
256,192,87520,1,8,0:0:0:0:
256,192,87603,1,8,0:0:0:0:
256,192,87686,1,8,0:0:0:0:
256,192,87853,1,0,0:0:0:0:
256,192,88020,1,8,0:0:0:0:
256,192,88103,1,0,0:0:0:0:
256,192,88353,1,0,0:0:0:0:
256,192,88520,1,0,0:0:0:0:
256,192,88686,1,8,0:0:0:0:
256,192,88853,1,0,0:0:0:0:
256,192,88936,1,0,0:0:0:0:
256,192,89020,1,0,0:0:0:0:
256,192,89186,1,0,0:0:0:0:
256,192,89353,1,8,0:0:0:0:
256,192,89519,1,0,0:0:0:0:
256,192,89686,1,0,0:0:0:0:
255,197,89852,1,0,0:0:0:0:
256,192,90020,1,8,0:0:0:0:
256,192,90102,1,0,0:0:0:0:
256,192,90353,1,8,0:0:0:0:
256,192,91019,1,0,0:0:0:0:
256,192,91186,1,8,0:0:0:0:
256,192,91353,1,0,0:0:0:0:
256,192,91519,1,8,0:0:0:0:
256,192,91603,1,8,0:0:0:0:
256,192,91686,1,8,0:0:0:0:
256,192,91853,1,8,0:0:0:0:
256,192,92019,1,0,0:0:0:0:
256,192,92269,1,0,0:0:0:0:
256,192,92353,1,0,0:0:0:0:
256,192,92519,1,8,0:0:0:0:
256,192,92686,1,0,0:0:0:0:
256,192,92853,1,8,0:0:0:0:
256,192,92936,1,8,0:0:0:0:
256,192,93019,1,8,0:0:0:0:
256,192,93353,1,8,0:0:0:0:
256,192,93686,1,0,0:0:0:0:
256,192,93853,1,0,0:0:0:0:
256,192,94019,1,8,0:0:0:0:
256,192,94186,1,0,0:0:0:0:
256,192,94269,1,0,0:0:0:0:
256,192,94353,1,0,0:0:0:0:
256,192,94519,1,0,0:0:0:0:
256,192,94686,1,8,0:0:0:0:
256,192,94936,1,0,0:0:0:0:
256,192,95019,1,0,0:0:0:0:
256,192,95186,1,0,0:0:0:0:
256,192,95352,1,8,0:0:0:0:
256,192,95436,1,0,0:0:0:0:
256,192,95686,1,8,0:0:0:0:
256,192,96352,1,0,0:0:0:0:
256,192,96686,1,8,0:0:0:0:
256,192,96852,1,0,0:0:0:0:
256,192,96936,1,0,0:0:0:0:
256,192,97019,1,0,0:0:0:0:
256,192,97186,1,8,0:0:0:0:
256,192,97352,1,8,0:0:0:0:
256,192,97602,1,0,0:0:0:0:
256,192,97686,1,0,0:0:0:0:
256,192,97852,1,8,0:0:0:0:
256,192,98019,1,0,0:0:0:0:
256,192,98186,1,8,0:0:0:0:
256,192,98269,1,8,0:0:0:0:
256,192,98352,1,8,0:0:0:0:
256,192,98519,1,8,0:0:0:0:
256,192,98686,1,0,0:0:0:0:
256,192,99019,1,8,0:0:0:0:
256,192,99186,1,0,0:0:0:0:
256,192,99352,1,8,0:0:0:0:
256,192,99519,1,0,0:0:0:0:
256,192,99602,1,0,0:0:0:0:
256,192,99686,1,0,0:0:0:0:
256,192,99852,1,0,0:0:0:0:
256,192,100019,1,8,0:0:0:0:
256,192,100269,1,0,0:0:0:0:
256,192,100352,1,0,0:0:0:0:
256,192,100519,1,0,0:0:0:0:
252,195,100686,1,8,0:0:0:0:
256,192,100769,1,0,0:0:0:0:
256,192,101019,1,8,0:0:0:0:
256,192,101186,1,0,0:0:0:0:
245,188,101352,1,0,0:0:0:0:
256,192,101519,1,8,0:0:0:0:
252,195,101602,1,8,0:0:0:0:
