osu file format v14

[General]
AudioFilename: katharsis.mp3
AudioLeadIn: 0
PreviewTime: 11221
Countdown: 0
SampleSet: Soft
StackLeniency: 0.7
Mode: 0
LetterboxInBreaks: 0
WidescreenStoryboard: 0

[Editor]
DistanceSpacing: 1.2
BeatDivisor: 2
GridSize: 4
TimelineZoom: 1

[Metadata]
Title:Mousou Katharsis
TitleUnicode:妄想Katharsis
Artist:Orange Heart(cv:Honda Mariko) Neptune(cv:Tanaka Rie)
ArtistUnicode:オレンジハート(cv:本多真梨子)・ネプテューヌ(cv:田中理恵)
Creator:Yukiin0
Version:Normal
Source:新次元ゲイム ネプテューヌVⅡ
Tags:Shin Jigen Game Hyperdimension Neptunia Victory 2 VII
BeatmapID:1035675
BeatmapSetID:485673

[Difficulty]
HPDrainRate:4
CircleSize:3
OverallDifficulty:4
ApproachRate:4
SliderMultiplier:1.5
SliderTickRate:1

[Events]
//Background and Video events
0,0,"bg.jpg",0,0
//Break Periods
//Storyboard Layer 0 (Background)
//Storyboard Layer 1 (Fail)
//Storyboard Layer 2 (Pass)
//Storyboard Layer 3 (Foreground)
//Storyboard Sound Samples

[TimingPoints]
246,731.707317073171,4,2,0,50,1,0
11953,-100,4,2,0,50,0,1
18538,-90.9090909090909,4,2,0,50,0,1
19636,-100,4,2,0,50,0,1
22928,-90.9090909090909,4,2,0,50,0,1
23294,-100,4,2,0,50,0,1
35367,-100,4,2,0,50,0,0

[Colours]
Combo1 : 255,255,255
Combo2 : 255,134,0
Combo3 : 29,184,243
Combo4 : 248,98,7

[HitObjects]
112,88,246,6,0,P|104:188|140:236,1,150,0|2,0:0|0:0,0:0:0:0:
277,267,1709,2,0,P|314:238|327:198,2,75,0|0|2,0:0|0:0|0:0,0:0:0:0:
184,260,2806,1,0,0:0:0:0:
184,168,3172,2,0,P|223:176|252:196,2,75,0|0|2,0:0|0:0|0:0,0:0:0:0:
108,216,4270,1,0,0:0:0:0:
104,128,4636,2,0,P|148:88|240:96,1,150,0|2,0:0|0:0,0:0:0:0:
320,196,6099,6,0,P|341:226|372:246,1,75
464,191,6831,2,0,P|440:162|406:147,1,75,2|0,0:0|0:0,0:0:0:0:
324,112,7563,2,0,P|354:75|385:61,2,75,0|0|2,0:0|0:0|0:0,0:0:0:0:
308,200,8660,1,0,0:0:0:0:
276,284,9026,6,0,P|336:288|356:276,2,75,0|0|2,0:0|0:0|0:0,0:0:0:0:
196,244,10124,1,0,0:0:0:0:
160,160,10489,1,0,0:0:0:0:
208,84,10855,1,0,0:0:0:0:
296,60,11221,2,0,P|340:84|360:112,1,75,2|0,0:0|0:0,0:0:0:0:
392,184,11953,6,0,P|376:244|360:268,1,75,4|0,0:0|0:0,0:0:0:0:
304,316,12685,2,0,P|272:328|220:316,1,75,8|0,0:0|0:0,0:0:0:0:
148,288,13416,2,0,P|176:252|212:236,1,75
292,224,14148,2,0,P|271:177|244:160,1,75,8|0,0:0|0:0,0:0:0:0:
168,112,14880,5,0,0:0:0:0:
96,164,15246,1,0,0:0:0:0:
108,252,15611,1,8,0:0:0:0:
192,288,15977,1,0,0:0:0:0:
280,312,16343,2,0,P|340:316|372:312,1,75
416,248,17075,2,0,P|360:228|328:232,1,75,8|0,0:0|0:0,0:0:0:0:
256,224,17806,6,0,P|208:200|192:164,1,75
176,88,18538,6,0,P|209:64|252:60,1,82.5000025177003,8|0,0:0|0:0,0:0:0:0:
344,92,19270,2,0,P|376:140|376:168,1,82.5000025177003
344,248,20001,1,8,0:0:0:0:
268,296,20367,1,0,0:0:0:0:
180,276,20733,6,0,P|136:244|116:200,1,75
132,136,21465,1,8,0:0:0:0:
220,132,21831,1,0,0:0:0:0:
308,136,22197,2,0,P|296:180|264:212,1,75
208,272,22928,2,0,P|264:300|299:297,1,82.5000025177003,8|0,0:0|0:0,0:0:0:0:
368,276,23660,6,0,P|396:224|396:192,1,75,4|0,0:0|0:0,0:0:0:0:
372,124,24392,1,8,0:0:0:0:
296,76,24758,1,0,0:0:0:0:
208,92,25124,2,0,P|232:144|260:160,1,75
292,228,25855,2,0,P|228:240|192:228,1,75,8|0,0:0|0:0,0:0:0:0:
140,196,26587,5,0,0:0:0:0:
76,136,26953,1,0,0:0:0:0:
120,56,27319,2,0,P|164:40|208:44,1,75,8|0,0:0|0:0,0:0:0:0:
200,132,28050,2,0,P|244:124|267:106,1,75
336,48,28782,2,0,P|356:108|344:144,1,75,8|0,0:0|0:0,0:0:0:0:
324,204,29514,6,0,P|256:244|176:244,1,150,0|8,0:0|0:0,0:0:0:0:
112,196,30611,1,0,0:0:0:0:
107,107,30977,2,0,P|143:112|176:132,2,75,0|0|8,0:0|0:0|0:0,0:0:0:0:
28,152,32075,1,0,0:0:0:0:
40,240,32441,6,0,P|93:279|125:277,1,75,4|0,0:0|0:0,0:0:0:0:
188,280,33172,1,8,0:0:0:0:
272,252,33538,1,0,0:0:0:0:
340,192,33904,2,0,P|376:116|272:52,1,225
192,84,35367,6,0,P|152:96|120:96,1,75
36,128,36099,2,0,P|56:160|92:180,1,75,2|0,0:0|0:0,0:0:0:0:
176,200,36831,2,0,P|144:252|112:268,2,75,0|0|2,0:0|0:0|0:0,0:0:0:0:
188,112,37928,1,0,0:0:0:0:
260,60,38294,5,0,0:0:0:0:
336,108,38660,1,0,0:0:0:0:
380,184,39026,2,0,P|396:244|384:276,1,75,2|0,0:0|0:0,0:0:0:0:
336,324,39758,2,0,P|392:348|416:344,2,75,0|0|2,0:0|0:0|0:0,0:0:0:0:
268,264,40855,1,0,0:0:0:0:
192,216,41221,6,0,P|256:175|324:192,1,150,0|2,0:0|0:0,0:0:0:0:
380,260,42319,1,0,0:0:0:0:
420,180,42684,1,0,0:0:0:0:
388,96,43050,1,0,0:0:0:0:
312,48,43416,2,0,P|256:40|216:52,1,75,2|0,0:0|0:0,0:0:0:0:
256,192,44148,12,0,46343,0:0:0:0:
