osu file format v14

[General]
AudioFilename: audio.mp3
AudioLeadIn: 0
PreviewTime: 96029
Countdown: 1
SampleSet: Normal
StackLeniency: 0.7
Mode: 1
LetterboxInBreaks: 0
WidescreenStoryboard: 0

[Editor]
DistanceSpacing: 0.2
BeatDivisor: 4
GridSize: 16
TimelineZoom: 2.2

[Metadata]
Title:Fierce Heart
TitleUnicode:Fierce Heart
Artist:OptiU
ArtistUnicode:OptiU
Creator:plmnbvz
Version:Inzane
Source:
Tags:tig ol bitties SDVX
BeatmapID:1059226
BeatmapSetID:497674

[Difficulty]
HPDrainRate:5
CircleSize:5
OverallDifficulty:6
ApproachRate:5
SliderMultiplier:1.4
SliderTickRate:1

[Events]
//Background and Video events
0,0,"wallhaven-421602.jpg",0,0
//Break Periods
//Storyboard Layer 0 (Background)
//Storyboard Layer 1 (Fail)
//Storyboard Layer 2 (Pass)
//Storyboard Layer 3 (Foreground)
//Storyboard Sound Samples

[TimingPoints]
30,315.789473684211,4,1,0,100,1,0
81187,315.789473684211,4,1,0,100,1,1
101081,315.789473684211,4,1,0,100,1,0

[HitObjects]
250,180,30,5,8,0:0:0:0:
250,180,503,1,0,0:0:0:0:
250,180,661,1,0,0:0:0:0:
250,180,819,1,0,0:0:0:0:
250,180,977,1,8,0:0:0:0:
255,170,1135,1,0,0:0:0:0:
255,170,1293,1,8,0:0:0:0:
252,171,1608,1,0,0:0:0:0:
252,171,1924,1,8,0:0:0:0:
255,170,2240,1,0,0:0:0:0:
252,171,2398,1,0,0:0:0:0:
252,171,2477,1,0,0:0:0:0:
252,171,2556,1,8,0:0:0:0:
252,171,2872,1,0,0:0:0:0:
250,163,3187,1,8,0:0:0:0:
250,163,3503,1,0,0:0:0:0:
250,163,3661,1,0,0:0:0:0:
250,163,3819,1,8,0:0:0:0:
250,163,4135,1,8,0:0:0:0:
250,163,4293,1,0,0:0:0:0:
250,163,4608,1,0,0:0:0:0:
250,163,4766,1,8,0:0:0:0:
249,153,5082,1,8,0:0:0:0:
247,153,5398,1,8,0:0:0:0:
247,153,5556,1,0,0:0:0:0:
247,153,5714,1,8,0:0:0:0:
238,151,5793,1,0,0:0:0:0:
238,151,5872,1,8,0:0:0:0:
238,151,6029,1,8,0:0:0:0:
238,151,6187,1,0,0:0:0:0:
238,151,6345,1,8,0:0:0:0:
256,166,6977,1,8,0:0:0:0:
256,166,7135,1,0,0:0:0:0:
256,166,7214,1,0,0:0:0:0:
256,167,7293,1,8,0:0:0:0:
264,167,7451,1,0,0:0:0:0:
264,167,7608,1,8,0:0:0:0:
253,161,7845,1,8,0:0:0:0:
253,161,8082,1,8,0:0:0:0:
259,156,8161,1,0,0:0:0:0:
259,156,8240,1,8,0:0:0:0:
258,156,8398,1,0,0:0:0:0:
258,156,8556,1,8,0:0:0:0:
258,156,8635,1,0,0:0:0:0:
258,156,8714,1,0,0:0:0:0:
258,157,8872,1,8,0:0:0:0:
250,147,9030,1,0,0:0:0:0:
250,147,9108,1,0,0:0:0:0:
250,147,9187,1,8,0:0:0:0:
250,147,9266,1,8,0:0:0:0:
250,147,9345,1,8,0:0:0:0:
250,147,9424,1,0,0:0:0:0:
250,147,9503,1,8,0:0:0:0:
251,147,9661,1,8,0:0:0:0:
251,147,9819,1,8,0:0:0:0:
251,147,9977,1,0,0:0:0:0:
244,151,10135,1,8,0:0:0:0:
261,146,10293,1,0,0:0:0:0:
261,146,10372,1,0,0:0:0:0:
261,146,10451,1,8,0:0:0:0:
261,146,10608,1,8,0:0:0:0:
261,146,10687,1,0,0:0:0:0:
261,146,10766,1,8,0:0:0:0:
261,146,10924,1,0,0:0:0:0:
261,146,11082,1,12,0:0:0:0:
262,151,11398,1,8,0:0:0:0:
263,155,11477,1,0,0:0:0:0:
263,155,11556,1,8,0:0:0:0:
263,162,11714,1,8,0:0:0:0:
263,162,11872,1,0,0:0:0:0:
262,162,11951,1,0,0:0:0:0:
262,162,12030,1,8,0:0:0:0:
261,162,12187,1,8,0:0:0:0:
261,162,12345,1,0,0:0:0:0:
263,155,12424,1,0,0:0:0:0:
260,161,12503,1,0,0:0:0:0:
263,162,12661,1,0,0:0:0:0:
274,157,12819,1,8,0:0:0:0:
274,157,12977,1,0,0:0:0:0:
274,157,13056,1,0,0:0:0:0:
274,157,13135,1,8,0:0:0:0:
274,157,13293,1,8,0:0:0:0:
274,157,13372,1,0,0:0:0:0:
274,157,13451,1,8,0:0:0:0:
265,150,13608,1,12,0:0:0:0:
266,146,13924,1,0,0:0:0:0:
266,146,14003,1,8,0:0:0:0:
266,146,14082,1,0,0:0:0:0:
266,146,14240,1,0,0:0:0:0:
266,146,14398,1,8,0:0:0:0:
266,146,14477,1,8,0:0:0:0:
265,150,14556,1,0,0:0:0:0:
266,146,14714,1,0,0:0:0:0:
266,146,14872,1,0,0:0:0:0:
266,146,14951,1,0,0:0:0:0:
266,146,15030,1,0,0:0:0:0:
266,146,15187,1,8,0:0:0:0:
280,142,15345,1,0,0:0:0:0:
279,142,15503,1,8,0:0:0:0:
279,142,15582,1,0,0:0:0:0:
279,141,15661,1,8,0:0:0:0:
279,141,15740,1,8,0:0:0:0:
279,141,15819,1,0,0:0:0:0:
279,141,15977,1,0,0:0:0:0:
279,141,16135,1,8,0:0:0:0:
272,131,16451,1,8,0:0:0:0:
266,141,16608,1,8,0:0:0:0:
266,141,16766,1,8,0:0:0:0:
266,141,16845,1,0,0:0:0:0:
266,141,16924,1,0,0:0:0:0:
266,141,17082,1,8,0:0:0:0:
266,141,17240,1,0,0:0:0:0:
266,141,17398,1,0,0:0:0:0:
290,152,17477,1,0,0:0:0:0:
289,157,17556,1,0,0:0:0:0:
288,152,17714,1,8,0:0:0:0:
284,150,17872,1,8,0:0:0:0:
284,150,17951,1,8,0:0:0:0:
284,150,18030,1,8,0:0:0:0:
284,150,18187,1,0,0:0:0:0:
284,150,18266,1,0,0:0:0:0:
284,150,18345,1,8,0:0:0:0:
284,150,18424,1,8,0:0:0:0:
284,150,18503,1,0,0:0:0:0:
284,150,18582,1,0,0:0:0:0:
288,152,18661,1,8,0:0:0:0:
274,152,18977,1,8,0:0:0:0:
272,154,19135,1,0,0:0:0:0:
272,154,19214,1,0,0:0:0:0:
272,154,19293,1,8,0:0:0:0:
272,154,19451,1,8,0:0:0:0:
272,154,19608,1,0,0:0:0:0:
278,152,19687,1,0,0:0:0:0:
274,152,19766,1,8,0:0:0:0:
274,152,19924,1,8,0:0:0:0:
274,152,20003,1,8,0:0:0:0:
273,153,20082,1,8,0:0:0:0:
272,154,20240,1,12,0:0:0:0:
246,153,20398,1,0,0:0:0:0:
247,154,20477,1,0,0:0:0:0:
247,154,20556,1,8,0:0:0:0:
247,154,20635,1,8,0:0:0:0:
247,154,20714,1,8,0:0:0:0:
247,152,20872,1,0,0:0:0:0:
247,152,21030,1,8,0:0:0:0:
247,152,21108,1,8,0:0:0:0:
247,152,21187,1,0,0:0:0:0:
247,152,21266,1,0,0:0:0:0:
246,153,21345,1,8,0:0:0:0:
247,154,21503,1,8,0:0:0:0:
247,154,21661,1,8,0:0:0:0:
247,152,21819,1,0,0:0:0:0:
247,152,21898,1,0,0:0:0:0:
247,152,21977,1,8,0:0:0:0:
247,152,22135,1,8,0:0:0:0:
247,152,22214,1,0,0:0:0:0:
247,152,22293,1,8,0:0:0:0:
247,154,22451,1,8,0:0:0:0:
261,159,22608,1,0,0:0:0:0:
263,155,22687,1,0,0:0:0:0:
264,155,22766,1,8,0:0:0:0:
267,152,22845,1,0,0:0:0:0:
267,152,22924,1,0,0:0:0:0:
267,152,23082,1,8,0:0:0:0:
267,152,23240,1,8,0:0:0:0:
267,152,23319,1,0,0:0:0:0:
267,152,23398,1,8,0:0:0:0:
276,149,23556,1,0,0:0:0:0:
276,149,23714,1,8,0:0:0:0:
276,149,23793,1,8,0:0:0:0:
276,149,23872,1,0,0:0:0:0:
276,149,24030,1,8,0:0:0:0:
284,136,24187,1,0,0:0:0:0:
281,140,24266,1,8,0:0:0:0:
281,140,24345,1,8,0:0:0:0:
281,140,24424,1,0,0:0:0:0:
281,140,24503,1,0,0:0:0:0:
281,140,24661,1,8,0:0:0:0:
281,140,24740,1,8,0:0:0:0:
281,140,24819,1,8,0:0:0:0:
281,140,24977,1,8,0:0:0:0:
284,136,25135,1,8,0:0:0:0:
281,140,25293,1,8,0:0:0:0:
281,140,25451,1,0,0:0:0:0:
281,140,25530,1,0,0:0:0:0:
281,140,25608,1,8,0:0:0:0:
281,140,25766,1,8,0:0:0:0:
281,140,25845,1,0,0:0:0:0:
281,140,25924,1,8,0:0:0:0:
306,142,26003,1,0,0:0:0:0:
306,142,26082,1,8,0:0:0:0:
282,124,26240,1,8,0:0:0:0:
283,124,26398,1,0,0:0:0:0:
283,124,26556,1,8,0:0:0:0:
286,124,26635,1,0,0:0:0:0:
286,124,26714,1,8,0:0:0:0:
286,124,26793,1,0,0:0:0:0:
288,124,26872,1,8,0:0:0:0:
288,124,26951,1,0,0:0:0:0:
288,124,27030,1,8,0:0:0:0:
288,124,27187,1,8,0:0:0:0:
288,124,27345,1,0,0:0:0:0:
288,124,27424,1,8,0:0:0:0:
288,124,27503,1,8,0:0:0:0:
286,124,27661,1,0,0:0:0:0:
286,124,27819,1,8,0:0:0:0:
284,134,27898,1,8,0:0:0:0:
284,134,27977,1,8,0:0:0:0:
286,132,28056,1,0,0:0:0:0:
286,132,28135,1,8,0:0:0:0:
286,132,28214,1,0,0:0:0:0:
286,132,28293,1,0,0:0:0:0:
286,132,28372,1,8,0:0:0:0:
286,132,28451,1,8,0:0:0:0:
286,132,28608,1,8,0:0:0:0:
286,132,28766,1,0,0:0:0:0:
284,134,28924,1,0,0:0:0:0:
286,132,29003,1,8,0:0:0:0:
286,132,29082,1,8,0:0:0:0:
258,141,29240,1,0,0:0:0:0:
258,141,29398,1,8,0:0:0:0:
258,141,29477,1,0,0:0:0:0:
272,167,29556,1,8,0:0:0:0:
258,141,29635,1,0,0:0:0:0:
258,141,29714,1,8,0:0:0:0:
258,141,29872,1,8,0:0:0:0:
258,141,29951,1,0,0:0:0:0:
258,141,30030,1,8,0:0:0:0:
259,146,30187,1,8,0:0:0:0:
259,146,30266,1,0,0:0:0:0:
259,146,30345,1,8,0:0:0:0:
259,146,30503,1,0,0:0:0:0:
259,146,30661,1,0,0:0:0:0:
259,146,30740,1,0,0:0:0:0:
259,146,30819,1,8,0:0:0:0:
259,146,30898,1,0,0:0:0:0:
259,146,30977,1,8,0:0:0:0:
259,146,31056,1,0,0:0:0:0:
259,146,31135,1,0,0:0:0:0:
259,146,31293,1,8,0:0:0:0:
259,146,31451,1,0,0:0:0:0:
264,142,31530,1,8,0:0:0:0:
264,142,31608,1,8,0:0:0:0:
266,142,31766,1,0,0:0:0:0:
266,142,31924,1,8,0:0:0:0:
266,143,32003,1,0,0:0:0:0:
266,143,32161,1,8,0:0:0:0:
266,143,32240,1,0,0:0:0:0:
266,143,32398,1,0,0:0:0:0:
266,143,32477,1,8,0:0:0:0:
264,142,32635,1,0,0:0:0:0:
266,142,32714,1,8,0:0:0:0:
266,142,32872,1,8,0:0:0:0:
276,139,32951,1,0,0:0:0:0:
276,139,33030,1,0,0:0:0:0:
276,139,33108,1,0,0:0:0:0:
276,139,33187,1,8,0:0:0:0:
276,139,33345,1,8,0:0:0:0:
276,139,33503,1,0,0:0:0:0:
276,139,33661,1,0,0:0:0:0:
276,139,33740,1,0,0:0:0:0:
276,139,33819,1,8,0:0:0:0:
276,139,33898,1,0,0:0:0:0:
276,139,33977,1,8,0:0:0:0:
276,139,34135,1,8,0:0:0:0:
240,162,34293,1,0,0:0:0:0:
243,167,34372,1,8,0:0:0:0:
243,167,34451,1,8,0:0:0:0:
243,167,34608,1,8,0:0:0:0:
243,167,34687,1,0,0:0:0:0:
243,167,34766,1,8,0:0:0:0:
243,167,34924,1,8,0:0:0:0:
243,167,35003,1,0,0:0:0:0:
243,167,35082,1,8,0:0:0:0:
243,167,35161,1,8,0:0:0:0:
243,167,35240,1,8,0:0:0:0:
243,167,35398,1,8,0:0:0:0:
227,165,35556,1,0,0:0:0:0:
227,165,35635,1,0,0:0:0:0:
227,165,35714,1,8,0:0:0:0:
227,165,35793,1,8,0:0:0:0:
227,165,35872,1,0,0:0:0:0:
227,165,35951,1,8,0:0:0:0:
228,165,36030,1,8,0:0:0:0:
228,165,36187,1,8,0:0:0:0:
228,165,36345,1,0,0:0:0:0:
228,165,36424,1,8,0:0:0:0:
227,165,36503,1,0,0:0:0:0:
227,165,36661,1,8,0:0:0:0:
246,150,36819,1,0,0:0:0:0:
247,150,36898,1,0,0:0:0:0:
247,150,36977,1,8,0:0:0:0:
247,150,37056,1,8,0:0:0:0:
247,150,37135,1,0,0:0:0:0:
247,150,37214,1,8,0:0:0:0:
247,150,37293,1,0,0:0:0:0:
247,150,37372,1,8,0:0:0:0:
247,150,37451,1,8,0:0:0:0:
247,150,37608,1,8,0:0:0:0:
247,150,37924,1,0,0:0:0:0:
247,150,38003,1,8,0:0:0:0:
247,150,38082,1,0,0:0:0:0:
247,150,38240,1,8,0:0:0:0:
247,150,38398,1,8,0:0:0:0:
247,150,38477,1,0,0:0:0:0:
247,150,38556,1,8,0:0:0:0:
247,150,38714,1,8,0:0:0:0:
247,150,38793,1,8,0:0:0:0:
247,150,38872,1,8,0:0:0:0:
247,150,39030,1,0,0:0:0:0:
247,150,39108,1,0,0:0:0:0:
247,150,39187,1,8,0:0:0:0:
247,150,39345,1,0,0:0:0:0:
247,150,39503,1,8,0:0:0:0:
247,150,39661,1,0,0:0:0:0:
247,150,39740,1,0,0:0:0:0:
247,150,39819,1,0,0:0:0:0:
247,150,39898,1,0,0:0:0:0:
247,150,39977,1,0,0:0:0:0:
247,150,40056,1,8,0:0:0:0:
247,150,40135,1,8,0:0:0:0:
247,150,40214,1,0,0:0:0:0:
247,150,40293,1,8,0:0:0:0:
247,150,40372,1,0,0:0:0:0:
247,150,40451,1,8,0:0:0:0:
232,146,40608,1,0,0:0:0:0:
233,149,40766,1,8,0:0:0:0:
233,149,40924,1,8,0:0:0:0:
233,149,41082,1,8,0:0:0:0:
233,149,41240,1,8,0:0:0:0:
233,149,41319,1,0,0:0:0:0:
233,149,41398,1,8,0:0:0:0:
232,146,41556,1,0,0:0:0:0:
233,148,41714,1,8,0:0:0:0:
233,149,41793,1,0,0:0:0:0:
233,149,41872,1,8,0:0:0:0:
233,149,41951,1,8,0:0:0:0:
233,149,42030,1,8,0:0:0:0:
233,149,42187,1,0,0:0:0:0:
233,149,42266,1,0,0:0:0:0:
233,149,42345,1,8,0:0:0:0:
232,146,42503,1,8,0:0:0:0:
232,146,42582,1,0,0:0:0:0:
233,148,42661,1,0,0:0:0:0:
233,149,42819,1,0,0:0:0:0:
233,149,42977,1,8,0:0:0:0:
233,149,43135,1,0,0:0:0:0:
233,149,43293,1,8,0:0:0:0:
232,146,43608,1,0,0:0:0:0:
253,147,43687,1,0,0:0:0:0:
253,147,43766,1,0,0:0:0:0:
233,149,43924,1,8,0:0:0:0:
253,147,44082,1,8,0:0:0:0:
254,147,44161,1,8,0:0:0:0:
254,147,44240,1,0,0:0:0:0:
254,147,44398,1,0,0:0:0:0:
254,147,44477,1,8,0:0:0:0:
254,147,44556,1,8,0:0:0:0:
253,147,44714,1,8,0:0:0:0:
254,147,44872,1,0,0:0:0:0:
253,147,45030,1,8,0:0:0:0:
254,147,45187,1,8,0:0:0:0:
254,147,45266,1,8,0:0:0:0:
254,147,45345,1,0,0:0:0:0:
254,147,45503,1,8,0:0:0:0:
302,153,45661,1,0,0:0:0:0:
256,166,45819,1,0,0:0:0:0:
302,153,45977,1,8,0:0:0:0:
256,172,46135,1,8,0:0:0:0:
258,172,46214,1,0,0:0:0:0:
258,172,46293,1,0,0:0:0:0:
258,172,46372,1,8,0:0:0:0:
258,172,46451,1,8,0:0:0:0:
262,169,46608,1,8,0:0:0:0:
262,169,46687,1,0,0:0:0:0:
262,169,46845,1,0,0:0:0:0:
262,169,46924,1,8,0:0:0:0:
262,168,47082,1,8,0:0:0:0:
262,168,47240,1,0,0:0:0:0:
261,168,47319,1,0,0:0:0:0:
261,168,47398,1,8,0:0:0:0:
262,169,47556,1,8,0:0:0:0:
262,169,47635,1,0,0:0:0:0:
262,169,47714,1,8,0:0:0:0:
262,169,47793,1,0,0:0:0:0:
262,169,47872,1,0,0:0:0:0:
262,168,48030,1,8,0:0:0:0:
262,168,48187,1,8,0:0:0:0:
262,168,48266,1,0,0:0:0:0:
261,168,48345,1,0,0:0:0:0:
262,169,48503,1,0,0:0:0:0:
262,169,48582,1,0,0:0:0:0:
262,169,48661,1,8,0:0:0:0:
262,169,48819,1,8,0:0:0:0:
262,168,48977,1,8,0:0:0:0:
262,168,49135,1,0,0:0:0:0:
262,168,49293,1,8,0:0:0:0:
262,169,49451,1,8,0:0:0:0:
262,169,49530,1,0,0:0:0:0:
262,169,49608,1,0,0:0:0:0:
262,169,49687,1,0,0:0:0:0:
262,169,49766,1,0,0:0:0:0:
262,168,49924,1,8,0:0:0:0:
262,168,50082,1,0,0:0:0:0:
262,168,50161,1,0,0:0:0:0:
262,168,50240,1,8,0:0:0:0:
262,168,50319,1,0,0:0:0:0:
262,169,50398,1,8,0:0:0:0:
262,169,50556,1,8,0:0:0:0:
267,166,50714,1,0,0:0:0:0:
267,165,50872,1,8,0:0:0:0:
267,165,51030,1,0,0:0:0:0:
267,165,51187,1,0,0:0:0:0:
267,165,51345,1,0,0:0:0:0:
267,165,51503,1,8,0:0:0:0:
267,166,51661,1,0,0:0:0:0:
267,166,51740,1,0,0:0:0:0:
267,165,51819,1,0,0:0:0:0:
267,165,51977,1,8,0:0:0:0:
267,165,52135,1,8,0:0:0:0:
267,165,52293,1,0,0:0:0:0:
267,165,52451,1,0,0:0:0:0:
267,166,52608,1,8,0:0:0:0:
267,166,52766,1,8,0:0:0:0:
267,165,52845,1,0,0:0:0:0:
267,165,52924,1,0,0:0:0:0:
267,165,53082,1,8,0:0:0:0:
267,165,53240,1,0,0:0:0:0:
267,165,53319,1,0,0:0:0:0:
267,165,53398,1,8,0:0:0:0:
267,166,53556,1,8,0:0:0:0:
267,166,53714,1,0,0:0:0:0:
267,166,53793,1,0,0:0:0:0:
267,165,53872,1,8,0:0:0:0:
267,165,53951,1,0,0:0:0:0:
267,165,54030,1,8,0:0:0:0:
268,159,54187,1,0,0:0:0:0:
268,160,54345,1,8,0:0:0:0:
254,151,54503,1,0,0:0:0:0:
254,152,54661,1,8,0:0:0:0:
254,152,54819,1,8,0:0:0:0:
254,152,54977,1,0,0:0:0:0:
254,152,55056,1,0,0:0:0:0:
254,152,55135,1,0,0:0:0:0:
255,152,55293,1,8,0:0:0:0:
255,152,55372,1,8,0:0:0:0:
254,151,55451,1,8,0:0:0:0:
254,152,55608,1,8,0:0:0:0:
254,152,55766,1,0,0:0:0:0:
254,152,55924,1,8,0:0:0:0:
254,152,56082,1,0,0:0:0:0:
255,152,56240,1,8,0:0:0:0:
255,152,56398,1,0,0:0:0:0:
254,152,56556,1,0,0:0:0:0:
264,145,56714,1,0,0:0:0:0:
254,152,56872,1,8,0:0:0:0:
254,152,56951,1,8,0:0:0:0:
259,151,57030,1,8,0:0:0:0:
265,146,57187,1,0,0:0:0:0:
265,146,57345,1,8,0:0:0:0:
265,146,57503,1,8,0:0:0:0:
264,145,57661,1,0,0:0:0:0:
265,146,57819,1,8,0:0:0:0:
265,146,57977,1,0,0:0:0:0:
265,146,58135,1,0,0:0:0:0:
265,146,58214,1,0,0:0:0:0:
265,146,58293,1,0,0:0:0:0:
265,146,58451,1,0,0:0:0:0:
265,146,58530,1,0,0:0:0:0:
264,145,58608,1,0,0:0:0:0:
265,146,58766,1,0,0:0:0:0:
265,146,58845,1,0,0:0:0:0:
265,146,58924,1,0,0:0:0:0:
265,146,59082,1,0,0:0:0:0:
265,146,59161,1,0,0:0:0:0:
265,146,59240,1,0,0:0:0:0:
265,146,59319,1,0,0:0:0:0:
265,146,59398,1,0,0:0:0:0:
265,146,59477,1,0,0:0:0:0:
265,146,59556,1,0,0:0:0:0:
265,146,59714,1,0,0:0:0:0:
265,146,59793,1,0,0:0:0:0:
265,146,59872,1,8,0:0:0:0:
265,146,60030,1,0,0:0:0:0:
265,146,60187,1,8,0:0:0:0:
265,146,60266,1,8,0:0:0:0:
265,146,60345,1,8,0:0:0:0:
265,146,60503,1,0,0:0:0:0:
265,146,60661,1,12,0:0:0:0:
262,171,62397,1,0,0:0:0:0:
262,171,62476,1,0,0:0:0:0:
262,171,62555,1,0,0:0:0:0:
262,171,62871,1,0,0:0:0:0:
262,171,63029,1,0,0:0:0:0:
262,171,63187,1,8,0:0:0:0:
272,161,64134,1,0,0:0:0:0:
272,161,64292,1,0,0:0:0:0:
272,161,64450,1,8,0:0:0:0:
274,162,67450,1,0,0:0:0:0:
274,162,67529,1,0,0:0:0:0:
274,162,67608,1,0,0:0:0:0:
274,162,67924,1,0,0:0:0:0:
274,162,68003,1,0,0:0:0:0:
274,162,68082,1,0,0:0:0:0:
274,162,68239,1,12,0:0:0:0:
253,162,69187,1,0,0:0:0:0:
253,162,69345,1,0,0:0:0:0:
253,162,69503,1,8,0:0:0:0:
253,162,69582,1,8,0:0:0:0:
253,162,69661,1,8,0:0:0:0:
253,162,69818,1,8,0:0:0:0:
253,162,69897,1,8,0:0:0:0:
253,162,69976,1,8,0:0:0:0:
253,162,70134,1,8,0:0:0:0:
253,162,70213,1,8,0:0:0:0:
253,162,70292,1,8,0:0:0:0:
253,162,70371,1,8,0:0:0:0:
253,162,70450,1,8,0:0:0:0:
253,162,70608,1,8,0:0:0:0:
253,162,70766,1,12,0:0:0:0:
253,162,70924,1,4,0:0:0:0:
253,162,71082,1,12,0:0:0:0:
253,162,71239,1,4,0:0:0:0:
253,162,71397,1,4,0:0:0:0:
253,162,71555,1,12,0:0:0:0:
253,162,71713,1,12,0:0:0:0:
259,160,72029,1,12,0:0:0:0:
259,160,72187,1,4,0:0:0:0:
259,160,72345,1,12,0:0:0:0:
259,160,72503,1,12,0:0:0:0:
259,160,72661,1,4,0:0:0:0:
259,160,72818,1,4,0:0:0:0:
259,160,72976,1,12,0:0:0:0:
275,171,73292,1,12,0:0:0:0:
273,171,73450,1,4,0:0:0:0:
272,166,73608,1,4,0:0:0:0:
272,166,73766,1,4,0:0:0:0:
250,168,73924,1,12,0:0:0:0:
253,162,74082,1,4,0:0:0:0:
258,156,74239,1,12,0:0:0:0:
258,156,74555,1,12,0:0:0:0:
258,156,74713,1,4,0:0:0:0:
258,156,74871,1,12,0:0:0:0:
258,156,75029,1,4,0:0:0:0:
258,156,75187,1,4,0:0:0:0:
258,156,75345,1,12,0:0:0:0:
258,156,75503,1,12,0:0:0:0:
258,156,75818,1,8,0:0:0:0:
258,156,75976,1,0,0:0:0:0:
258,156,76134,1,0,0:0:0:0:
258,156,76292,1,8,0:0:0:0:
258,156,76450,1,8,0:0:0:0:
265,141,76529,1,0,0:0:0:0:
265,141,76608,1,0,0:0:0:0:
265,141,76766,1,8,0:0:0:0:
265,141,76924,1,0,0:0:0:0:
265,141,77003,1,0,0:0:0:0:
265,141,77082,1,8,0:0:0:0:
265,141,77239,1,8,0:0:0:0:
265,141,77397,1,8,0:0:0:0:
271,131,77555,1,0,0:0:0:0:
271,131,77713,1,0,0:0:0:0:
271,131,77871,1,8,0:0:0:0:
271,131,78029,1,8,0:0:0:0:
271,131,78187,1,0,0:0:0:0:
271,131,78266,1,0,0:0:0:0:
271,131,78345,1,8,0:0:0:0:
271,131,78503,1,8,0:0:0:0:
271,131,78582,1,8,0:0:0:0:
271,131,78661,1,8,0:0:0:0:
271,131,78818,1,8,0:0:0:0:
271,131,78897,1,8,0:0:0:0:
271,131,78976,1,8,0:0:0:0:
271,131,79055,1,0,0:0:0:0:
271,131,79134,1,0,0:0:0:0:
271,131,79213,1,8,0:0:0:0:
271,131,79292,1,8,0:0:0:0:
271,131,79371,1,8,0:0:0:0:
271,131,79450,1,8,0:0:0:0:
271,131,79608,1,8,0:0:0:0:
271,131,79766,1,0,0:0:0:0:
271,131,79845,1,0,0:0:0:0:
271,131,79924,1,8,0:0:0:0:
271,131,80082,1,0,0:0:0:0:
271,131,80161,1,8,0:0:0:0:
271,131,80239,1,8,0:0:0:0:
271,131,80397,1,8,0:0:0:0:
271,131,80476,1,0,0:0:0:0:
271,131,80555,1,8,0:0:0:0:
271,131,80713,1,8,0:0:0:0:
271,131,80792,1,8,0:0:0:0:
271,131,80871,1,8,0:0:0:0:
271,131,81187,1,12,0:0:0:0:
271,131,81345,1,0,0:0:0:0:
271,131,81424,1,0,0:0:0:0:
271,131,81503,1,8,0:0:0:0:
271,131,81582,1,8,0:0:0:0:
271,131,81661,1,0,0:0:0:0:
271,131,81739,1,0,0:0:0:0:
271,131,81818,1,8,0:0:0:0:
271,131,81976,1,0,0:0:0:0:
271,131,82134,1,8,0:0:0:0:
271,131,82213,1,0,0:0:0:0:
271,131,82292,1,8,0:0:0:0:
271,131,82450,1,8,0:0:0:0:
271,131,82529,1,0,0:0:0:0:
271,131,82608,1,0,0:0:0:0:
271,131,82766,1,8,0:0:0:0:
271,131,82924,1,8,0:0:0:0:
265,141,83003,1,0,0:0:0:0:
271,131,83082,1,8,0:0:0:0:
262,141,83239,1,8,0:0:0:0:
261,141,83397,1,8,0:0:0:0:
261,141,83476,1,8,0:0:0:0:
261,141,83555,1,8,0:0:0:0:
261,141,83634,1,0,0:0:0:0:
261,141,83713,1,8,0:0:0:0:
261,141,83871,1,0,0:0:0:0:
265,141,84029,1,8,0:0:0:0:
266,156,84187,1,0,0:0:0:0:
266,156,84345,1,8,0:0:0:0:
266,156,84424,1,0,0:0:0:0:
266,156,84503,1,8,0:0:0:0:
266,156,84661,1,8,0:0:0:0:
248,145,84818,1,8,0:0:0:0:
269,151,84976,1,0,0:0:0:0:
248,145,85055,1,0,0:0:0:0:
248,145,85134,1,8,0:0:0:0:
269,151,85213,1,0,0:0:0:0:
248,145,85292,1,8,0:0:0:0:
269,151,85371,1,0,0:0:0:0:
269,151,85450,1,8,0:0:0:0:
269,151,85529,1,0,0:0:0:0:
269,151,85608,1,8,0:0:0:0:
269,151,85687,1,8,0:0:0:0:
269,151,85766,1,8,0:0:0:0:
269,151,85924,1,8,0:0:0:0:
269,151,86082,1,8,0:0:0:0:
269,151,86239,1,8,0:0:0:0:
269,151,86397,1,8,0:0:0:0:
269,151,86476,1,8,0:0:0:0:
269,151,86555,1,8,0:0:0:0:
269,151,86713,1,0,0:0:0:0:
269,151,86871,1,8,0:0:0:0:
269,151,86950,1,0,0:0:0:0:
269,151,87029,1,8,0:0:0:0:
269,151,87187,1,8,0:0:0:0:
269,151,87266,1,8,0:0:0:0:
269,151,87345,1,8,0:0:0:0:
269,151,87424,1,0,0:0:0:0:
269,151,87503,1,0,0:0:0:0:
269,151,87661,1,0,0:0:0:0:
269,151,87818,1,8,0:0:0:0:
269,151,87976,1,8,0:0:0:0:
269,151,88134,1,0,0:0:0:0:
280,137,88213,1,0,0:0:0:0:
280,137,88292,1,8,0:0:0:0:
280,137,88371,1,0,0:0:0:0:
236,110,88450,1,8,0:0:0:0:
267,143,88766,1,8,0:0:0:0:
279,138,88845,1,8,0:0:0:0:
263,145,88924,1,8,0:0:0:0:
264,145,89239,1,0,0:0:0:0:
267,143,89318,1,0,0:0:0:0:
267,143,89397,1,8,0:0:0:0:
267,143,89713,1,8,0:0:0:0:
267,143,89792,1,0,0:0:0:0:
264,145,89871,1,8,0:0:0:0:
266,132,90187,1,0,0:0:0:0:
266,133,90266,1,8,0:0:0:0:
263,137,90345,1,8,0:0:0:0:
281,139,90503,1,0,0:0:0:0:
281,139,90661,1,8,0:0:0:0:
274,139,90739,1,8,0:0:0:0:
274,139,90818,1,8,0:0:0:0:
274,139,91292,1,12,0:0:0:0:
288,160,91450,1,0,0:0:0:0:
246,150,91608,1,0,0:0:0:0:
246,150,91687,1,0,0:0:0:0:
246,150,91766,1,0,0:0:0:0:
246,150,91924,1,8,0:0:0:0:
246,150,92082,1,8,0:0:0:0:
246,150,92161,1,0,0:0:0:0:
246,150,92239,1,8,0:0:0:0:
246,150,92318,1,8,0:0:0:0:
246,150,92397,1,0,0:0:0:0:
246,150,92555,1,8,0:0:0:0:
246,150,92634,1,8,0:0:0:0:
246,150,92713,1,8,0:0:0:0:
246,150,92871,1,8,0:0:0:0:
246,150,93029,1,0,0:0:0:0:
246,150,93108,1,0,0:0:0:0:
246,150,93187,1,8,0:0:0:0:
246,150,93266,1,0,0:0:0:0:
246,150,93345,1,0,0:0:0:0:
246,150,93503,1,8,0:0:0:0:
246,150,93582,1,8,0:0:0:0:
246,150,93661,1,8,0:0:0:0:
246,150,93818,1,8,0:0:0:0:
246,150,93897,1,0,0:0:0:0:
246,150,93976,1,0,0:0:0:0:
246,150,94055,1,0,0:0:0:0:
246,150,94134,1,8,0:0:0:0:
246,150,94292,1,0,0:0:0:0:
246,150,94450,1,8,0:0:0:0:
246,150,94608,1,8,0:0:0:0:
246,150,94687,1,0,0:0:0:0:
246,150,94766,1,8,0:0:0:0:
246,150,94845,1,8,0:0:0:0:
246,150,94924,1,0,0:0:0:0:
246,150,95082,1,8,0:0:0:0:
257,152,95239,1,8,0:0:0:0:
257,152,95397,1,8,0:0:0:0:
257,152,95476,1,0,0:0:0:0:
257,152,95555,1,0,0:0:0:0:
257,152,95634,1,8,0:0:0:0:
257,152,95713,1,8,0:0:0:0:
257,152,95792,1,0,0:0:0:0:
257,152,95871,1,8,0:0:0:0:
257,153,96029,1,8,0:0:0:0:
257,152,96187,1,0,0:0:0:0:
257,152,96345,1,8,0:0:0:0:
266,141,96503,1,0,0:0:0:0:
266,141,96582,1,0,0:0:0:0:
268,138,96661,1,8,0:0:0:0:
268,138,96818,1,0,0:0:0:0:
268,138,96976,1,8,0:0:0:0:
271,137,97134,1,8,0:0:0:0:
268,138,97213,1,0,0:0:0:0:
249,143,97292,1,8,0:0:0:0:
249,143,97450,1,0,0:0:0:0:
248,143,97608,1,8,0:0:0:0:
247,146,97766,1,0,0:0:0:0:
247,146,97845,1,0,0:0:0:0:
247,146,97924,1,8,0:0:0:0:
246,146,98082,1,0,0:0:0:0:
249,143,98239,1,8,0:0:0:0:
249,143,98397,1,0,0:0:0:0:
249,143,98476,1,8,0:0:0:0:
248,143,98555,1,8,0:0:0:0:
254,127,98634,1,0,0:0:0:0:
254,127,98713,1,0,0:0:0:0:
254,127,98792,1,0,0:0:0:0:
254,127,98871,1,8,0:0:0:0:
254,127,98950,1,0,0:0:0:0:
254,127,99029,1,8,0:0:0:0:
254,127,99108,1,0,0:0:0:0:
254,127,99187,1,8,0:0:0:0:
254,127,99266,1,0,0:0:0:0:
254,127,99345,1,8,0:0:0:0:
255,127,99424,1,0,0:0:0:0:
254,127,99503,1,8,0:0:0:0:
255,127,99582,1,8,0:0:0:0:
254,127,99661,1,8,0:0:0:0:
254,127,99739,1,0,0:0:0:0:
254,127,99818,1,0,0:0:0:0:
254,127,99897,1,0,0:0:0:0:
254,127,99976,1,8,0:0:0:0:
256,133,100055,1,8,0:0:0:0:
254,127,100134,1,8,0:0:0:0:
256,133,100292,1,8,0:0:0:0:
256,133,100450,1,8,0:0:0:0:
256,133,100529,1,8,0:0:0:0:
256,133,100608,1,8,0:0:0:0:
256,133,100766,1,0,0:0:0:0:
251,143,100845,1,8,0:0:0:0:
256,133,100924,1,0,0:0:0:0:
256,133,101082,1,12,0:0:0:0:
240,170,102818,1,0,0:0:0:0:
240,170,102897,1,0,0:0:0:0:
240,170,102976,1,0,0:0:0:0:
240,170,103292,1,0,0:0:0:0:
240,170,103450,1,0,0:0:0:0:
259,165,103608,1,8,0:0:0:0:
259,165,104555,1,8,0:0:0:0:
259,165,104713,1,8,0:0:0:0:
259,165,104871,1,8,0:0:0:0:
249,164,104950,1,0,0:0:0:0:
249,164,105029,1,0,0:0:0:0:
244,162,107871,1,0,0:0:0:0:
244,162,107950,1,0,0:0:0:0:
244,162,108029,1,0,0:0:0:0:
276,151,108187,1,0,0:0:0:0:
244,162,108345,1,0,0:0:0:0:
244,162,108424,1,0,0:0:0:0:
249,157,108503,1,0,0:0:0:0:
248,159,108660,1,0,0:0:0:0:
308,154,109608,1,0,0:0:0:0:
279,162,109766,1,0,0:0:0:0:
279,162,110555,1,8,0:0:0:0:
279,162,110713,1,8,0:0:0:0:
251,156,110871,1,8,0:0:0:0:
251,156,110950,1,8,0:0:0:0:
251,156,111029,1,8,0:0:0:0:
251,156,111187,1,12,0:0:0:0:
