osu file format v14

[General]
AudioFilename: audio.mp3
AudioLeadIn: 0
PreviewTime: 240054
Countdown: 0
SampleSet: Normal
StackLeniency: 0.7
Mode: 2
LetterboxInBreaks: 0
WidescreenStoryboard: 0

[Editor]
Bookmarks: 273158,305744,428891,563470
DistanceSpacing: 1.2
BeatDivisor: 4
GridSize: 4
TimelineZoom: 2.444799

[Metadata]
Title:The Grand Conjuration
TitleUnicode:The Grand Conjuration
Artist:Opeth
ArtistUnicode:Opeth
Creator:BoberOfDarkness
Version:Invocation
Source:
Tags:Bodom murutattack Ghost Reveries black progressive death metal
BeatmapID:1779068
BeatmapSetID:851001

[Difficulty]
HPDrainRate:6
CircleSize:4.2
OverallDifficulty:9.8
ApproachRate:9.8
SliderMultiplier:1.8
SliderTickRate:2

[Events]
//Background and Video events
0,0,"56fP0JXW3gHi8Skob7c5HeRctYZnS4kAyF2hh1EhD9w.png",0,0
//Break Periods
//Storyboard Layer 0 (Background)
//Storyboard Layer 1 (Fail)
//Storyboard Layer 2 (Pass)
//Storyboard Layer 3 (Foreground)
//Storyboard Layer 4 (Overlay)
//Storyboard Sound Samples

[TimingPoints]
256,280.373831775701,6,1,5,60,1,0
536,-100,4,1,7,60,0,0
816,-100,4,1,5,60,0,0
1097,-100,4,1,7,60,0,0
1377,-100,4,1,5,60,0,0
1798,-100,4,1,7,60,0,0
1938,-100,4,1,5,60,0,0
2218,-100,4,1,7,60,0,0
2498,-100,4,1,5,60,0,0
2779,-100,4,1,7,60,0,0
3059,-100,4,2,0,60,0,0
3199,-100,4,1,5,60,0,0
3480,-100,4,1,7,60,0,0
3620,-100,4,1,5,60,0,0
3900,-100,4,1,7,60,0,0
4181,-100,4,1,5,60,0,0
4461,-100,4,1,7,60,0,0
4741,-100,4,2,0,60,0,0
4882,-100,4,1,5,60,0,0
5162,-100,4,1,7,60,0,0
5302,-100,4,1,7,60,0,0
5583,-100,4,2,0,60,0,0
5723,-100,4,1,7,60,0,0
6003,-100,4,2,0,60,0,0
6143,-100,4,1,5,60,0,0
6424,-100,4,2,0,60,0,0
6564,-100,4,1,5,60,0,0
6844,-100,4,2,0,60,0,0
6984,280.373831775701,4,1,5,60,1,0
42871,-100,4,2,5,40,0,0
78759,-133.333333333333,4,1,0,60,0,0
83245,-100,4,1,0,60,0,0
89974,-133.333333333333,4,1,0,60,0,0
91096,-100,4,1,0,60,0,0
98946,-133.333333333333,4,1,0,60,0,0
101189,-100,4,1,0,60,0,0
118008,268.096514745308,4,1,0,60,1,0
118209,-100,4,1,5,60,0,0
119013,-100,4,1,0,60,0,0
119348,-100,4,1,5,60,0,0
123369,-100,4,1,0,60,0,0
123436,-100,4,1,5,60,0,0
127659,-100,4,1,0,60,0,0
127860,-100,4,1,5,60,0,0
131948,-100,4,1,0,60,0,0
132083,-100,4,1,5,60,0,0
136222,280.373831775701,4,1,0,40,1,0
170707,281.69014084507,4,1,0,60,1,0
171003,267.857142857143,4,1,5,60,1,0
223503,258.620689655172,4,1,5,60,1,0
273158,-100,4,1,5,50,0,1
305744,-100,4,1,0,60,0,0
306261,517.241379310345,4,2,5,60,1,0
320743,258.620689655172,4,1,5,60,1,0
326951,267.857142857143,6,1,5,60,1,0
391236,-100,4,1,5,60,0,1
415343,267.857142857143,3,1,5,60,1,0
420164,272.727272727273,4,1,5,60,1,0
428891,280.373831775701,4,3,5,60,1,0
431125,-100,4,3,5,60,0,0
597956,-166.666666666667,4,3,5,60,0,0
612816,-200,4,2,5,20,0,0

[HitObjects]
436,192,256,5,8,0:0:0:0:
216,192,396,1,8,0:0:0:0:
460,192,536,2,0,P|460:116|348:44,1,180,4|8,0:0|0:0,0:0:0:0:
132,192,957,1,8,0:0:0:0:
400,192,1097,2,0,P|416:260|336:364,1,180,4|0,0:0|0:0,0:0:0:0:
132,192,1518,1,8,0:0:0:0:
408,40,1658,1,8,0:0:0:0:
164,172,1798,1,4,0:0:0:0:
136,292,1938,5,8,0:0:0:0:
400,192,2078,1,8,0:0:0:0:
132,64,2219,2,0,P|72:132|92:232,1,180,4|8,0:0|0:0,0:0:0:0:
344,192,2639,1,8,0:0:0:0:
80,216,2779,2,0,P|64:264|148:344,1,180,4|0,0:0|0:0,0:0:0:0:
400,288,3200,1,8,0:0:0:0:
176,216,3340,1,8,0:0:0:0:
384,148,3480,1,4,0:0:0:0:
424,28,3621,5,8,0:0:0:0:
124,52,3761,1,8,0:0:0:0:
412,112,3900,2,0,P|432:220|372:300,1,180,4|8,0:0|0:0,0:0:0:0:
148,300,4321,1,8,0:0:0:0:
408,316,4462,2,0,P|444:232|388:144,1,180,4|0,0:0|0:0,0:0:0:0:
108,116,4882,1,8,0:0:0:0:
368,88,5022,1,8,0:0:0:0:
128,48,5163,1,4,0:0:0:0:
436,28,5303,6,0,P|480:128|472:232,1,180,4|2,0:0|0:0,0:0:0:0:
216,120,5723,2,0,P|172:220|180:324,1,180,4|2,0:0|0:0,0:0:0:0:
420,284,6144,2,0,P|408:216|320:108,1,180,8|2,0:0|0:0,0:0:0:0:
96,48,6564,2,0,P|56:124|80:248,1,180,8|2,0:0|0:0,0:0:0:0:
408,304,6984,5,8,0:0:0:0:
468,200,7124,1,0,0:0:0:0:
264,164,7264,1,8,0:0:0:0:
324,64,7405,1,0,0:0:0:0:
428,28,7545,1,0,0:0:0:0:
152,60,7685,1,8,0:0:0:0:
228,132,7825,1,0,0:0:0:0:
256,248,7965,1,0,0:0:0:0:
40,228,8106,5,8,0:0:0:0:
12,340,8246,1,0,0:0:0:0:
364,352,8386,1,8,0:0:0:0:
396,240,8526,1,0,0:0:0:0:
336,140,8666,1,0,0:0:0:0:
76,192,8806,2,0,L|124:116,2,90,8|0|0,0:0|0:0|0:0,0:0:0:0:
364,288,9227,6,0,L|388:184,1,90,8|0,0:0|0:0,0:0:0:0:
161,151,9507,1,8,0:0:0:0:
393,112,9648,1,0,0:0:0:0:
158,76,9788,1,0,0:0:0:0:
368,216,9928,1,8,0:0:0:0:
152,296,10068,1,8,0:0:0:0:
112,192,10208,1,0,0:0:0:0:
320,132,10349,5,8,0:0:0:0:
420,80,10489,1,0,0:0:0:0:
196,128,10629,1,8,0:0:0:0:
184,36,10769,1,0,0:0:0:0:
300,328,10909,1,0,0:0:0:0:
48,296,11049,1,8,0:0:0:0:
80,188,11190,1,0,0:0:0:0:
160,132,11330,1,0,0:0:0:0:
448,240,11470,5,12,0:0:0:0:
456,128,11610,1,0,0:0:0:0:
232,128,11750,1,8,0:0:0:0:
240,24,11891,1,0,0:0:0:0:
320,152,12031,1,0,0:0:0:0:
108,288,12171,1,8,0:0:0:0:
80,180,12311,1,0,0:0:0:0:
144,84,12451,1,0,0:0:0:0:
436,260,12592,5,8,0:0:0:0:
448,144,12732,1,0,0:0:0:0:
212,68,12872,1,8,0:0:0:0:
120,136,13012,1,0,0:0:0:0:
64,256,13152,1,0,0:0:0:0:
312,316,13292,1,8,0:0:0:0:
356,220,13433,1,0,0:0:0:0:
260,168,13573,1,0,0:0:0:0:
480,152,13713,5,12,0:0:0:0:
456,48,13853,1,0,0:0:0:0:
228,76,13993,1,8,0:0:0:0:
248,0,14134,1,0,0:0:0:0:
160,92,14274,1,0,0:0:0:0:
376,208,14414,1,8,0:0:0:0:
96,240,14554,1,0,0:0:0:0:
148,336,14694,1,0,0:0:0:0:
392,308,14834,5,8,0:0:0:0:
496,344,14975,1,0,0:0:0:0:
204,260,15115,1,8,0:0:0:0:
136,176,15255,1,0,0:0:0:0:
136,68,15395,1,0,0:0:0:0:
408,180,15535,1,8,0:0:0:0:
328,80,15676,1,0,0:0:0:0:
208,40,15816,1,0,0:0:0:0:
480,136,15956,5,12,0:0:0:0:
496,28,16096,1,0,0:0:0:0:
96,160,16236,1,8,0:0:0:0:
168,100,16377,1,0,0:0:0:0:
244,48,16517,1,0,0:0:0:0:
444,268,16657,1,8,0:0:0:0:
152,272,16797,1,8,0:0:0:0:
168,168,16937,1,0,0:0:0:0:
388,128,17077,5,12,0:0:0:0:
464,56,17218,1,0,0:0:0:0:
192,36,17358,1,8,0:0:0:0:
96,112,17498,1,0,0:0:0:0:
52,224,17638,1,0,0:0:0:0:
348,336,17778,1,8,0:0:0:0:
368,204,17919,1,0,0:0:0:0:
444,128,18059,1,0,0:0:0:0:
164,152,18199,5,12,0:0:0:0:
204,64,18339,1,0,0:0:0:0:
316,24,18479,1,8,0:0:0:0:
144,32,18620,1,0,0:0:0:0:
80,132,18760,1,0,0:0:0:0:
316,212,18900,1,8,0:0:0:0:
104,312,19040,1,8,0:0:0:0:
148,212,19180,1,0,0:0:0:0:
392,148,19320,5,8,0:0:0:0:
476,84,19461,1,0,0:0:0:0:
192,304,19601,1,8,0:0:0:0:
272,224,19741,1,0,0:0:0:0:
248,88,19881,1,0,0:0:0:0:
20,56,20021,1,8,0:0:0:0:
40,184,20162,1,0,0:0:0:0:
192,208,20302,1,0,0:0:0:0:
432,260,20442,5,12,0:0:0:0:
464,136,20582,1,0,0:0:0:0:
204,128,20722,1,8,0:0:0:0:
316,96,20863,1,0,0:0:0:0:
436,68,21003,1,0,0:0:0:0:
192,64,21143,1,8,0:0:0:0:
188,196,21283,1,0,0:0:0:0:
80,288,21423,1,0,0:0:0:0:
352,244,21563,5,8,0:0:0:0:
368,344,21704,1,0,0:0:0:0:
104,200,21844,1,8,0:0:0:0:
68,88,21984,1,0,0:0:0:0:
152,24,22124,1,0,0:0:0:0:
440,220,22264,1,8,0:0:0:0:
392,108,22405,1,0,0:0:0:0:
284,48,22545,1,0,0:0:0:0:
40,244,22685,5,12,0:0:0:0:
128,144,22825,1,0,0:0:0:0:
224,92,22965,1,8,0:0:0:0:
452,264,23106,1,8,0:0:0:0:
404,152,23246,1,0,0:0:0:0:
160,172,23386,1,8,0:0:0:0:
416,164,23526,1,0,0:0:0:0:
448,52,23666,1,0,0:0:0:0:
152,236,23806,5,8,0:0:0:0:
128,104,23947,1,0,0:0:0:0:
432,272,24087,1,8,0:0:0:0:
388,164,24227,1,0,0:0:0:0:
292,96,24367,1,0,0:0:0:0:
72,124,24507,1,8,0:0:0:0:
188,72,24648,1,0,0:0:0:0:
76,24,24788,1,0,0:0:0:0:
472,272,24928,5,12,0:0:0:0:
480,148,25068,1,0,0:0:0:0:
52,220,25208,1,12,0:0:0:0:
40,96,25349,1,0,0:0:0:0:
152,56,25489,1,0,0:0:0:0:
384,48,25629,1,8,0:0:0:0:
132,160,25769,1,8,0:0:0:0:
172,284,25909,1,0,0:0:0:0:
480,256,26049,5,8,0:0:0:0:
492,132,26190,1,0,0:0:0:0:
236,164,26330,1,8,0:0:0:0:
312,76,26470,1,0,0:0:0:0:
420,32,26610,1,0,0:0:0:0:
212,240,26750,1,8,0:0:0:0:
164,132,26891,1,0,0:0:0:0:
64,76,27031,1,0,0:0:0:0:
328,152,27171,5,12,0:0:0:0:
360,48,27311,1,0,0:0:0:0:
84,44,27451,1,8,0:0:0:0:
180,24,27592,1,0,0:0:0:0:
288,12,27732,1,0,0:0:0:0:
56,172,27872,1,8,0:0:0:0:
320,264,28012,1,12,0:0:0:0:
368,152,28152,1,8,0:0:0:0:
88,144,28292,5,8,0:0:0:0:
56,36,28433,1,0,0:0:0:0:
384,328,28573,1,8,0:0:0:0:
368,220,28713,1,0,0:0:0:0:
256,120,28853,1,0,0:0:0:0:
36,68,28993,1,8,0:0:0:0:
256,120,29134,1,0,0:0:0:0:
300,36,29274,1,0,0:0:0:0:
100,256,29414,5,12,0:0:0:0:
132,136,29554,1,0,0:0:0:0:
404,168,29694,1,8,0:0:0:0:
180,100,29834,1,0,0:0:0:0:
288,48,29975,1,0,0:0:0:0:
84,56,30115,1,8,0:0:0:0:
364,288,30255,1,0,0:0:0:0:
344,184,30395,1,0,0:0:0:0:
132,116,30535,5,8,0:0:0:0:
52,28,30676,1,0,0:0:0:0:
404,160,30816,1,8,0:0:0:0:
440,56,30956,1,0,0:0:0:0:
328,16,31096,1,0,0:0:0:0:
120,12,31236,1,8,0:0:0:0:
244,88,31377,1,0,0:0:0:0:
264,212,31517,1,0,0:0:0:0:
28,328,31657,5,12,0:0:0:0:
72,224,31797,1,0,0:0:0:0:
372,320,31937,1,8,0:0:0:0:
164,204,32077,1,0,0:0:0:0:
136,84,32218,1,0,0:0:0:0:
436,176,32358,1,8,0:0:0:0:
216,100,32498,1,12,0:0:0:0:
236,12,32638,1,0,0:0:0:0:
480,296,32778,5,8,0:0:0:0:
436,176,32919,1,0,0:0:0:0:
172,224,33059,1,8,0:0:0:0:
220,108,33199,1,0,0:0:0:0:
316,40,33339,1,0,0:0:0:0:
72,120,33479,1,8,0:0:0:0:
48,28,33620,1,0,0:0:0:0:
152,8,33760,1,0,0:0:0:0:
440,304,33900,5,12,0:0:0:0:
164,228,34040,1,0,0:0:0:0:
424,192,34180,1,12,0:0:0:0:
392,92,34320,1,0,0:0:0:0:
292,32,34461,1,0,0:0:0:0:
40,52,34601,1,8,0:0:0:0:
332,264,34741,1,12,0:0:0:0:
352,132,34881,1,0,0:0:0:0:
88,136,35021,5,8,0:0:0:0:
76,24,35162,1,0,0:0:0:0:
320,188,35302,1,8,0:0:0:0:
300,72,35442,1,0,0:0:0:0:
192,24,35582,1,0,0:0:0:0:
440,164,35722,1,8,0:0:0:0:
476,56,35863,1,0,0:0:0:0:
356,8,36003,1,0,0:0:0:0:
60,160,36143,5,12,0:0:0:0:
172,132,36283,1,0,0:0:0:0:
384,72,36423,1,12,0:0:0:0:
496,44,36563,1,0,0:0:0:0:
384,72,36704,1,0,0:0:0:0:
120,72,36844,1,8,0:0:0:0:
396,224,36984,1,12,0:0:0:0:
264,288,37124,1,0,0:0:0:0:
480,324,37264,5,8,0:0:0:0:
488,204,37405,1,0,0:0:0:0:
264,180,37545,1,8,0:0:0:0:
300,80,37685,1,0,0:0:0:0:
400,24,37825,1,0,0:0:0:0:
92,160,37965,1,8,0:0:0:0:
28,72,38106,1,12,0:0:0:0:
240,264,38246,1,8,0:0:0:0:
488,228,38386,6,0,L|440:128,1,90,12|0,0:0|0:0,0:0:0:0:
140,128,38666,2,0,L|188:32,2,90,8|0|0,0:0|0:0|0:0,0:0:0:0:
352,228,39087,1,8,0:0:0:0:
104,296,39227,1,0,0:0:0:0:
40,200,39367,1,0,0:0:0:0:
248,208,39507,5,8,0:0:0:0:
272,108,39648,1,0,0:0:0:0:
472,116,39788,1,8,0:0:0:0:
436,12,39928,1,0,0:0:0:0:
380,192,40068,1,0,0:0:0:0:
80,196,40208,1,8,0:0:0:0:
124,96,40349,1,0,0:0:0:0:
80,20,40489,1,0,0:0:0:0:
332,152,40629,5,12,0:0:0:0:
384,304,40769,1,0,0:0:0:0:
68,308,40909,1,12,0:0:0:0:
40,196,41049,1,0,0:0:0:0:
168,128,41190,1,0,0:0:0:0:
460,196,41330,1,8,0:0:0:0:
248,172,41470,1,12,0:0:0:0:
204,44,41610,1,0,0:0:0:0:
472,128,41750,5,8,0:0:0:0:
484,24,41891,1,0,0:0:0:0:
260,256,42031,1,8,0:0:0:0:
312,152,42171,1,0,0:0:0:0:
408,84,42311,1,0,0:0:0:0:
162,167,42451,1,8,0:0:0:0:
211,63,42592,1,0,0:0:0:0:
311,8,42732,1,0,0:0:0:0:
60,108,42872,5,0,0:0:0:0:
48,9,43012,1,0,0:0:0:0:
371,280,43152,1,8,0:1:0:0:
319,192,43292,1,0,0:0:0:0:
408,116,43433,1,0,0:0:0:0:
194,352,43573,1,8,0:1:0:0:
85,308,43713,1,0,0:0:0:0:
34,202,43853,1,0,0:0:0:0:
146,170,43993,5,0,0:0:0:0:
44,112,44134,1,0,0:0:0:0:
158,87,44274,1,0,0:0:0:0:
62,18,44414,1,0,0:0:0:0:
301,37,44554,1,8,0:1:0:0:
357,143,44694,1,0,0:0:0:0:
240,308,44834,2,0,L|200:212,1,90
220,168,45045,1,0,0:0:0:0:
256,128,45115,5,0,0:0:0:0:
376,72,45255,1,0,0:0:0:0:
160,32,45395,1,8,0:1:0:0:
64,120,45535,1,0,0:0:0:0:
72,240,45676,1,0,0:0:0:0:
340,256,45816,1,8,0:1:0:0:
372,360,45956,1,0,0:0:0:0:
224,276,46096,1,0,0:0:0:0:
196,168,46236,5,0,0:0:0:0:
316,140,46377,1,0,0:0:0:0:
344,24,46517,1,0,0:0:0:0:
244,8,46657,1,0,0:0:0:0:
480,248,46797,1,8,0:1:0:0:
452,136,46937,1,0,0:0:0:0:
345,63,47077,2,0,P|306:91|288:160,1,90
288,196,47288,1,0,0:0:0:0:
332,264,47358,5,0,0:0:0:0:
464,320,47498,1,0,0:0:0:0:
224,336,47638,1,8,0:1:0:0:
328,272,47778,1,0,0:0:0:0:
484,220,47919,1,0,0:0:0:0:
448,100,48059,1,8,0:1:0:0:
312,92,48199,1,0,0:0:0:0:
372,20,48339,1,0,0:0:0:0:
280,324,48479,5,0,0:0:0:0:
240,212,48620,1,0,0:0:0:0:
400,216,48760,1,0,0:0:0:0:
420,100,48900,1,0,0:0:0:0:
204,108,49040,1,8,0:1:0:0:
92,144,49180,1,0,0:0:0:0:
184,224,49320,1,0,0:0:0:0:
64,268,49461,1,0,0:0:0:0:
80,192,49531,1,0,0:0:0:0:
124,128,49601,5,0,0:0:0:0:
204,80,49741,1,0,0:0:0:0:
432,304,49881,1,8,0:1:0:0:
460,164,50021,1,0,0:0:0:0:
352,100,50162,1,0,0:0:0:0:
144,92,50302,1,8,0:1:0:0:
252,64,50442,1,0,0:0:0:0:
128,28,50582,1,0,0:0:0:0:
376,292,50722,5,0,0:0:0:0:
404,164,50863,1,0,0:0:0:0:
111,107,51003,2,8,L|99:151,2,30,8|8|8,0:1|0:1|0:1,0:1:0:0:
230,140,51143,2,8,L|242:184,2,30,8|8|8,0:1|0:1|0:1,0:1:0:0:
80,292,51283,1,8,0:1:0:0:
52,192,51423,1,8,0:1:0:0:
336,228,51563,1,8,0:1:0:0:
384,108,51704,1,8,0:1:0:0:
112,280,51844,5,4,0:0:0:0:
140,152,51984,1,0,0:0:0:0:
400,256,52124,1,8,0:1:0:0:
464,144,52264,1,0,0:0:0:0:
328,156,52405,1,0,0:0:0:0:
288,64,52545,1,8,0:1:0:0:
68,108,52685,1,0,0:0:0:0:
176,64,52825,1,0,0:0:0:0:
424,308,52965,5,0,0:0:0:0:
384,192,53106,1,0,0:0:0:0:
256,88,53246,1,0,0:0:0:0:
116,40,53386,1,0,0:0:0:0:
384,192,53526,1,8,0:1:0:0:
408,68,53666,1,0,0:0:0:0:
276,36,53806,2,0,P|240:64|216:140,1,90
236,160,54017,1,0,0:0:0:0:
276,204,54087,5,0,0:0:0:0:
384,252,54227,1,0,0:0:0:0:
144,296,54367,1,8,0:1:0:0:
40,356,54507,1,0,0:0:0:0:
144,296,54648,1,0,0:0:0:0:
404,320,54788,1,8,0:1:0:0:
140,200,54928,1,0,0:0:0:0:
160,80,55068,1,0,0:0:0:0:
252,16,55208,1,0,0:0:0:0:
472,192,55349,1,0,0:0:0:0:
348,148,55489,1,0,0:0:0:0:
316,44,55629,1,0,0:0:0:0:
72,176,55769,1,8,0:1:0:0:
48,56,55909,1,0,0:0:0:0:
340,292,56049,1,0,0:0:0:0:
372,168,56190,1,0,0:0:0:0:
120,124,56330,5,0,0:0:0:0:
168,260,56470,1,0,0:0:0:0:
464,324,56610,1,8,0:1:0:0:
452,180,56750,1,0,0:0:0:0:
340,80,56891,1,0,0:0:0:0:
84,168,57031,1,8,0:1:0:0:
60,72,57171,1,0,0:0:0:0:
148,8,57311,1,0,0:0:0:0:
352,160,57451,5,0,0:0:0:0:
372,56,57592,1,0,0:0:0:0:
208,116,57732,1,0,0:0:0:0:
188,4,57872,1,0,0:0:0:0:
448,296,58012,1,8,0:1:0:0:
368,168,58152,1,0,0:0:0:0:
248,104,58292,1,0,0:0:0:0:
360,48,58433,1,0,0:0:0:0:
120,176,58573,5,0,0:0:0:0:
136,64,58713,1,0,0:0:0:0:
384,204,58853,1,8,0:1:0:0:
304,136,58993,1,0,0:0:0:0:
352,48,59134,1,0,0:0:0:0:
124,108,59274,1,8,0:1:0:0:
168,228,59414,1,0,0:0:0:0:
300,328,59554,1,0,0:0:0:0:
72,328,59694,6,0,L|48:180,1,90,8|0,0:1|0:0,0:0:0:0:
376,208,59975,2,8,L|408:176,2,30,8|8|8,0:1|0:1|0:1,0:1:0:0:
270,120,60115,2,8,L|238:88,2,30,8|8|8,0:1|0:1|0:1,0:1:0:0:
406,125,60255,2,0,L|412:35,1,90,8|0,0:1|0:0,0:0:0:0:
164,36,60535,1,8,0:1:0:0:
128,52,60588,1,8,0:1:0:0:
112,88,60623,1,8,0:1:0:0:
108,128,60676,1,8,0:1:0:0:
122,168,60728,1,8,0:1:0:0:
152,192,60763,1,8,0:1:0:0:
408,296,60816,6,0,L|420:176,1,90,8|0,0:1|0:0,0:0:0:0:
216,184,61096,1,8,0:1:0:0:
176,72,61236,1,0,0:0:0:0:
64,20,61377,1,0,0:0:0:0:
368,172,61517,1,8,0:1:0:0:
392,64,61657,1,0,0:0:0:0:
292,36,61797,1,0,0:0:0:0:
168,20,61937,5,0,0:0:0:0:
144,156,62077,1,0,0:0:0:0:
256,192,62218,1,0,0:0:0:0:
368,220,62358,1,0,0:0:0:0:
136,300,62498,1,8,0:1:0:0:
76,216,62638,1,0,0:0:0:0:
60,92,62778,1,0,0:0:0:0:
200,104,62919,1,0,0:0:0:0:
172,48,62989,1,0,0:0:0:0:
108,28,63059,5,0,0:0:0:0:
136,148,63199,1,0,0:0:0:0:
376,228,63339,1,8,0:1:0:0:
128,280,63479,1,0,0:0:0:0:
144,180,63620,1,0,0:0:0:0:
404,148,63760,1,8,0:1:0:0:
476,68,63900,1,0,0:0:0:0:
360,76,64040,1,0,0:0:0:0:
336,184,64180,1,0,0:0:0:0:
448,288,64320,1,0,0:0:0:0:
304,336,64461,1,0,0:0:0:0:
424,356,64601,1,0,0:0:0:0:
144,272,64741,1,8,0:1:0:0:
180,120,64881,1,0,0:0:0:0:
472,368,65021,1,0,0:0:0:0:
216,220,65162,1,0,0:0:0:0:
252,132,65232,1,0,0:0:0:0:
312,72,65302,5,0,0:0:0:0:
448,24,65442,1,0,0:0:0:0:
184,316,65582,1,8,0:1:0:0:
144,164,65722,1,0,0:0:0:0:
56,88,65863,1,0,0:0:0:0:
400,224,66003,1,8,0:1:0:0:
288,160,66143,1,0,0:0:0:0:
336,60,66283,1,0,0:0:0:0:
484,92,66423,5,0,0:0:0:0:
400,36,66563,1,0,0:0:0:0:
176,236,66704,1,0,0:0:0:0:
236,100,66844,1,0,0:0:0:0:
32,104,66984,1,8,0:1:0:0:
12,12,67124,1,0,0:0:0:0:
72,188,67264,1,0,0:0:0:0:
324,248,67405,1,0,0:0:0:0:
292,152,67475,1,0,0:0:0:0:
236,100,67545,1,0,0:0:0:0:
368,56,67685,1,0,0:0:0:0:
136,52,67825,1,8,0:1:0:0:
116,156,67965,1,0,0:0:0:0:
224,220,68106,1,0,0:0:0:0:
452,304,68246,1,8,0:1:0:0:
368,220,68386,1,0,0:0:0:0:
412,96,68526,1,0,0:0:0:0:
144,84,68666,5,0,0:0:0:0:
264,40,68806,1,0,0:0:0:0:
52,232,68947,1,8,0:1:0:0:
32,104,69087,1,8,0:1:0:0:
344,232,69227,1,8,0:1:0:0:
236,168,69367,1,8,0:1:0:0:
340,92,69507,1,0,0:0:0:0:
112,64,69648,1,8,0:1:0:0:
356,284,69788,5,0,0:0:0:0:
408,176,69928,1,0,0:0:0:0:
180,204,70068,1,8,0:1:0:0:
200,96,70208,1,0,0:1:0:0:
292,28,70349,1,0,0:0:0:0:
60,168,70489,1,8,0:1:0:0:
36,76,70629,1,0,0:0:0:0:
164,204,70769,1,0,0:0:0:0:
152,88,70909,5,0,0:0:0:0:
416,240,71049,1,0,0:0:0:0:
276,192,71190,1,0,0:0:0:0:
240,84,71330,1,0,0:0:0:0:
468,160,71470,1,8,0:1:0:0:
488,40,71610,1,0,0:0:0:0:
328,56,71750,2,0,P|296:112|320:172,1,90
332,184,71961,1,0,0:0:0:0:
380,216,72031,5,0,0:0:0:0:
492,256,72171,1,0,0:0:0:0:
264,288,72311,1,8,0:1:0:0:
160,336,72451,1,0,0:0:0:0:
264,288,72592,1,0,0:0:0:0:
476,176,72732,1,8,0:1:0:0:
192,160,72872,1,0,0:0:0:0:
172,52,73012,1,0,0:0:0:0:
348,100,73152,5,0,0:0:0:0:
396,4,73292,1,0,0:0:0:0:
248,48,73433,1,0,0:0:0:0:
284,132,73573,1,0,0:0:0:0:
56,208,73713,1,8,0:1:0:0:
80,272,73783,1,0,0:0:0:0:
132,320,73853,1,0,0:0:0:0:
272,316,73993,1,0,0:0:0:0:
140,228,74134,1,0,0:0:0:0:
456,272,74274,5,4,0:0:0:0:
436,148,74414,1,0,0:0:0:0:
168,136,74554,1,8,0:1:0:0:
240,52,74694,1,0,0:0:0:0:
176,24,74834,1,0,0:0:0:0:
424,192,74975,1,8,0:1:0:0:
364,80,75115,1,0,0:0:0:0:
248,52,75255,1,0,0:0:0:0:
36,80,75395,5,0,0:0:0:0:
68,212,75535,1,0,0:0:0:0:
160,288,75676,1,0,0:0:0:0:
60,324,75816,1,0,0:0:0:0:
392,320,75956,1,8,0:1:0:0:
416,192,76096,1,0,0:0:0:0:
152,228,76236,2,0,P|128:180|160:116,1,90
172,88,76447,1,0,0:0:0:0:
236,56,76517,5,0,0:0:0:0:
348,32,76657,1,0,0:0:0:0:
52,60,76797,1,8,0:1:0:0:
72,192,76937,1,0,0:0:0:0:
148,288,77077,1,0,0:0:0:0:
448,224,77218,1,8,0:1:0:0:
368,148,77358,1,0,0:0:0:0:
168,136,77498,1,8,0:1:0:0:
428,96,77638,6,0,P|472:152|468:188,1,90
432,216,77849,1,0,0:0:0:0:
228,216,77918,1,8,0:1:0:0:
368,156,78058,1,8,0:1:0:0:
236,112,78199,1,0,0:0:0:0:
332,80,78339,1,0,0:0:0:0:
240,24,78479,1,0,0:0:0:0:
292,16,78620,1,0,0:0:0:0:
77,11,78760,6,0,P|30:80|136:352,1,405.000015449525,4|0,0:0|0:0,0:0:0:0:
228,360,79741,1,0,0:0:0:0:
444,345,79881,6,0,L|469:120,2,202.500007724762,4|0|0,0:0|0:0|0:0,0:0:0:0:
189,311,81002,2,0,P|136:277|102:124,2,202.500007724762,4|0|0,0:0|0:0|0:0,0:0:0:0:
410,311,82124,2,0,P|351:158|312:126,2,202.500007724762,4|0|0,0:0|0:0|0:0,0:0:0:0:
326,353,83105,1,0,0:0:0:0:
128,0,83246,6,0,P|64:64|320:352,1,540,4|0,0:0|0:0,0:0:0:0:
354,329,84226,1,0,0:0:0:0:
145,269,84367,6,0,P|97:198|107:176,1,90,2|0,0:2|0:0,0:0:0:0:
133,93,84647,1,0,0:0:0:0:
219,14,84787,1,0,0:0:0:0:
133,93,84927,2,0,P|95:144|153:267,1,180,2|0,0:2|0:0,0:0:0:0:
228,302,85348,1,0,0:0:0:0:
454,273,85488,6,0,P|441:180|294:83,2,270,4|0|0,0:0|0:0|0:0,0:0:0:0:
209,338,86610,5,2,0:2:0:0:
188,283,86680,1,2,0:2:0:0:
182,224,86750,1,2,0:2:0:0:
188,165,86820,1,2,0:2:0:0:
216,113,86890,1,2,0:2:0:0:
447,320,87170,1,2,0:2:0:0:
440,261,87241,1,2,0:2:0:0:
411,209,87311,1,2,0:2:0:0:
369,168,87381,1,2,0:2:0:0:
317,140,87451,1,2,0:2:0:0:
51,324,87731,6,0,P|27:230|140:65,2,270,4|0|0,0:0|0:0|0:0,0:0:0:0:
397,346,88853,6,0,P|476:266|334:76,1,360,4|0,0:0|0:0,0:0:0:0:
113,54,89694,1,2,0:2:0:0:
97,110,89764,1,2,0:2:0:0:
98,168,89834,1,2,0:2:0:0:
132,214,89904,1,2,0:2:0:0:
366,320,89974,6,0,P|398:312|495:162,2,202.500007724762,4|0|0,0:0|0:0|0:0,0:0:0:0:
159,21,91096,6,0,P|58:133|282:99,1,540,4|2,0:0|0:2,0:0:0:0:
253,36,92077,1,2,0:2:0:0:
32,23,92218,6,0,P|31:139|153:246,2,270,4|0|0,0:0|0:0|0:0,0:0:0:0:
440,314,93339,2,0,P|466:252|455:219,1,90,4|0,0:0|0:0,0:0:0:0:
409,145,93619,1,0,0:0:0:0:
319,81,93759,1,0,0:0:0:0:
202,71,93899,2,0,P|131:119|133:220,1,180,4|2,0:0|0:2,0:0:0:0:
158,256,94250,1,2,0:2:0:0:
207,286,94320,1,2,0:2:0:0:
470,298,94460,6,0,P|443:203|289:107,2,270,4|0|0,0:0|0:0|0:0,0:0:0:0:
64,192,95582,5,2,0:2:0:0:
93,86,95722,1,2,0:2:0:0:
169,28,95863,1,2,0:2:0:0:
329,56,96003,1,2,0:2:0:0:
198,142,96142,2,0,P|158:212|218:301,1,180,4|2,0:0|0:2,0:0:0:0:
289,317,96563,1,2,0:2:0:0:
500,261,96704,6,0,P|471:158|327:36,2,270,4|0|0,0:0|0:0|0:0,0:0:0:0:
161,31,97825,6,0,P|56:141|156:319,1,360,4|2,0:0|0:2,0:0:0:0:
267,42,98526,1,2,0:2:0:0:
320,128,98666,1,2,0:2:0:0:
288,224,98806,1,2,0:2:0:0:
56,261,98946,6,0,P|91:123|147:98,2,202.500007724762,4|0|0,0:0|0:0|0:0,0:0:0:0:
365,62,100068,5,2,0:2:0:0:
431,120,100208,1,2,0:2:0:0:
467,200,100349,1,2,0:2:0:0:
453,286,100489,1,2,0:2:0:0:
388,345,100629,1,2,0:2:0:0:
44,320,100909,5,4,0:2:0:0:
464,336,101190,6,0,P|455:202|326:89,1,270,4|0,0:0|0:0,0:0:0:0:
250,72,101750,2,0,P|187:145|243:252,1,180,4|0,0:0|0:0,0:0:0:0:
484,332,102311,6,0,P|487:187|349:57,1,270,4|0,0:0|0:0,0:0:0:0:
300,252,102872,2,0,P|299:110|409:30,1,270,2|0,0:2|0:0,0:0:0:0:
484,317,103433,6,0,P|455:137|327:42,1,270,2|0,0:2|0:0,0:0:0:0:
251,60,103993,2,0,L|194:157,2,90,2|2|2,0:2|0:2|0:2,0:0:0:0:
459,312,104554,6,0,P|473:163|354:47,1,270,4|0,0:0|0:0,0:0:0:0:
280,20,105115,2,0,P|172:149|222:218,1,270,2|0,0:2|0:0,0:0:0:0:
368,192,105676,6,0,P|374:313|240:373,1,270,2|0,0:2|0:0,0:0:0:0:
143,344,106236,2,2,L|86:258,2,90,2|2|2,0:2|0:2|0:2,0:2:0:0:
301,289,106797,2,0,P|338:162|205:51,1,270,4|0,0:0|0:0,0:0:0:0:
114,24,107358,2,0,B|2:122|132:262,1,270,2|0,0:2|0:0,0:0:0:0:
436,319,107919,6,0,P|463:219|409:128,1,180,2|0,0:2|0:0,0:0:0:0:
336,106,108339,1,0,0:2:0:0:
224,78,108479,1,2,0:2:0:0:
292,23,108620,1,2,0:2:0:0:
357,134,108760,1,2,0:2:0:0:
346,272,108900,1,0,0:2:0:0:
120,318,109040,6,0,L|22:338,2,90,2|0|0,0:2|0:0|0:0,0:0:0:0:
220,291,109461,1,0,0:0:0:0:
469,268,109601,2,0,P|443:129|323:47,1,270,4|0,0:0|0:0,0:0:0:0:
120,53,110162,6,0,P|52:161|145:278,1,270,2|0,0:2|0:0,0:0:0:0:
256,192,110722,2,0,L|448:192,2,180,2|0|2,0:2|0:0|0:2,0:0:0:0:
128,192,111423,6,2,P|96:128|96:96,2,90,2|2|2,0:2|0:2|0:2,0:2:0:0:
256,96,111843,2,0,P|320:192|256:320,1,270,4|0,0:0|0:0,0:0:0:0:
32,320,112404,6,0,P|32:192|64:160,1,180,2|0,0:2|0:0,0:0:0:0:
160,96,112825,1,0,0:0:0:0:
320,128,112965,2,0,L|352:256,1,90,2|0,0:2|0:0,0:0:0:0:
192,256,113246,2,0,L|224:352,1,90
448,320,113526,5,2,0:2:0:0:
424,195,113666,1,2,0:2:0:0:
366,109,113806,1,2,0:2:0:0:
280,53,113947,1,2,0:2:0:0:
79,60,114087,2,0,P|68:172|197:260,1,270,4|0,0:0|0:0,0:0:0:0:
428,345,114648,6,0,P|487:240|445:167,1,180,2|0,0:2|0:0,0:0:0:0:
381,120,115068,1,0,0:0:0:0:
240,29,115208,2,0,P|146:113|189:269,1,270,2|0,0:2|0:0,0:0:0:0:
309,266,115769,6,2,L|285:150,1,90,2|2,0:2|0:2,0:2:0:0:
120,167,116049,2,0,L|99:68,1,90,2|0,0:2|0:0,0:0:0:0:
257,75,116330,6,0,P|302:240|147:306,1,360,4|0,0:0|0:0,0:0:0:0:
126,298,116936,5,2,0:3:0:0:
103,272,116984,1,2,0:3:0:0:
96,239,117031,1,2,0:3:0:0:
104,208,117076,1,2,0:3:0:0:
158,133,117171,1,2,0:3:0:0:
284,81,117311,1,8,0:3:0:0:
244,80,117451,1,8,0:3:0:0:
84,16,117592,1,8,0:3:0:0:
224,16,117732,1,8,0:3:0:0:
88,108,117872,1,8,0:3:0:0:
447,224,118008,5,4,0:0:0:0:
151,275,118142,2,0,L|358:269,1,180,4|0,0:0|0:0,0:0:0:0:
57,177,118543,1,8,0:0:0:0:
287,171,118677,2,0,L|168:133,2,90,8|0|8,0:0|0:0|0:0,0:0:0:0:
488,348,119080,6,0,P|488:248|408:76,1,270,4|0,0:0|0:0,0:0:0:0:
120,80,119616,1,8,0:0:0:0:
452,72,119884,2,8,L|152:72,4,270
96,192,121761,1,0,0:0:0:0:
428,356,121895,2,0,L|460:168,1,180,8|0,0:0|0:0,0:0:0:0:
208,196,122297,5,8,0:0:0:0:
224,104,122431,1,8,0:0:0:0:
456,112,122565,1,0,0:0:0:0:
368,12,122699,1,8,0:0:0:0:
40,248,122833,1,8,0:0:0:0:
260,192,122967,1,0,0:0:0:0:
500,144,123101,1,8,0:0:0:0:
288,120,123235,1,8,0:0:0:0:
24,183,123369,6,0,P|32:123|204:3,1,270,4|0,0:0|0:0,0:0:0:0:
480,56,123905,1,8,0:0:0:0:
64,172,124173,6,8,P|228:92|320:92,4,270
436,288,126050,1,0,0:0:0:0:
168,288,126184,2,0,P|104:172|172:24,1,270,8|8,0:0|0:0,0:0:0:0:
448,80,126720,1,8,0:0:0:0:
160,136,126854,1,0,0:0:0:0:
440,188,126988,1,8,0:0:0:0:
208,280,127123,1,8,0:0:0:0:
372,304,127257,1,0,0:0:0:0:
236,344,127391,1,8,0:0:0:0:
436,320,127525,1,8,0:0:0:0:
168,336,127659,6,0,P|79:204|99:73,1,270,4|0,0:0|0:0,0:0:0:0:
382,253,128195,2,0,L|388:146,1,90,8|0,0:0|0:0,0:0:0:0:
154,235,128463,1,8,0:0:0:0:
416,128,128865,1,8,0:0:0:0:
96,32,129267,1,8,0:0:0:0:
416,96,129669,1,8,0:0:0:0:
64,288,130072,1,8,0:0:0:0:
96,160,130340,1,0,0:0:0:0:
384,96,130474,1,8,0:0:0:0:
96,64,130876,5,8,0:0:0:0:
160,160,131010,1,8,0:0:0:0:
288,256,131144,1,0,0:0:0:0:
384,288,131278,1,8,0:0:0:0:
128,288,131412,1,8,0:0:0:0:
352,224,131546,1,0,0:0:0:0:
128,160,131680,1,8,0:0:0:0:
96,64,131814,1,8,0:0:0:0:
352,192,131948,6,0,P|384:96|320:64,1,180,4|0,0:0|0:0,0:0:0:0:
128,64,132350,1,0,0:0:0:0:
352,32,132484,1,8,0:0:0:0:
128,192,132753,1,8,0:0:0:0:
416,288,133155,1,8,0:0:0:0:
98,325,133557,1,8,0:0:0:0:
478,319,133959,1,8,0:0:0:0:
10,221,134361,1,8,0:0:0:0:
96,96,134629,1,0,0:0:0:0:
384,32,134763,1,8,0:0:0:0:
160,32,135165,5,8,0:0:0:0:
105,53,135233,1,8,0:0:0:0:
78,106,135300,1,8,0:0:0:0:
93,163,135367,1,8,0:0:0:0:
136,208,135434,1,8,0:0:0:0:
192,224,135524,1,8,0:0:0:0:
224,288,135613,1,8,0:0:0:0:
192,352,135702,1,8,0:0:0:0:
96,352,135836,1,0,0:0:0:0:
256,288,135970,1,0,0:0:0:0:
298,186,136104,1,0,0:0:0:0:
61,243,136222,6,0,P|94:134|150:71,1,180,4|0,0:0|0:0,0:0:0:0:
298,186,136643,2,0,P|291:76|241:22,1,180,2|0,0:2|0:0,0:0:0:0:
104,18,137063,2,0,L|81:129,1,90,2|0,0:2|0:0,0:0:0:0:
304,318,137344,6,0,P|333:206|181:40,1,360,4|0,0:0|0:0,0:0:0:0:
61,90,138044,2,0,L|53:179,2,90,4|0|0,0:2|0:0|0:0,0:0:0:0:
183,78,138465,6,0,L|231:155,2,90,8|0|0,0:3|0:0|0:0,0:0:0:0:
293,80,138886,1,0,0:0:0:0:
183,151,139026,1,0,0:0:0:0:
257,223,139166,1,0,0:0:0:0:
290,299,139306,1,0,0:0:0:0:
297,380,139446,1,0,0:0:0:0:
71,286,139587,6,0,L|34:194,2,90,8|0|0,0:3|0:0|0:0,0:0:0:0:
191,287,140007,1,0,0:0:0:0:
130,189,140147,1,0,0:0:0:0:
204,125,140287,1,0,0:0:0:0:
287,101,140428,1,0,0:0:0:0:
260,29,140568,1,0,0:0:0:0:
63,21,140708,6,0,P|31:147|101:256,1,180,4|0,0:0|0:0,0:0:0:0:
127,205,141129,2,0,P|142:300|88:367,1,180,2|0,0:2|0:0,0:0:0:0:
14,328,141549,2,0,L|34:232,1,90,2|0,0:2|0:0,0:0:0:0:
128,204,141830,6,0,L|215:181,2,90,4|0|0,0:0|0:0|0:0,0:0:0:0:
68,134,142250,1,0,0:0:0:0:
122,59,142390,1,0,0:0:0:0:
214,142,142530,1,0,0:0:0:0:
179,61,142671,1,0,0:0:0:0:
118,13,142811,1,0,0:0:0:0:
337,189,142951,6,0,L|429:140,2,90,8|0|0,0:3|0:0|0:0,0:0:0:0:
228,273,143372,1,0,0:0:0:0:
242,165,143512,1,0,0:0:0:0:
322,97,143652,1,0,0:0:0:0:
195,57,143792,2,0,L|185:147,1,90
398,199,144072,6,0,L|441:303,2,90,8|0|0,0:3|0:0|0:0,0:0:0:0:
281,174,144493,1,0,0:0:0:0:
306,85,144633,1,0,0:0:0:0:
372,35,144773,1,0,0:0:0:0:
206,91,144914,1,0,0:0:0:0:
180,184,145054,1,0,0:0:0:0:
454,318,145194,6,0,P|456:216|388:135,1,180,4|0,0:0|0:0,0:0:0:0:
291,127,145615,2,0,L|179:113,2,90,2|0|0,0:2|0:0|0:0,0:0:0:0:
398,89,146035,2,0,L|346:9,1,90,2|0,0:2|0:0,0:0:0:0:
123,67,146315,6,0,L|29:98,2,90,4|0|0,0:0|0:0|0:0,0:0:0:0:
276,78,146876,2,0,P|300:168|246:262,1,180
177,313,147297,1,0,0:0:0:0:
445,298,147437,6,0,P|489:184|424:128,1,180,8|0,0:3|0:0,0:0:0:0:
401,104,147858,1,0,0:0:0:0:
316,73,147998,1,0,0:0:0:0:
387,41,148138,1,0,0:0:0:0:
458,35,148278,1,0,0:0:0:0:
394,7,148418,1,0,0:0:0:0:
209,48,148558,6,0,L|163:150,2,90,8|0|0,0:3|0:0|0:0,0:0:0:0:
304,34,148979,1,0,0:0:0:0:
375,92,149119,2,0,P|396:222|290:312,1,270
159,297,149680,6,0,P|117:235|181:131,1,180,4|0,0:0|0:0,0:0:0:0:
267,208,150101,2,0,P|310:123|248:51,1,180,4|0,0:0|0:0,0:0:0:0:
174,50,150521,2,0,L|139:153,1,90,4|0,0:0|0:0,0:0:0:0:
383,224,150801,6,0,L|418:336,2,90
202,190,151362,1,0,0:0:0:0:
224,109,151502,1,0,0:0:0:0:
322,83,151643,1,0,0:0:0:0:
256,27,151783,1,0,0:0:0:0:
65,32,151923,6,0,L|15:115,2,90,8|0|0,0:3|0:0|0:0,0:0:0:0:
168,117,152344,2,0,L|124:30,2,90
265,175,152764,1,0,0:0:0:0:
190,238,152904,1,0,0:0:0:0:
400,293,153044,6,0,L|431:203,2,90,8|0|0,0:3|0:0|0:0,0:0:0:0:
282,290,153465,1,0,0:0:0:0:
319,190,153605,1,0,0:0:0:0:
390,119,153745,1,0,0:0:0:0:
262,117,153886,1,4,0:2:0:0:
219,51,154026,1,0,0:0:0:0:
455,301,154166,6,0,P|483:171|401:35,1,270,4|0,0:0|0:0,0:0:0:0:
335,26,154727,2,0,P|179:55|167:186,1,270,4|0,0:0|0:0,0:0:0:0:
267,162,155287,6,0,P|296:297|127:362,1,270,4|0,0:0|0:0,0:0:0:0:
100,360,155848,2,0,P|51:257|126:107,1,270,4|0,0:0|0:0,0:0:0:0:
213,70,156409,5,4,0:3:0:0:
271,172,156549,1,0,0:0:0:0:
280,288,156689,1,2,0:3:0:0:
199,372,156830,1,0,0:0:0:0:
325,341,156970,1,8,0:3:0:0:
358,248,157110,1,0,0:0:0:0:
334,145,157250,1,0,0:3:0:0:
267,90,157390,1,0,0:0:0:0:
393,29,157530,5,4,0:3:0:0:
451,131,157671,1,0,0:0:0:0:
460,247,157811,1,2,0:3:0:0:
379,331,157951,1,0,0:0:0:0:
218,347,158091,1,8,0:3:0:0:
175,259,158231,1,0,0:0:0:0:
183,158,158372,1,0,0:3:0:0:
251,107,158512,1,0,0:0:0:0:
483,267,158652,5,4,0:3:0:0:
500,180,158792,1,0,0:0:0:0:
482,88,158932,1,2,0:3:0:0:
410,34,159072,1,0,0:0:0:0:
288,32,159213,1,8,0:3:0:0:
331,132,159353,1,0,0:0:0:0:
308,232,159493,1,0,0:0:0:0:
246,307,159633,1,0,0:0:0:0:
139,330,159773,5,4,0:3:0:0:
87,245,159914,1,0,0:0:0:0:
116,122,160054,1,2,0:3:0:0:
213,64,160194,1,0,0:0:0:0:
365,57,160334,1,8,0:3:0:0:
455,150,160474,1,0,0:0:0:0:
451,267,160615,1,0,0:0:0:0:
391,337,160755,1,0,0:0:0:0:
248,365,160895,5,4,0:3:0:0:
178,306,161035,1,0,0:0:0:0:
174,191,161175,1,2,0:3:0:0:
246,110,161315,1,0,0:0:0:0:
379,204,161456,1,8,0:3:0:0:
420,135,161596,1,0,0:0:0:0:
402,54,161736,1,0,0:0:0:0:
345,4,161876,1,0,0:0:0:0:
234,15,162016,5,4,0:3:0:0:
186,97,162157,1,0,0:0:0:0:
201,190,162297,1,2,0:3:0:0:
280,244,162437,1,0,0:0:0:0:
417,318,162577,1,8,0:3:0:0:
456,228,162717,1,0,0:0:0:0:
436,121,162858,1,0,0:0:0:0:
354,64,162998,1,0,0:0:0:0:
122,39,163138,5,4,0:3:0:0:
66,128,163278,1,0,0:0:0:0:
64,240,163418,1,2,0:3:0:0:
140,314,163558,1,0,0:0:0:0:
295,300,163699,1,8,0:3:0:0:
335,212,163839,1,0,0:0:0:0:
297,127,163979,1,0,0:0:0:0:
233,79,164119,1,0,0:0:0:0:
347,48,164259,5,4,0:3:0:0:
412,126,164400,1,0,0:0:0:0:
396,232,164540,1,2,0:3:0:0:
329,288,164680,1,0,0:0:0:0:
196,313,164820,1,8,0:3:0:0:
172,223,164960,1,0,0:0:0:0:
71,185,165101,1,0,0:0:0:0:
94,90,165241,1,0,0:0:0:0:
238,133,165381,5,4,0:3:0:0:
205,56,165521,1,0,0:0:0:0:
138,110,165661,1,2,0:3:0:0:
168,27,165801,1,0,0:0:0:0:
304,18,165942,1,8,0:3:0:0:
374,108,166082,1,0,0:0:0:0:
355,216,166222,1,0,0:0:0:0:
273,279,166362,1,0,0:0:0:0:
120,332,166502,5,4,0:3:0:0:
76,240,166643,1,0,0:0:0:0:
144,152,166783,1,2,0:3:0:0:
240,112,166923,1,0,0:0:0:0:
444,260,167063,1,8,0:3:0:0:
485,175,167203,1,0,0:0:0:0:
454,85,167344,1,0,0:0:0:0:
366,35,167484,1,0,0:0:0:0:
155,38,167624,6,0,P|87:117|121:285,1,270,4|0,0:0|0:0,0:0:0:0:
243,343,168185,2,0,P|276:238|169:105,1,270,4|0,0:0|0:0,0:0:0:0:
61,129,168745,6,0,L|39:29,2,90,4|0|0,0:0|0:0|0:0,0:0:0:0:
416,332,169306,2,0,P|447:216|347:63,1,270,4|0,0:3|0:0,0:0:0:0:
179,35,169867,5,8,0:3:0:0:
152,54,169914,1,8,0:3:0:0:
140,85,169961,1,8,0:3:0:0:
147,116,170007,1,8,0:3:0:0:
238,193,170147,1,8,0:3:0:0:
351,252,170287,1,8,0:3:0:0:
319,336,170428,1,8,0:3:0:0:
190,355,170568,1,8,0:3:0:0:
111,288,170707,5,8,0:3:0:0:
96,192,170848,1,8,0:3:0:0:
379,171,171003,5,0,0:0:0:0:
96,32,171137,2,0,P|69:188|90:199,1,180,4|0,0:2|0:0,0:0:0:0:
256,192,171538,1,8,0:0:0:0:
467,276,171672,2,0,L|457:173,1,90,8|8,0:0|0:0,0:0:0:0:
245,162,171940,1,0,0:0:0:0:
31,207,172074,6,0,P|49:70|171:1,1,270,4|0,0:2|0:2,0:0:0:0:
417,81,172609,1,8,0:0:0:0:
153,158,172877,1,8,0:0:0:0:
483,184,173279,1,8,0:0:0:0:
24,292,173681,1,8,0:0:0:0:
359,158,174083,1,8,0:0:0:0:
68,96,174484,1,8,0:0:0:0:
419,71,174752,1,8,0:0:0:0:
161,66,174886,1,8,0:0:0:0:
388,156,175288,5,8,0:0:0:0:
375,267,175422,1,8,0:0:0:0:
285,338,175556,1,0,0:0:0:0:
54,321,175690,1,8,0:0:0:0:
312,237,175824,1,8,0:0:0:0:
77,155,175958,1,0,0:0:0:0:
338,167,176092,2,0,L|349:54,1,90,8|4,0:0|0:2,0:0:0:0:
127,50,176361,6,8,P|53:101|58:203,1,180
257,266,176761,1,0,0:0:0:0:
472,279,176895,1,8,0:0:0:0:
27,330,177163,1,8,0:0:0:0:
489,336,177565,1,8,0:0:0:0:
27,330,177967,1,8,0:0:0:0:
489,336,178368,1,8,0:0:0:0:
27,330,178770,1,8,0:0:0:0:
361,270,179038,1,8,0:0:0:0:
152,171,179172,1,8,0:0:0:0:
376,113,179574,5,8,0:0:0:0:
356,31,179708,1,8,0:0:0:0:
118,102,179842,1,0,0:0:0:0:
177,49,179975,1,8,0:0:0:0:
402,132,180109,1,8,0:0:0:0:
167,206,180243,1,0,0:0:0:0:
419,302,180377,1,8,0:0:0:0:
474,201,180511,1,8,0:0:0:0:
219,185,180645,5,8,0:0:0:0:
484,91,181047,1,0,0:0:0:0:
249,66,181181,1,8,0:0:0:0:
19,78,181449,1,8,0:0:0:0:
486,53,181850,1,8,0:0:0:0:
23,357,182252,1,8,0:0:0:0:
322,325,182654,1,8,0:0:0:0:
74,243,183056,1,8,0:0:0:0:
438,179,183324,1,8,0:0:0:0:
169,119,183458,1,8,0:0:0:0:
360,210,183861,6,0,L|378:107,1,90,4|8,0:2|0:0,0:0:0:0:
153,123,184127,1,0,0:0:0:0:
193,48,184261,1,8,0:0:0:0:
431,57,184395,1,8,0:0:0:0:
167,44,184529,1,0,0:0:0:0:
447,248,184663,1,8,0:0:0:0:
352,148,184797,1,8,0:0:0:0:
106,302,184931,6,0,P|61:191|173:93,1,270,4|0,0:2|0:0,0:0:0:0:
359,92,185467,1,8,0:0:0:0:
142,135,185734,1,8,0:0:0:0:
490,194,186136,1,8,0:0:0:0:
14,339,186538,1,8,0:0:0:0:
333,333,186940,1,8,0:0:0:0:
43,215,187342,1,8,0:0:0:0:
410,176,187609,1,8,0:0:0:0:
170,112,187743,1,8,0:0:0:0:
421,79,188145,5,8,0:0:0:0:
400,179,188279,1,0,0:0:0:0:
187,285,188413,1,8,0:0:0:0:
61,350,188547,1,8,0:0:0:0:
329,339,188681,1,0,0:0:0:0:
111,222,188815,1,8,0:0:0:0:
405,199,188949,1,8,0:0:0:0:
427,71,189083,1,0,0:0:0:0:
146,44,189217,6,0,P|51:109|127:274,1,270,4|0,0:2|0:0,0:0:0:0:
301,311,189752,1,8,0:0:0:0:
188,136,190020,1,8,0:0:0:0:
475,286,190422,1,8,0:0:0:0:
11,223,190824,1,8,0:0:0:0:
314,155,191225,1,8,0:0:0:0:
87,81,191627,1,8,0:0:0:0:
424,66,191895,1,8,0:0:0:0:
183,194,192029,1,8,0:0:0:0:
369,338,192431,5,8,0:0:0:0:
332,247,192565,1,8,0:0:0:0:
211,193,192699,1,0,0:0:0:0:
280,109,192833,1,8,0:0:0:0:
63,90,192967,1,8,0:0:0:0:
336,72,193100,1,0,0:0:0:0:
130,152,193234,1,8,0:0:0:0:
173,257,193368,1,8,0:0:0:0:
450,316,193502,6,0,P|460:197|310:70,1,270,4|0,0:2|0:0,0:0:0:0:
107,102,194038,1,8,0:0:0:0:
297,65,194306,1,8,0:0:0:0:
28,277,194708,1,8,0:0:0:0:
493,285,195109,1,8,0:0:0:0:
275,174,195511,1,8,0:0:0:0:
476,91,195913,1,8,0:0:0:0:
126,73,196181,1,8,0:0:0:0:
354,39,196315,1,8,0:0:0:0:
281,119,196583,1,0,0:0:0:0:
63,239,196717,5,8,0:0:0:0:
295,299,196850,1,8,0:0:0:0:
82,183,196984,1,0,0:0:0:0:
110,110,197118,1,8,0:0:0:0:
428,140,197252,1,8,0:0:0:0:
364,48,197386,1,0,0:0:0:0:
131,47,197520,1,8,0:0:0:0:
396,48,197654,1,8,0:0:0:0:
163,150,197788,6,0,P|126:289|210:367,1,270,4|0,0:2|0:0,0:0:0:0:
458,299,198324,1,8,0:0:0:0:
290,225,198592,1,8,0:0:0:0:
500,129,198993,1,8,0:0:0:0:
27,101,199395,1,8,0:0:0:0:
340,54,199797,1,8,0:0:0:0:
133,149,200199,1,8,0:0:0:0:
288,210,200467,1,8,0:0:0:0:
8,280,200600,1,8,0:0:0:0:
477,270,201002,5,8,0:0:0:0:
458,188,201136,1,8,0:0:0:0:
254,111,201270,1,0,0:0:0:0:
42,80,201404,1,8,0:0:0:0:
254,111,201538,1,8,0:0:0:0:
458,188,201672,1,0,0:0:0:0:
477,270,201806,1,8,0:0:0:0:
424,345,201940,1,8,0:0:0:0:
126,323,202074,6,0,P|116:212|237:93,1,270,4|0,0:2|0:0,0:0:0:0:
460,174,202609,1,8,0:0:0:0:
342,107,202877,1,8,0:0:0:0:
490,47,203279,1,8,0:0:0:0:
26,49,203681,1,8,0:0:0:0:
322,69,204083,1,8,0:0:0:0:
82,297,204484,1,8,0:0:0:0:
438,238,204752,1,8,0:0:0:0:
157,198,204886,1,8,0:0:0:0:
424,140,205288,6,8,L|441:83,1,45
236,93,205422,2,8,L|206:44,1,45
399,111,205556,2,0,P|405:56|366:16,1,90,0|8,0:0|0:0,0:0:0:0:
232,17,205757,1,8,0:0:0:0:
58,50,205824,2,0,P|21:126|31:158,1,90,8|0,0:0|0:0,0:0:0:0:
243,214,206092,1,2,0:2:0:0:
467,267,206225,1,0,0:0:0:0:
144,355,206359,5,2,0:0:0:0:
184,219,206493,1,0,0:0:0:0:
295,133,206627,1,2,0:2:0:0:
49,135,206761,1,0,0:0:0:0:
365,101,206895,1,8,0:0:0:0:
402,239,207029,1,0,0:0:0:0:
131,296,207163,1,2,0:2:0:0:
142,168,207297,1,0,0:0:0:0:
238,70,207431,5,2,0:0:0:0:
488,105,207565,1,0,0:0:0:0:
449,17,207699,1,2,0:2:0:0:
345,5,207833,1,0,0:0:0:0:
38,77,207967,1,8,0:0:0:0:
278,141,208100,1,0,0:0:0:0:
318,282,208234,1,2,0:2:0:0:
72,338,208368,1,0,0:0:0:0:
340,336,208502,5,2,0:0:0:0:
388,221,208636,1,0,0:0:0:0:
127,162,208770,1,2,0:2:0:0:
69,81,208904,1,0,0:0:0:0:
390,159,209038,1,8,0:0:0:0:
186,86,209172,1,8,0:0:0:0:
224,209,209306,1,2,0:2:0:0:
331,295,209440,1,0,0:0:0:0:
61,337,209574,5,2,0:0:0:0:
29,210,209708,1,0,0:0:0:0:
368,244,209842,1,2,0:2:0:0:
389,128,209975,1,0,0:0:0:0:
228,144,210109,1,8,0:0:0:0:
437,99,210243,1,0,0:0:0:0:
238,66,210377,1,2,0:2:0:0:
24,37,210511,1,0,0:0:0:0:
282,127,210645,5,2,0:0:0:0:
328,223,210779,1,0,0:0:0:0:
44,281,210913,1,2,0:2:0:0:
27,365,211047,1,0,0:0:0:0:
391,346,211181,1,8,0:0:0:0:
389,229,211315,1,0,0:0:0:0:
78,163,211449,1,2,0:2:0:0:
168,99,211583,1,0,0:0:0:0:
257,58,211717,5,2,0:0:0:0:
47,307,211850,1,0,0:0:0:0:
24,159,211984,1,2,0:2:0:0:
108,82,212118,1,0,0:0:0:0:
456,246,212252,1,8,0:0:0:0:
471,137,212386,1,0,0:0:0:0:
383,64,212520,1,2,0:2:0:0:
168,85,212654,1,0,0:0:0:0:
148,206,212788,5,2,0:0:0:0:
219,311,212922,1,0,0:0:0:0:
479,242,213056,1,2,0:2:0:0:
483,142,213190,1,0,0:0:0:0:
268,95,213324,1,8,0:0:0:0:
59,74,213458,1,0,0:0:0:0:
43,192,213592,1,2,0:2:0:0:
92,317,213725,1,0,0:0:0:0:
391,318,213859,5,2,0:0:0:0:
469,215,213993,1,0,0:0:0:0:
213,191,214127,1,2,0:2:0:0:
136,123,214261,1,0,0:0:0:0:
386,98,214395,1,8,0:0:0:0:
187,54,214529,1,0,0:0:0:0:
414,27,214663,1,2,0:2:0:0:
168,17,214797,1,0,0:0:0:0:
408,141,214931,5,2,0:0:0:0:
445,264,215065,1,0,0:0:0:0:
352,342,215199,1,2,0:2:0:0:
114,337,215333,1,0,0:0:0:0:
413,229,215467,1,8,0:0:0:0:
479,139,215600,1,0,0:0:0:0:
204,166,215734,1,2,0:2:0:0:
137,109,215868,1,0,0:0:0:0:
370,57,216002,5,2,0:0:0:0:
170,18,216136,1,0,0:0:0:0:
100,106,216270,1,2,0:2:0:0:
68,262,216404,1,0,0:0:0:0:
363,148,216538,1,8,0:0:0:0:
461,228,216672,1,0,0:0:0:0:
484,347,216806,1,2,0:2:0:0:
172,332,216940,1,0,0:0:0:0:
214,225,217074,5,2,0:0:0:0:
324,163,217208,1,0,0:0:0:0:
74,193,217342,1,2,0:2:0:0:
56,86,217475,1,0,0:0:0:0:
292,146,217609,1,8,0:0:0:0:
340,25,217743,1,0,0:0:0:0:
57,41,217877,1,2,0:2:0:0:
40,170,218011,1,0,0:0:0:0:
362,315,218145,5,2,0:0:0:0:
335,185,218279,1,0,0:0:0:0:
252,108,218413,1,2,0:2:0:0:
11,81,218547,1,0,0:0:0:0:
258,39,218681,1,8,0:0:0:0:
27,223,218815,1,0,0:0:0:0:
90,334,218949,1,2,0:2:0:0:
386,333,219083,1,0,0:0:0:0:
114,245,219217,5,2,0:0:0:0:
18,193,219350,1,0,0:0:0:0:
240,135,219484,1,2,0:2:0:0:
491,93,219618,1,0,0:0:0:0:
262,48,219752,1,8,0:0:0:0:
229,170,219886,1,0,0:0:0:0:
473,218,220020,1,2,0:2:0:0:
449,334,220154,1,0,0:0:0:0:
179,341,220288,5,2,0:0:0:0:
397,284,220422,1,0,0:0:0:0:
149,227,220556,1,2,0:2:0:0:
181,105,220690,1,0,0:0:0:0:
393,231,220824,1,8,0:0:0:0:
443,139,220958,1,0,0:0:0:0:
451,36,221092,1,2,0:2:0:0:
247,15,221225,1,0,0:0:0:0:
54,151,221359,5,2,0:0:0:0:
73,278,221493,1,0,0:0:0:0:
373,305,221627,1,2,0:2:0:0:
426,192,221761,1,0,0:0:0:0:
417,82,221895,1,8,0:0:0:0:
177,73,222029,1,0,0:0:0:0:
113,157,222163,1,2,0:2:0:0:
158,265,222297,1,0,0:0:0:0:
434,285,222431,6,8,L|459:243,2,30,8|8|8,0:3|0:3|0:3,0:3:0:0:
260,206,222565,2,8,L|228:169,2,30,8|8|8,0:3|0:3|0:3,0:3:0:0:
444,158,222699,1,8,0:3:0:0:
484,159,222767,1,8,0:3:0:0:
477,126,222833,1,8,0:0:0:0:
457,100,222878,1,8,0:0:0:0:
428,80,222922,1,8,0:0:0:0:
288,64,222967,1,8,0:0:0:0:
115,81,223056,1,8,0:0:0:0:
107,160,223101,1,8,0:0:0:0:
359,119,223190,1,8,0:0:0:0:
377,206,223235,1,8,0:0:0:0:
168,218,223324,1,8,0:0:0:0:
161,289,223369,1,8,0:0:0:0:
460,334,223503,6,0,P|493:255|399:185,1,180,4|0,0:2|0:0,0:0:0:0:
232,124,223890,1,0,0:0:0:0:
33,99,224019,2,0,L|58:0,1,90,8|0,0:0|0:0,0:0:0:0:
289,28,224278,2,0,P|354:86|310:178,1,180,2|2,0:2|0:2,0:0:0:0:
100,160,224666,2,0,P|73:220|152:308,1,180
404,312,225054,1,8,0:0:0:0:
437,263,225140,1,0,0:0:0:0:
431,205,225226,1,0,0:0:0:0:
390,163,225312,1,2,0:2:0:0:
203,71,225441,1,0,0:0:0:0:
160,82,225506,1,0,0:0:0:0:
133,117,225571,1,0,0:2:0:0:
133,161,225635,1,0,0:0:0:0:
160,196,225700,1,0,0:0:0:0:
461,280,225829,2,0,P|471:223|431:185,1,90,8|0,0:0|0:0,0:0:0:0:
261,135,226088,1,8,0:0:0:0:
24,120,226218,2,0,P|8:168|96:276,1,180
270,325,226606,6,0,P|328:236|296:80,1,270,6|0,0:2|0:0,0:0:0:0:
80,276,227122,1,8,0:0:0:0:
18,171,227252,1,0,0:0:0:0:
58,59,227381,1,2,0:3:0:0:
130,28,227510,1,0,0:0:0:0:
418,255,227640,5,2,0:3:0:0:
311,202,227769,2,0,P|309:110|389:43,1,180,8|0,0:3|0:0,0:0:0:0:
109,23,228157,2,0,P|63:67|66:128,1,90,8|0,0:0|0:0,0:0:0:0:
297,150,228416,2,0,P|342:206|305:324,1,180,0|2,0:0|0:0,0:0:0:0:
80,321,228804,2,0,P|61:247|146:159,1,180
391,291,229192,2,0,P|428:237|359:116,1,180,8|0,0:0|0:0,0:0:0:0:
183,48,229580,6,0,L|63:48,2,90,0|2|0,0:0|0:0|0:0,0:0:0:0:
421,108,229967,2,0,L|440:211,1,90
206,269,230226,1,8,0:0:0:0:
475,320,230356,2,0,P|502:267|445:158,1,180
199,47,230744,6,0,P|120:108|184:265,1,270,2|0,0:0|0:0,0:0:0:0:
427,291,231260,1,8,0:0:0:0:
451,253,231325,1,0,0:0:0:0:
463,210,231390,1,0,0:0:0:0:
461,165,231454,1,0,0:0:0:0:
446,123,231519,1,0,0:0:0:0:
419,87,231584,1,0,0:0:0:0:
383,61,231648,1,0,0:0:0:0:
131,33,231778,6,0,P|83:78|135:194,1,180,2|2,0:0|0:2,0:0:0:0:
299,229,232165,1,0,0:0:0:0:
86,334,232295,2,0,P|59:252|115:175,1,180,8|0,0:0|0:0,0:0:0:0:
154,143,232618,1,0,0:0:0:0:
157,84,232683,1,0,0:0:0:0:
121,38,232747,1,0,0:0:0:0:
69,10,232812,5,2,0:0:0:0:
356,31,232942,2,0,P|412:101|379:210,1,180,2|2,0:2|0:0,0:0:0:0:
101,190,233330,2,0,P|62:281|113:335,1,180,8|0,0:0|0:0,0:0:0:0:
364,326,233718,6,0,L|465:291,2,90,0|2|0,0:0|0:0|0:0,0:0:0:0:
127,252,234105,2,0,L|105:140,1,90
340,95,234365,1,8,0:0:0:0:
119,36,234493,2,0,P|58:108|86:197,1,180
359,213,234882,6,0,P|395:317|250:361,1,270,2|2,0:0|0:2,0:0:0:0:
38,265,235398,1,8,0:0:0:0:
327,177,235528,1,0,0:0:0:0:
352,102,235657,1,2,0:0:0:0:
286,18,235786,1,0,0:0:0:0:
61,74,235915,5,2,0:0:0:0:
183,126,236045,2,0,P|171:220|66:266,1,180,2|2,0:2|0:0,0:0:0:0:
369,333,236433,2,0,L|392:224,1,90,8|0,0:0|0:0,0:0:0:0:
168,201,236692,2,0,P|102:126|147:54,1,180,2|2,0:0|0:0,0:0:0:0:
391,187,237080,2,0,P|397:119|292:45,1,180,2|2,0:2|0:0,0:0:0:0:
91,38,237468,2,0,P|62:108|118:202,1,180,8|0,0:0|0:0,0:0:0:0:
366,233,237856,6,0,L|458:224,2,90,0|2|0,0:0|0:0|0:0,0:0:0:0:
101,247,238244,2,0,L|83:127,1,90
333,133,238502,1,8,0:0:0:0:
119,53,238631,2,0,P|71:124|125:216,1,180
384,252,239019,6,0,L|367:353,1,90,2|0,0:0|0:0,0:0:0:0:
98,328,239278,2,0,L|46:290,1,45
281,266,239407,2,0,L|320:206,1,45
103,218,239537,2,0,P|50:169|141:14,1,270,8|0,0:0|0:0,0:0:0:0:
437,297,240054,6,0,P|472:211|399:139,1,180,4|0,0:2|0:0,0:0:0:0:
202,103,240441,1,0,0:0:0:0:
404,95,240571,2,0,P|464:159|469:247,2,180,8|0|2,0:0|0:0|0:0,0:0:0:0:
178,60,241218,6,0,P|108:99|111:217,1,180,2|2,0:0|0:0,0:0:0:0:
323,143,241606,2,0,P|393:182|390:300,1,180,8|0,0:0|0:0,0:0:0:0:
146,317,241994,6,0,L|74:370,2,90,0|2|0,0:0|0:0|0:0,0:0:0:0:
404,274,242381,2,0,L|377:172,1,90
117,122,242640,1,8,0:0:0:0:
348,78,242769,2,0,P|407:144|374:241,1,180
84,169,243158,6,0,P|46:272|174:365,1,270,2|2,0:0|0:0,0:0:0:0:
406,338,243674,1,8,0:0:0:0:
165,249,243803,1,0,0:0:0:0:
128,149,243933,1,0,0:0:0:0:
166,50,244062,1,0,0:0:0:0:
400,58,244191,5,2,0:0:0:0:
484,143,244321,2,0,P|481:223|396:287,1,180,2|2,0:2|0:0,0:0:0:0:
141,303,244709,2,0,P|58:250|32:159,2,180,8|2|2,0:0|0:0|0:0,0:0:0:0:
380,295,245356,6,0,P|402:224|337:137,1,180,2|2,0:2|0:0,0:0:0:0:
137,174,245743,2,0,P|88:94|158:15,1,180,8|0,0:0|0:0,0:0:0:0:
316,105,246131,6,0,L|409:80,2,90,0|2|0,0:0|0:0|0:0,0:0:0:0:
65,120,246519,2,0,L|48:231,1,90
256,270,246778,1,8,0:0:0:0:
462,316,246907,2,0,P|453:265|334:176,1,180
235,190,247230,1,0,0:0:0:0:
108,367,247295,5,2,0:0:0:0:
84,329,247359,1,0,0:0:0:0:
81,284,247424,1,0,0:0:0:0:
100,244,247489,1,0,0:0:0:0:
306,365,247553,5,0,0:0:0:0:
329,327,247618,1,0,0:0:0:0:
332,282,247683,1,0,0:0:0:0:
313,242,247747,1,0,0:0:0:0:
132,332,247814,6,0,L|79:304,1,45,8|0,0:0|0:0,0:0:0:0:
254,282,247943,6,0,L|315:256,1,45
127,216,248072,2,0,L|65:186,1,45,8|0,0:0|0:0,0:0:0:0:
269,196,248201,2,0,L|324:161,1,45
42,180,248330,6,0,P|74:29|193:15,1,270,6|0,0:0|0:0,0:0:0:0:
379,94,248846,1,8,0:0:0:0:
411,207,248976,1,0,0:0:0:0:
103,178,249106,2,0,P|50:227|100:331,1,180,2|2,0:0|0:0,0:0:0:0:
347,303,249493,2,0,P|376:265|314:149,1,180,2|2,0:2|0:0,0:0:0:0:
90,200,249881,2,0,P|49:114|107:44,1,180,8|0,0:0|0:0,0:0:0:0:
339,40,250269,2,0,P|385:102|334:201,1,180,2|2,0:2|0:2,0:0:0:0:
96,191,250657,2,0,L|71:277,1,90,2|0,0:0|0:0,0:0:0:0:
364,314,250915,1,8,0:0:0:0:
140,280,251045,1,0,0:0:0:0:
116,241,251109,1,0,0:0:0:0:
107,198,251174,1,0,0:0:0:0:
113,153,251239,1,0,0:0:0:0:
134,114,251303,1,0,0:0:0:0:
395,262,251433,6,0,P|401:108|279:43,1,270,2|0,0:0|0:0,0:0:0:0:
78,270,251950,1,8,0:0:0:0:
271,254,252079,1,0,0:0:0:0:
207,137,252209,1,0,0:0:0:0:
82,59,252338,1,0,0:0:0:0:
292,132,252467,5,2,0:0:0:0:
487,204,252597,2,0,P|496:276|401:348,1,180,2|2,0:0|0:0,0:0:0:0:
143,323,252985,2,0,L|124:217,1,90,8|0,0:0|0:0,0:0:0:0:
371,249,253243,2,0,P|400:162|331:64,1,180,2|2,0:2|0:0,0:0:0:0:
149,24,253631,2,0,P|89:55|135:175,1,180,0|2,0:0|0:0,0:0:0:0:
338,198,254019,2,0,P|351:282|249:333,1,180,8|0,0:0|0:0,0:0:0:0:
63,283,254407,2,0,P|43:182|89:108,1,180,2|0,0:2|0:0,0:0:0:0:
343,199,254795,2,0,L|328:87,1,90,2|0,0:0|0:0,0:0:0:0:
87,66,255053,1,8,0:0:0:0:
319,42,255183,2,0,P|412:139|404:201,1,180,2|0,0:2|0:0,0:0:0:0:
365,359,255571,5,0,0:0:0:0:
302,323,255636,1,0,0:0:0:0:
105,277,255701,1,0,0:0:0:0:
73,239,255765,1,0,0:0:0:0:
68,189,255830,1,0,0:0:0:0:
264,56,255895,1,0,0:0:0:0:
294,94,255959,1,0,0:0:0:0:
303,142,256024,1,0,0:0:0:0:
107,346,256089,1,0,0:0:0:0:
77,259,256153,1,0,0:0:0:0:
97,175,256218,1,2,0:0:0:0:
150,99,256283,1,2,0:0:0:0:
343,342,256347,1,2,0:0:0:0:
381,265,256412,1,2,0:0:0:0:
185,293,256477,1,2,0:0:0:0:
143,209,256541,1,2,0:0:0:0:
336,342,256606,5,6,0:2:0:0:
396,291,256734,1,0,0:0:0:0:
415,202,256864,1,2,0:0:0:0:
376,125,256993,1,0,0:0:0:0:
125,241,257122,1,8,0:0:0:0:
60,163,257252,1,0,0:0:0:0:
388,165,257381,1,2,0:0:0:0:
423,77,257510,1,0,0:0:0:0:
153,42,257640,5,2,0:2:0:0:
115,108,257769,1,0,0:0:0:0:
356,178,257898,1,2,0:0:0:0:
378,262,258028,1,0,0:0:0:0:
66,324,258157,1,8,0:0:0:0:
16,237,258286,1,0,0:0:0:0:
210,195,258415,1,2,0:0:0:0:
408,156,258545,1,0,0:0:0:0:
158,128,258674,5,2,0:2:0:0:
166,36,258803,1,0,0:0:0:0:
398,83,258933,1,2,0:0:0:0:
463,18,259062,1,0,0:0:0:0:
174,303,259191,1,8,0:0:0:0:
120,225,259321,1,0,0:0:0:0:
379,232,259450,1,2,0:0:0:0:
392,165,259515,1,2,0:0:0:0:
380,93,259579,1,2,0:0:0:0:
163,116,259709,5,2,0:2:0:0:
133,40,259838,1,0,0:0:0:0:
380,93,259967,1,2,0:0:0:0:
420,17,260096,1,0,0:0:0:0:
117,133,260226,1,8,0:0:0:0:
54,195,260355,1,0,0:0:0:0:
43,283,260484,1,2,0:0:0:0:
352,288,260614,1,0,0:0:0:0:
425,240,260743,5,2,0:2:0:0:
446,154,260872,1,0,0:0:0:0:
403,78,261002,1,2,0:0:0:0:
319,52,261131,1,0,0:0:0:0:
60,221,261260,1,8,0:0:0:0:
37,106,261390,1,0,0:0:0:0:
381,168,261519,1,2,0:0:0:0:
354,48,261648,1,0,0:0:0:0:
69,109,261778,5,2,0:2:0:0:
59,11,261907,1,0,0:0:0:0:
335,92,262036,1,2,0:0:0:0:
380,11,262165,1,0,0:0:0:0:
135,17,262295,1,8,0:0:0:0:
377,89,262424,1,0,0:0:0:0:
96,186,262553,1,2,0:0:0:0:
51,313,262683,1,0,0:0:0:0:
347,279,262812,5,2,0:2:0:0:
421,358,262941,1,0,0:0:0:0:
184,316,263071,1,2,0:0:0:0:
174,212,263200,1,0,0:0:0:0:
468,206,263329,1,8,0:0:0:0:
451,124,263459,1,0,0:0:0:0:
253,54,263588,1,2,0:0:0:0:
25,31,263717,1,0,0:0:0:0:
238,100,263846,5,2,0:2:0:0:
273,137,263911,1,2,0:2:0:0:
288,187,263976,1,2,0:2:0:0:
67,262,264105,1,2,0:0:0:0:
98,148,264234,1,0,0:0:0:0:
389,69,264364,1,8,0:0:0:0:
112,98,264493,1,0,0:0:0:0:
159,209,264622,1,2,0:0:0:0:
467,243,264752,1,0,0:0:0:0:
152,323,264881,5,2,0:2:0:0:
78,232,265010,1,0,0:0:0:0:
400,232,265140,1,2,0:0:0:0:
410,113,265269,1,0,0:0:0:0:
139,144,265398,1,8,0:0:0:0:
209,89,265528,1,0,0:0:0:0:
469,152,265657,1,2,0:0:0:0:
484,48,265786,1,0,0:0:0:0:
270,120,265915,5,2,0:2:0:0:
258,32,266045,1,0,0:0:0:0:
42,111,266174,1,2,0:0:0:0:
83,223,266303,1,0,0:0:0:0:
358,214,266433,1,8,0:0:0:0:
396,323,266562,1,0,0:0:0:0:
202,346,266691,1,2,0:0:0:0:
8,367,266821,1,0,0:0:0:0:
285,282,266950,5,2,0:2:0:0:
315,175,267079,1,0,0:0:0:0:
100,144,267209,1,2,0:0:0:0:
84,49,267338,1,0,0:0:0:0:
382,87,267467,1,8,0:0:0:0:
478,47,267596,1,0,0:0:0:0:
220,55,267726,1,2,0:0:0:0:
130,28,267855,1,0,0:0:0:0:
437,239,267984,5,2,0:2:0:0:
467,143,268114,1,0,0:0:0:0:
222,177,268243,1,2,0:0:0:0:
125,139,268372,1,0,0:0:0:0:
410,137,268502,1,8,0:0:0:0:
385,55,268631,1,0,0:0:0:0:
305,12,268760,1,2,0:0:0:0:
88,46,268890,1,0,0:0:0:0:
311,114,269019,5,2,0:2:0:0:
104,201,269148,1,0,0:0:0:0:
353,264,269278,1,2,0:0:0:0:
383,348,269407,1,0,0:0:0:0:
98,320,269536,1,8,0:0:0:0:
74,238,269665,1,0,0:0:0:0:
285,199,269795,1,2,0:0:0:0:
313,104,269924,1,0,0:0:0:0:
68,142,270053,5,2,0:2:0:0:
56,36,270183,1,0,0:0:0:0:
286,69,270312,1,2,0:0:0:0:
375,20,270441,1,0,0:0:0:0:
148,206,270571,1,8,0:0:0:0:
117,108,270700,1,0,0:0:0:0:
394,128,270829,1,2,0:0:0:0:
425,36,270959,1,0,0:0:0:0:
138,25,271088,5,2,0:2:0:0:
147,133,271217,1,0,0:0:0:0:
458,311,271346,1,2,0:0:0:0:
462,222,271476,1,0,0:0:0:0:
420,143,271605,1,8,0:0:0:0:
344,98,271734,1,0,0:0:0:0:
76,188,271864,1,2,0:0:0:0:
284,133,271993,1,0,0:0:0:0:
493,75,272122,5,2,0:2:0:0:
488,202,272252,1,0,0:0:0:0:
254,262,272381,1,2,0:0:0:0:
299,365,272510,1,0,0:0:0:0:
57,323,272640,2,0,P|57:188|103:87,1,180,12|0,0:0|0:0,0:0:0:0:
391,30,273157,5,4,0:2:0:0:
428,108,273244,1,0,0:0:0:0:
394,201,273330,1,0,0:0:0:0:
318,255,273416,1,2,0:0:0:0:
230,281,273502,1,0,0:0:0:0:
145,293,273589,1,0,0:0:0:0:
362,76,273675,5,2,0:0:0:0:
416,138,273761,1,0,0:0:0:0:
443,203,273847,1,0,0:0:0:0:
135,35,273934,5,2,0:0:0:0:
88,93,274020,1,0,0:0:0:0:
125,171,274106,1,0,0:0:0:0:
192,216,274192,1,12,0:0:0:0:
194,307,274278,1,0,0:0:0:0:
121,353,274365,1,0,0:0:0:0:
386,11,274451,5,2,0:0:0:0:
457,80,274537,1,0,0:0:0:0:
497,171,274623,1,0,0:0:0:0:
454,251,274709,1,2,0:0:0:0:
392,344,274796,1,0,0:0:0:0:
290,361,274882,1,0,0:0:0:0:
89,162,274968,5,2,0:0:0:0:
56,87,275054,1,0,0:0:0:0:
112,8,275140,1,0,0:0:0:0:
355,187,275227,5,12,0:0:0:0:
411,105,275313,1,0,0:0:0:0:
355,25,275399,1,0,0:0:0:0:
192,254,275485,1,2,0:0:0:0:
136,172,275571,1,0,0:0:0:0:
192,92,275658,1,0,0:0:0:0:
471,226,275744,5,2,0:0:0:0:
497,145,275830,1,0,0:0:0:0:
440,65,275916,1,0,0:0:0:0:
90,176,276002,5,2,0:0:0:0:
81,98,276089,1,0,0:0:0:0:
142,35,276175,1,0,0:0:0:0:
383,163,276261,5,12,0:0:0:0:
410,89,276347,1,0,0:0:0:0:
435,22,276434,1,0,0:0:0:0:
121,30,276520,5,2,0:0:0:0:
84,108,276606,1,0,0:0:0:0:
118,201,276692,1,0,0:0:0:0:
194,255,276778,1,2,0:0:0:0:
282,281,276865,1,0,0:0:0:0:
367,293,276951,1,0,0:0:0:0:
210,125,277037,5,2,0:0:0:0:
287,110,277123,1,0,0:0:0:0:
339,57,277209,1,0,0:0:0:0:
117,238,277296,5,12,0:0:0:0:
71,155,277382,1,0,0:0:0:0:
121,82,277468,1,0,0:0:0:0:
288,184,277554,5,2,0:0:0:0:
315,110,277640,1,0,0:0:0:0:
340,43,277727,1,0,0:0:0:0:
121,82,277813,5,2,0:0:0:0:
94,156,277899,1,0,0:0:0:0:
69,223,277985,1,0,0:0:0:0:
223,250,278071,5,2,0:0:0:0:
177,167,278158,1,0,0:0:0:0:
227,94,278244,1,0,0:0:0:0:
385,156,278330,5,12,0:0:0:0:
431,73,278416,1,0,0:0:0:0:
381,0,278502,1,0,0:0:0:0:
145,0,278589,5,2,0:0:0:0:
74,69,278675,1,0,0:0:0:0:
34,160,278761,1,0,0:0:0:0:
77,240,278847,1,2,0:0:0:0:
139,333,278934,1,0,0:0:0:0:
241,350,279020,1,0,0:0:0:0:
495,74,279106,5,2,0:0:0:0:
433,167,279192,1,0,0:0:0:0:
331,184,279278,1,0,0:0:0:0:
114,62,279365,5,12,0:0:0:0:
59,126,279451,1,0,0:0:0:0:
112,194,279537,1,0,0:0:0:0:
297,130,279623,5,2,0:0:0:0:
242,194,279709,1,0,0:0:0:0:
295,262,279796,1,0,0:0:0:0:
130,61,279882,5,2,0:0:0:0:
81,127,279968,1,0,0:0:0:0:
110,199,280054,1,0,0:0:0:0:
165,236,280140,1,2,0:0:0:0:
184,309,280227,1,0,0:0:0:0:
123,352,280313,1,0,0:0:0:0:
422,111,280399,5,12,0:0:0:0:
477,175,280485,1,0,0:0:0:0:
424,243,280571,1,0,0:0:0:0:
122,109,280658,5,2,0:0:0:0:
67,173,280744,1,0,0:0:0:0:
120,241,280830,1,0,0:0:0:0:
428,105,280916,5,2,0:0:0:0:
489,158,281002,1,0,0:0:0:0:
441,229,281089,1,0,0:0:0:0:
355,237,281175,1,2,0:0:0:0:
316,303,281261,1,0,0:0:0:0:
380,347,281347,1,0,0:0:0:0:
121,30,281434,5,12,0:0:0:0:
84,108,281520,1,0,0:0:0:0:
118,201,281606,1,0,0:0:0:0:
194,255,281692,1,2,0:0:0:0:
282,281,281778,1,0,0:0:0:0:
367,293,281865,1,0,0:0:0:0:
150,76,281951,5,2,0:0:0:0:
96,138,282037,1,0,0:0:0:0:
69,203,282123,1,0,0:0:0:0:
377,35,282209,5,2,0:0:0:0:
424,93,282296,1,0,0:0:0:0:
387,171,282382,1,0,0:0:0:0:
320,216,282468,1,12,0:0:0:0:
318,307,282554,1,0,0:0:0:0:
391,353,282640,1,0,0:0:0:0:
126,11,282727,5,2,0:0:0:0:
55,80,282813,1,0,0:0:0:0:
15,171,282899,1,0,0:0:0:0:
58,251,282985,1,2,0:0:0:0:
120,344,283071,1,0,0:0:0:0:
222,361,283158,1,0,0:0:0:0:
423,162,283244,5,2,0:0:0:0:
456,87,283330,1,0,0:0:0:0:
400,8,283416,1,0,0:0:0:0:
157,187,283502,5,12,0:0:0:0:
101,105,283589,1,0,0:0:0:0:
157,25,283675,1,0,0:0:0:0:
320,254,283761,1,2,0:0:0:0:
376,172,283847,1,0,0:0:0:0:
320,92,283934,1,0,0:0:0:0:
41,226,284020,5,2,0:0:0:0:
15,145,284106,1,0,0:0:0:0:
72,65,284192,1,0,0:0:0:0:
422,176,284278,5,2,0:0:0:0:
431,98,284365,1,0,0:0:0:0:
370,35,284451,1,0,0:0:0:0:
129,163,284537,5,12,0:0:0:0:
102,89,284623,1,0,0:0:0:0:
77,22,284709,1,0,0:0:0:0:
391,30,284796,5,2,0:0:0:0:
428,108,284882,1,0,0:0:0:0:
394,201,284968,1,0,0:0:0:0:
318,255,285054,1,2,0:0:0:0:
230,281,285140,1,0,0:0:0:0:
145,293,285227,1,0,0:0:0:0:
302,125,285313,5,2,0:0:0:0:
225,110,285399,1,0,0:0:0:0:
173,57,285485,1,0,0:0:0:0:
395,238,285571,5,12,0:0:0:0:
441,155,285658,1,0,0:0:0:0:
391,82,285744,1,0,0:0:0:0:
224,184,285830,5,2,0:0:0:0:
197,110,285916,1,0,0:0:0:0:
172,43,286002,1,0,0:0:0:0:
391,82,286089,5,2,0:0:0:0:
418,156,286175,1,0,0:0:0:0:
443,223,286261,1,0,0:0:0:0:
289,250,286347,5,2,0:0:0:0:
335,167,286434,1,0,0:0:0:0:
285,94,286520,1,0,0:0:0:0:
127,156,286606,5,12,0:0:0:0:
81,73,286692,1,0,0:0:0:0:
131,0,286778,1,0,0:0:0:0:
367,0,286865,5,2,0:0:0:0:
438,69,286951,1,0,0:0:0:0:
478,160,287037,1,0,0:0:0:0:
435,240,287123,1,2,0:0:0:0:
373,333,287209,1,0,0:0:0:0:
271,350,287296,1,0,0:0:0:0:
60,338,287382,5,8,0:0:0:0:
310,176,287511,1,2,0:0:0:0:
60,338,287640,1,8,0:0:0:0:
310,176,287770,1,2,0:0:0:0:
46,127,287899,6,0,P|44:64|288:15,1,360,4|8,0:2|0:0,0:0:0:0:
172,97,288546,1,2,0:0:0:0:
415,253,288675,6,0,P|475:205|359:82,1,270,4|0,0:2|0:0,0:0:0:0:
37,176,289192,6,0,P|35:239|216:327,1,270,8|0,0:0|0:0,0:0:0:0:
415,51,289709,5,4,0:2:0:0:
452,129,289796,1,0,0:0:0:0:
418,222,289882,1,0,0:0:0:0:
177,87,289968,1,2,0:0:0:0:
112,153,290054,1,0,0:0:0:0:
156,225,290140,1,0,0:0:0:0:
354,148,290227,5,2,0:0:0:0:
408,210,290313,1,0,0:0:0:0:
435,275,290399,1,0,0:0:0:0:
159,95,290485,5,12,0:0:0:0:
112,153,290571,1,0,0:0:0:0:
149,231,290658,1,0,0:0:0:0:
372,53,290744,1,2,0:0:0:0:
432,117,290830,1,0,0:0:0:0:
375,193,290916,1,0,0:0:0:0:
126,11,291002,5,2,0:0:0:0:
55,80,291089,1,0,0:0:0:0:
109,147,291175,1,0,0:0:0:0:
366,115,291261,1,2,0:0:0:0:
412,176,291347,1,0,0:0:0:0:
410,250,291434,1,0,0:0:0:0:
36,247,291520,5,12,0:0:0:0:
3,172,291606,1,0,0:0:0:0:
59,93,291692,1,0,0:0:0:0:
231,257,291778,5,2,0:0:0:0:
287,175,291865,1,0,0:0:0:0:
231,95,291951,1,0,0:0:0:0:
435,251,292037,5,2,0:0:0:0:
491,169,292123,1,0,0:0:0:0:
435,89,292209,1,0,0:0:0:0:
41,226,292296,5,2,0:0:0:0:
68,152,292382,1,0,0:0:0:0:
106,84,292468,1,0,0:0:0:0:
414,159,292554,5,12,0:0:0:0:
463,215,292640,1,0,0:0:0:0:
447,301,292727,1,0,0:0:0:0:
193,41,292813,5,2,0:0:0:0:
130,109,292899,1,0,0:0:0:0:
104,192,292985,1,0,0:0:0:0:
391,30,293071,5,2,0:0:0:0:
443,120,293158,1,0,0:0:0:0:
442,223,293244,1,0,0:0:0:0:
190,151,293330,1,2,0:0:0:0:
138,225,293416,1,0,0:0:0:0:
191,296,293502,1,0,0:0:0:0:
376,213,293589,1,12,0:0:0:0:
318,169,293675,1,0,0:0:0:0:
253,142,293761,1,0,0:0:0:0:
435,223,293847,5,2,0:0:0:0:
481,140,293934,1,0,0:0:0:0:
431,67,294020,1,0,0:0:0:0:
179,195,294106,5,2,0:0:0:0:
128,123,294192,1,0,0:0:0:0:
141,46,294278,1,0,0:0:0:0:
437,57,294365,5,2,0:0:0:0:
473,128,294451,1,0,0:0:0:0:
479,190,294537,1,0,0:0:0:0:
289,250,294623,5,12,0:0:0:0:
223,164,294709,1,0,0:0:0:0:
285,94,294796,1,0,0:0:0:0:
47,234,294882,5,2,0:0:0:0:
1,151,294968,1,0,0:0:0:0:
51,78,295054,1,0,0:0:0:0:
367,0,295140,5,2,0:0:0:0:
438,69,295227,1,0,0:0:0:0:
478,160,295313,1,0,0:0:0:0:
277,174,295399,5,2,0:0:0:0:
344,199,295485,1,0,0:0:0:0:
417,187,295571,1,0,0:0:0:0:
148,93,295658,5,12,0:0:0:0:
108,173,295744,1,0,0:0:0:0:
152,262,295830,1,0,0:0:0:0:
398,62,295916,5,2,0:0:0:0:
453,126,296002,1,0,0:0:0:0:
400,194,296089,1,0,0:0:0:0:
215,130,296175,5,2,0:0:0:0:
172,199,296261,1,0,0:0:0:0:
131,270,296347,1,0,0:0:0:0:
382,61,296434,5,2,0:0:0:0:
431,127,296520,1,0,0:0:0:0:
402,199,296606,1,0,0:0:0:0:
233,170,296692,5,12,0:0:0:0:
301,169,296778,1,0,0:0:0:0:
374,166,296865,1,0,0:0:0:0:
90,111,296951,5,2,0:0:0:0:
35,175,297037,1,0,0:0:0:0:
88,243,297123,1,0,0:0:0:0:
390,109,297209,5,2,0:0:0:0:
445,173,297296,1,0,0:0:0:0:
392,241,297382,1,0,0:0:0:0:
84,105,297468,5,2,0:0:0:0:
23,158,297554,1,0,0:0:0:0:
71,229,297640,1,0,0:0:0:0:
255,196,297727,1,12,0:0:0:0:
195,156,297813,1,0,0:0:0:0:
133,146,297899,1,0,0:0:0:0:
391,30,297985,5,2,0:0:0:0:
428,108,298071,1,0,0:0:0:0:
394,201,298158,1,0,0:0:0:0:
210,110,298244,1,2,0:0:0:0:
262,160,298330,1,0,0:0:0:0:
328,163,298416,1,0,0:0:0:0:
178,169,298502,5,2,0:0:0:0:
135,228,298589,1,0,0:0:0:0:
167,296,298675,1,0,0:0:0:0:
352,167,298761,5,12,0:0:0:0:
399,225,298847,1,0,0:0:0:0:
362,303,298934,1,0,0:0:0:0:
180,219,299020,1,2,0:0:0:0:
130,187,299106,1,0,0:0:0:0:
91,128,299192,1,0,0:0:0:0:
386,11,299278,5,2,0:0:0:0:
457,80,299365,1,0,0:0:0:0:
495,172,299451,1,0,0:0:0:0:
313,218,299537,5,2,0:0:0:0:
288,288,299623,1,0,0:0:0:0:
223,348,299709,1,0,0:0:0:0:
41,206,299796,5,12,0:0:0:0:
8,131,299882,1,0,0:0:0:0:
64,52,299968,1,0,0:0:0:0:
355,187,300054,5,2,0:0:0:0:
411,105,300140,1,0,0:0:0:0:
355,25,300227,1,0,0:0:0:0:
192,254,300313,1,2,0:0:0:0:
136,172,300399,1,0,0:0:0:0:
192,92,300485,1,0,0:0:0:0:
471,226,300571,5,2,0:0:0:0:
497,145,300658,1,0,0:0:0:0:
440,65,300744,1,0,0:0:0:0:
90,176,300830,5,12,0:0:0:0:
81,98,300916,1,0,0:0:0:0:
142,35,301002,1,0,0:0:0:0:
383,163,301089,5,2,0:0:0:0:
410,89,301175,1,0,0:0:0:0:
375,16,301261,1,0,0:0:0:0:
121,30,301347,5,2,0:0:0:0:
84,108,301434,1,0,0:0:0:0:
118,201,301520,1,0,0:0:0:0:
298,231,301606,1,2,0:0:0:0:
352,264,301692,1,0,0:0:0:0:
400,314,301778,1,0,0:0:0:0:
214,231,301865,1,12,0:0:0:0:
160,264,301951,1,0,0:0:0:0:
112,314,302037,1,0,0:0:0:0:
375,264,302123,5,2,0:0:0:0:
421,181,302209,1,0,0:0:0:0:
371,108,302296,1,0,0:0:0:0:
187,216,302382,5,2,0:0:0:0:
133,145,302468,1,0,0:0:0:0:
188,71,302554,1,0,0:0:0:0:
426,57,302640,5,2,0:0:0:0:
476,130,302727,1,0,0:0:0:0:
432,226,302813,1,0,0:0:0:0:
166,241,302899,5,12,0:0:0:0:
120,158,302985,1,0,0:0:0:0:
170,85,303071,1,0,0:0:0:0:
385,156,303158,5,2,0:0:0:0:
431,73,303244,1,0,0:0:0:0:
442,0,303330,1,0,0:0:0:0:
145,0,303416,5,2,0:0:0:0:
74,69,303502,1,0,0:0:0:0:
34,160,303589,1,0,0:0:0:0:
218,239,303675,1,2,0:0:0:0:
256,301,303761,1,0,0:0:0:0:
314,343,303847,1,0,0:0:0:0:
500,337,303934,5,8,0:0:0:0:
380,280,304063,1,2,0:0:0:0:
500,337,304192,1,8,0:0:0:0:
202,176,304321,1,2,0:0:0:0:
467,279,304451,6,0,P|441:179|203:186,1,360,4|8,0:2|0:0,0:0:0:0:
492,109,305097,1,2,0:0:0:0:
79,287,305227,2,0,P|35:220|172:137,1,270,4|2,0:2|0:0,0:0:0:0:
410,223,305744,1,4,0:0:0:0:
316,337,306261,6,2,L|434:277,2,90
183,327,307036,2,0,P|149:278|203:144,1,180,2|2,0:0|0:0,0:0:0:0:
390,192,308329,6,2,L|480:192,2,90
192,192,309105,2,2,L|102:192,1,90
32,192,309623,2,2,P|96:32|160:32,1,180
416,288,310398,6,2,P|448:224|448:96,1,180
256,192,311174,2,2,P|160:160|128:32,2,180,2|2|0,0:0|0:0|0:0,0:0:0:0:
448,288,312467,5,8,0:3:0:0:
416,160,312726,1,8,0:3:0:0:
320,96,312984,1,8,0:3:0:0:
32,256,313502,1,8,0:3:0:0:
64,128,313760,1,8,0:3:0:0:
160,64,314019,1,8,0:3:0:0:
384,320,314536,6,2,L|502:260,2,90
251,310,315312,2,2,P|217:261|271:127,1,180
384,64,316346,1,2,0:0:0:0:
64,128,316605,6,2,L|0:224,2,90
256,128,317381,2,2,L|352:160,1,90
448,224,317898,2,2,P|416:320|288:352,1,180,2|0,0:0|0:0,0:0:0:0:
32,256,318674,6,2,P|64:192|96:160,1,90
192,96,319192,1,2,0:0:0:0:
320,96,319450,2,2,P|352:224|256:256,1,180
64,160,320484,5,8,0:1:0:0:
96,64,320614,1,8,0:1:0:0:
416,192,320743,5,2,0:0:0:0:
384,96,320872,1,2,0:0:0:0:
128,64,321001,2,0,P|64:160|128:288,1,270,8|2,0:0|0:0,0:0:0:0:
352,256,321518,1,2,0:0:0:0:
160,224,321647,1,2,0:0:0:0:
416,224,321777,6,0,P|448:128|320:0,1,270,8|2,0:0|0:0,0:0:0:0:
96,32,322294,2,0,P|32:128|96:320,1,270,8|0,0:0|0:0,0:0:0:0:
320,352,322811,5,8,0:0:0:0:
352,256,322940,1,8,0:0:0:0:
342,146,323069,1,8,0:0:0:0:
268,64,323199,1,0,2:0:0:0:
43,156,323328,1,0,3:0:0:0:
56,60,323457,1,0,2:0:0:0:
335,161,323586,1,4,2:3:0:0:
322,70,323716,1,0,3:0:0:0:
96,32,323845,5,0,3:0:0:0:
53,124,323974,1,2,2:0:0:0:
77,230,324104,1,0,2:0:0:0:
160,297,324233,1,0,2:0:0:0:
258,317,324362,1,2,2:0:0:0:
138,359,324492,1,0,3:0:0:0:
39,333,324621,1,0,3:0:0:0:
20,228,324750,1,0,3:0:0:0:
207,354,324880,5,0,3:0:0:0:
416,320,325009,2,0,P|416:256|288:160,1,180,8|0,0:0|2:2,0:0:0:0:
256,192,325527,12,0,326820,0:0:0:0:
52,276,326950,5,8,0:0:0:0:
248,268,327084,1,0,0:2:0:0:
48,200,327218,1,2,0:0:0:0:
256,192,327352,1,0,0:0:0:0:
184,112,327486,1,2,0:2:0:0:
460,276,327620,1,0,0:0:0:0:
264,268,327754,1,2,0:0:0:0:
464,200,327888,1,0,0:0:0:0:
256,192,328022,1,8,0:0:0:0:
328,112,328156,1,0,0:0:0:0:
52,276,328290,1,2,0:0:0:0:
48,200,328423,1,0,0:0:0:0:
300,224,328557,5,2,0:2:0:0:
304,148,328691,1,0,0:0:0:0:
104,92,328825,1,2,0:0:0:0:
396,64,328959,1,0,0:0:0:0:
472,152,329093,1,8,0:0:0:0:
232,180,329227,1,0,0:0:0:0:
156,268,329361,1,2,0:0:0:0:
376,296,329495,1,0,0:0:0:0:
148,328,329629,1,2,0:2:0:0:
96,216,329763,1,0,0:0:0:0:
160,104,329897,1,2,0:0:0:0:
424,96,330031,1,0,0:0:0:0:
212,60,330165,5,8,0:0:0:0:
424,96,330298,1,0,0:0:0:0:
404,240,330432,1,2,0:0:0:0:
112,324,330566,1,0,0:0:0:0:
72,200,330700,1,2,0:2:0:0:
384,272,330834,1,0,0:0:0:0:
360,144,330968,1,2,0:0:0:0:
140,132,331102,1,0,0:0:0:0:
180,44,331236,1,8,0:0:0:0:
264,12,331370,1,0,0:0:0:0:
40,36,331504,1,2,0:0:0:0:
72,164,331638,1,0,0:0:0:0:
336,240,331772,5,2,0:2:0:0:
444,308,331906,1,0,0:0:0:0:
204,288,332040,1,2,0:0:0:0:
436,172,332173,1,0,0:0:0:0:
456,68,332307,1,8,0:0:0:0:
208,56,332441,1,0,0:0:0:0:
312,92,332575,1,2,0:0:0:0:
96,208,332709,1,0,0:0:0:0:
52,344,332843,1,2,0:2:0:0:
184,312,332977,1,0,0:0:0:0:
280,304,333111,1,2,0:0:0:0:
472,200,333245,1,0,0:0:0:0:
200,136,333379,5,8,0:0:0:0:
236,48,333513,1,0,0:0:0:0:
340,16,333647,1,2,0:0:0:0:
120,40,333781,1,0,0:0:0:0:
328,152,333915,1,2,0:2:0:0:
108,256,334048,1,0,0:0:0:0:
132,360,334182,1,2,0:0:0:0:
408,340,334316,1,0,0:0:0:0:
372,228,334450,1,8,0:0:0:0:
288,144,334584,1,0,0:0:0:0:
48,152,334718,1,2,0:0:0:0:
68,48,334852,1,0,0:0:0:0:
284,80,334986,5,2,0:2:0:0:
340,8,335120,1,0,0:0:0:0:
130,19,335254,1,2,0:0:0:0:
440,28,335388,1,0,0:0:0:0:
396,136,335522,1,8,0:0:0:0:
112,216,335656,1,0,0:0:0:0:
156,332,335790,1,2,0:0:0:0:
400,296,335923,1,0,0:0:0:0:
420,180,336057,1,2,0:2:0:0:
488,96,336191,1,0,0:0:0:0:
224,96,336325,1,2,0:0:0:0:
456,28,336459,1,0,0:0:0:0:
464,160,336593,5,8,0:0:0:0:
232,256,336727,1,0,0:0:0:0:
224,360,336861,1,2,0:0:0:0:
440,340,336995,1,0,0:0:0:0:
176,312,337129,1,2,0:2:0:0:
396,256,337263,1,0,0:0:0:0:
100,184,337397,2,0,L|96:160,1,15,2|0,0:0|0:0,0:0:0:0:
276,104,337531,1,0,0:0:0:0:
84,36,337665,1,8,0:0:0:0:
184,8,337798,1,0,0:0:0:0:
400,192,337932,2,0,L|404:168,1,15,2|0,0:0|0:0,0:0:0:0:
224,112,338066,1,0,0:0:0:0:
416,44,338200,5,2,0:2:0:0:
311,16,338334,1,0,0:0:0:0:
207,4,338468,1,2,0:0:0:0:
464,124,338602,1,0,0:0:0:0:
486,229,338736,1,8,0:0:0:0:
266,333,338870,1,0,0:0:0:0:
242,230,339004,1,2,0:0:0:0:
40,200,339138,1,0,0:0:0:0:
56,120,339272,1,2,0:2:0:0:
132,56,339406,1,0,0:0:0:0:
232,36,339540,1,2,0:0:0:0:
448,140,339673,1,0,0:0:0:0:
400,60,339807,5,8,0:0:0:0:
152,124,339941,1,0,0:0:0:0:
48,44,340075,1,2,0:0:0:0:
348,140,340209,1,0,0:0:0:0:
400,60,340343,1,2,0:2:0:0:
128,192,340477,1,0,0:0:0:0:
108,88,340611,1,2,0:0:0:0:
323,234,340745,1,0,0:0:0:0:
109,290,340879,1,8,0:0:0:0:
95,210,341013,1,0,0:0:0:0:
355,173,341147,1,2,0:0:0:0:
422,118,341281,1,0,0:0:0:0:
227,54,341415,5,2,0:2:0:0:
32,16,341548,1,0,0:0:0:0:
244,14,341682,1,2,0:0:0:0:
473,37,341816,1,0,0:0:0:0:
459,148,341950,1,8,0:0:0:0:
269,261,342084,1,0,0:0:0:0:
171,326,342218,1,2,0:0:0:0:
415,333,342352,1,0,0:0:0:0:
421,213,342486,1,2,0:2:0:0:
324,108,342620,1,0,0:0:0:0:
212,49,342754,1,2,0:0:0:0:
448,136,342888,1,0,0:0:0:0:
403,55,343022,5,8,0:0:0:0:
110,181,343156,1,0,0:0:0:0:
130,87,343290,1,2,0:0:0:0:
347,176,343423,1,0,0:0:0:0:
437,91,343557,1,2,0:2:0:0:
189,40,343691,1,0,0:0:0:0:
154,144,343825,1,2,0:0:0:0:
376,317,343959,1,0,0:0:0:0:
334,212,344093,1,8,0:0:0:0:
238,134,344227,1,0,0:0:0:0:
456,102,344361,1,2,0:0:0:0:
476,3,344495,1,0,0:0:0:0:
225,71,344629,5,2,0:2:0:0:
186,4,344763,1,0,0:0:0:0:
413,174,344897,1,2,0:0:0:0:
214,266,345031,1,0,0:0:0:0:
159,189,345165,1,8,0:0:0:0:
397,91,345298,1,0,0:0:0:0:
497,52,345432,1,2,0:0:0:0:
190,34,345566,1,0,0:0:0:0:
65,34,345700,1,2,0:2:0:0:
278,27,345834,1,0,0:0:0:0:
480,20,345968,1,2,0:0:0:0:
428,126,346102,1,0,0:0:0:0:
206,219,346236,5,8,0:0:0:0:
457,292,346370,1,0,0:0:0:0:
485,178,346504,1,2,0:0:0:0:
247,126,346638,1,0,0:0:0:0:
167,64,346772,1,2,0:2:0:0:
445,123,346906,1,0,0:0:0:0:
473,24,347040,1,2,0:0:0:0:
225,24,347173,1,0,0:0:0:0:
136,103,347307,1,8,0:0:0:0:
103,206,347441,1,0,0:0:0:0:
368,219,347575,1,2,0:0:0:0:
379,329,347709,1,0,0:0:0:0:
151,339,347843,5,2,0:2:0:0:
371,266,347977,1,0,0:0:0:0:
142,171,348111,1,2,0:0:0:0:
383,107,348245,1,0,0:0:0:0:
484,50,348379,1,8,0:0:0:0:
204,59,348513,1,0,0:0:0:0:
113,14,348647,1,2,0:0:0:0:
393,258,348781,1,0,0:0:0:0:
429,156,348915,1,2,0:2:0:0:
349,61,349048,1,0,0:0:0:0:
103,52,349182,1,2,0:0:0:0:
315,14,349316,1,0,0:0:0:0:
414,57,349450,5,8,0:0:0:0:
453,148,349584,1,0,0:0:0:0:
393,258,349718,1,2,0:0:0:0:
295,283,349852,1,0,0:0:0:0:
382,351,349986,1,2,0:2:0:0:
262,44,350120,1,0,0:0:0:0:
355,109,350254,1,2,0:0:0:0:
223,161,350388,1,0,0:0:0:0:
334,247,350522,1,8,0:0:0:0:
325,320,350589,1,0,0:0:0:0:
270,356,350656,1,0,0:0:0:0:
129,338,350790,1,2,0:0:0:0:
85,239,350923,1,0,0:0:0:0:
261,230,351057,5,8,0:3:0:0:
294,174,351124,1,8,0:3:0:0:
307,104,351191,1,8,0:3:0:0:
238,23,351325,1,2,0:0:0:0:
127,92,351459,1,0,0:0:0:0:
230,155,351593,1,8,0:0:0:0:
124,185,351727,1,0,0:0:0:0:
207,243,351861,1,2,0:0:0:0:
111,306,351995,1,0,0:0:0:0:
323,282,352129,2,0,P|315:226|149:104,1,270,4|0,0:2|0:0,0:0:0:0:
463,336,352665,6,0,L|482:227,1,90,8|0,0:0|0:0,0:0:0:0:
172,212,352933,2,0,L|191:103,1,90,2|0,0:0|0:0,0:0:0:0:
466,129,353200,2,0,L|422:14,1,90,2|0,0:0|0:0,0:0:0:0:
173,43,353468,1,2,0:0:0:0:
378,113,353602,1,0,0:0:0:0:
142,180,353736,2,0,L|109:300,1,90,8|0,0:0|0:0,0:0:0:0:
344,292,354004,1,2,0:0:0:0:
111,336,354138,1,0,0:0:0:0:
423,352,354272,6,0,L|435:231,1,90,4|0,0:2|0:0,0:0:0:0:
190,164,354540,2,0,L|93:116,1,90,2|0,0:0|0:0,0:0:0:0:
423,160,354808,2,0,L|447:69,1,90,8|0,0:0|0:0,0:0:0:0:
198,101,355075,2,0,L|277:53,1,90,2|0,0:0|0:0,0:0:0:0:
494,193,355343,2,0,L|467:83,1,90,2|0,0:0|0:0,0:0:0:0:
256,37,355611,1,2,0:0:0:0:
26,30,355745,1,0,0:0:0:0:
316,293,355879,6,0,L|339:182,1,90,8|0,0:0|0:0,0:0:0:0:
43,189,356147,2,0,L|32:80,1,90,2|0,0:0|0:0,0:0:0:0:
384,143,356415,2,0,L|394:31,1,90,2|0,0:0|0:0,0:0:0:0:
84,30,356683,2,0,L|57:142,1,90,2|0,0:0|0:0,0:0:0:0:
272,195,356950,1,8,0:0:0:0:
488,246,357084,1,0,0:0:0:0:
256,265,357218,2,0,L|184:349,1,90,2|0,0:0|0:0,0:0:0:0:
483,335,357486,6,0,L|469:211,1,90,4|0,0:2|0:0,0:0:0:0:
234,167,357754,1,2,0:0:0:0:
480,98,357888,1,0,0:0:0:0:
193,46,358022,2,0,L|152:171,1,90,8|0,0:0|0:0,0:0:0:0:
416,207,358290,2,0,L|447:323,1,90,2|0,0:0|0:0,0:0:0:0:
85,223,358558,2,0,L|176:294,1,90,2|0,0:0|0:0,0:0:0:0:
463,188,358825,2,0,L|346:126,1,90,2|0,0:0|0:0,0:0:0:0:
59,132,359093,5,8,0:0:0:0:
268,104,359227,1,0,0:0:0:0:
489,230,359361,2,0,L|473:114,1,90,2|0,0:0|0:0,0:0:0:0:
132,175,359629,2,0,L|169:62,1,90,2|0,0:0|0:0,0:0:0:0:
436,127,359897,2,0,L|417:30,1,90,2|0,0:0|0:0,0:0:0:0:
94,24,360165,2,0,L|52:143,1,90,8|0,0:0|0:0,0:0:0:0:
276,198,360432,1,2,0:0:0:0:
486,283,360566,1,0,0:0:0:0:
159,322,360700,6,0,L|141:204,1,90,4|0,0:2|0:0,0:0:0:0:
453,218,360968,2,0,L|463:97,1,90,2|0,0:0|0:0,0:0:0:0:
248,75,361236,1,8,0:0:0:0:
29,41,361370,1,0,0:0:0:0:
304,134,361504,2,0,L|319:229,1,90,2|0,0:0|0:0,0:0:0:0:
42,233,361772,2,0,L|19:336,1,90,2|0,0:0|0:0,0:0:0:0:
438,325,362040,2,0,L|454:204,1,90,2|0,0:0|0:0,0:0:0:0:
141,180,362308,6,0,L|133:69,1,90,8|0,0:0|0:0,0:0:0:0:
387,72,362575,1,2,0:0:0:0:
137,51,362709,1,0,0:0:0:0:
377,90,362843,2,0,L|371:180,1,90,2|0,0:0|0:0,0:0:0:0:
143,266,363111,1,2,0:0:0:0:
396,322,363245,1,0,0:0:0:0:
92,294,363379,2,0,L|74:177,1,90,8|0,0:0|0:0,0:0:0:0:
321,196,363647,2,0,L|304:101,1,90,2|0,0:0|0:0,0:0:0:0:
63,80,363915,5,2,0:0:0:0:
302,37,364048,1,0,0:0:0:0:
500,7,364182,1,2,0:0:0:0:
247,95,364317,2,0,L|231:212,1,90,0|8,0:0|0:0,0:0:0:0:
457,293,364584,1,0,0:0:0:0:
246,329,364718,1,2,0:0:0:0:
32,357,364852,1,0,0:0:0:0:
268,255,364986,2,0,L|388:209,1,90,2|0,0:0|0:0,0:0:0:0:
61,207,365254,2,0,L|49:103,1,90,2|0,0:0|0:0,0:0:0:0:
457,293,365522,5,8,0:0:0:0:
411,161,365656,1,0,0:0:0:0:
304,108,365790,1,2,0:0:0:0:
92,92,365923,1,0,0:0:0:0:
387,27,366057,1,2,0:0:0:0:
125,151,366191,1,0,0:0:0:0:
64,252,366325,1,2,0:0:0:0:
97,357,366459,1,0,0:0:0:0:
398,348,366593,1,8,0:0:0:0:
173,264,366727,1,0,0:0:0:0:
461,175,366861,1,2,0:0:0:0:
480,61,366995,1,0,0:0:0:0:
211,139,367129,5,2,0:0:0:0:
162,52,367263,1,0,0:0:0:0:
440,103,367397,1,2,0:0:0:0:
460,14,367531,1,0,0:0:0:0:
211,32,367665,1,8,0:0:0:0:
448,203,367798,1,0,0:0:0:0:
473,312,367932,1,2,0:0:0:0:
146,304,368066,1,0,0:0:0:0:
414,196,368200,1,2,0:0:0:0:
352,101,368334,1,0,0:0:0:0:
136,168,368468,1,2,0:0:0:0:
148,50,368602,1,0,0:0:0:0:
416,168,368736,5,8,0:0:0:0:
432,19,368870,1,0,0:0:0:0:
237,7,369004,1,2,0:0:0:0:
21,24,369138,1,0,0:0:0:0:
333,232,369272,1,2,0:0:0:0:
70,327,369406,1,0,0:0:0:0:
93,186,369540,1,2,0:0:0:0:
174,60,369673,1,0,0:0:0:0:
471,248,369808,2,0,L|493:138,1,90,8|0,0:0|0:0,0:0:0:0:
203,205,370075,2,0,L|183:78,1,90,2|0,0:0|0:0,0:0:0:0:
447,316,370343,5,2,0:0:0:0:
224,283,370477,1,0,0:0:0:0:
22,239,370611,1,2,0:0:0:0:
263,159,370745,1,0,0:0:0:0:
488,153,370879,2,0,L|493:45,1,90,8|0,0:0|0:0,0:0:0:0:
260,102,371147,2,0,L|254:4,1,90,2|0,0:0|0:0,0:0:0:0:
24,123,371415,2,0,L|15:5,1,90,2|0,0:0|0:0,0:0:0:0:
233,56,371682,1,2,0:0:0:0:
447,52,371816,1,0,0:0:0:0:
192,132,371951,6,0,L|163:229,1,90,8|0,0:0|0:0,0:0:0:0:
437,214,372218,2,0,L|457:309,1,90,2|0,0:0|0:0,0:0:0:0:
157,338,372486,1,2,0:0:0:0:
413,345,372620,1,0,0:0:0:0:
207,264,372754,1,2,0:0:0:0:
12,178,372888,1,0,0:0:0:0:
306,176,373022,2,0,L|376:100,1,90,8|0,0:0|0:0,0:0:0:0:
74,133,373290,2,0,L|65:37,1,90,2|0,0:0|0:0,0:0:0:0:
412,288,373558,6,0,L|347:180,1,90,2|0,0:0|0:0,0:0:0:0:
77,216,373825,1,2,0:0:0:0:
294,126,373959,1,0,0:0:0:0:
500,66,374093,1,8,0:0:0:0:
272,43,374227,2,0,L|237:134,1,90,0|2,0:0|0:0,0:0:0:0:
481,257,374495,1,0,0:0:0:0:
218,327,374629,1,2,0:0:0:0:
241,219,374763,1,0,0:0:0:0:
480,164,374897,1,2,0:0:0:0:
253,111,375031,1,0,0:0:0:0:
32,130,375165,6,0,L|56:34,1,90,8|0,0:0|0:0,0:0:0:0:
372,193,375433,2,0,L|333:101,1,90,2|0,0:0|0:0,0:0:0:0:
86,87,375700,1,2,0:0:0:0:
297,51,375834,1,0,0:0:0:0:
508,22,375968,1,2,0:0:0:0:
257,2,376102,1,0,0:0:0:0:
32,111,376236,2,0,L|23:216,1,90,8|0,0:0|0:0,0:0:0:0:
418,173,376504,2,0,L|428:283,1,90,2|0,0:0|0:0,0:0:0:0:
123,323,376772,6,0,L|156:219,1,90,2|0,0:0|0:0,0:0:0:0:
308,118,377040,2,0,L|416:60,1,90,2|0,0:0|0:0,0:0:0:0:
76,71,377307,1,8,0:0:0:0:
308,36,377441,1,0,0:0:0:0:
327,155,377575,1,2,0:0:0:0:
100,218,377709,1,0,0:0:0:0:
425,334,377843,2,0,L|399:212,1,90,2|0,0:0|0:0,0:0:0:0:
149,95,378111,2,0,L|39:41,1,90,2|0,0:0|0:0,0:0:0:0:
351,311,378379,5,8,0:0:0:0:
373,195,378513,1,0,0:0:0:0:
325,73,378647,1,2,0:0:0:0:
71,105,378781,1,0,0:0:0:0:
54,213,378915,1,2,0:0:0:0:
404,300,379048,1,0,0:0:0:0:
424,194,379182,1,2,0:0:0:0:
406,85,379316,1,0,0:0:0:0:
216,16,379450,5,8,0:0:0:0:
169,53,379517,1,0,0:0:0:0:
154,108,379584,1,0,0:0:0:0:
380,200,379718,1,2,0:0:0:0:
154,108,379852,1,0,0:0:0:0:
380,200,379986,5,2,0:0:0:0:
365,255,380053,1,0,0:0:0:0:
318,292,380120,1,0,0:0:0:0:
75,306,380254,1,2,0:0:0:0:
387,350,380388,1,0,0:0:0:0:
438,253,380522,1,8,0:0:0:0:
402,139,380656,1,0,0:0:0:0:
321,69,380790,5,2,0:0:0:0:
128,288,380923,1,0,0:0:0:0:
96,224,380990,1,0,0:0:0:0:
288,192,381057,1,2,0:0:0:0:
320,128,381124,1,0,0:0:0:0:
128,96,381191,2,0,L|50:153,2,90,0|2|0,0:0|0:0|0:0,0:0:0:0:
384,288,381593,1,8,0:0:0:0:
416,224,381660,1,0,0:0:0:0:
224,192,381727,1,0,0:0:0:0:
192,128,381794,1,0,0:0:0:0:
384,96,381861,2,0,L|462:153,2,90,2|0|2,0:0|0:0|0:0,0:0:0:0:
158,43,382263,6,0,L|58:82,2,90,0|2|0,0:0|0:0|0:0,0:0:0:0:
384,288,382665,1,8,0:0:0:0:
416,224,382731,1,0,0:0:0:0:
224,192,382798,1,0,0:0:0:0:
192,128,382865,1,0,0:0:0:0:
384,96,382933,2,0,L|412:193,1,90,2|0,0:0|0:0,0:0:0:0:
128,288,383200,5,2,0:0:0:0:
96,224,383267,1,0,0:0:0:0:
288,192,383334,1,0,0:0:0:0:
320,128,383401,1,0,0:0:0:0:
128,96,383468,2,0,L|100:193,1,90,2|0,0:0|0:0,0:0:0:0:
324,286,383736,1,8,0:0:0:0:
377,195,383870,1,0,0:0:0:0:
334,91,384004,5,2,0:0:0:0:
246,38,384138,1,0,0:0:0:0:
36,56,384272,1,2,0:0:0:0:
16,132,384339,1,0,0:0:0:0:
20,208,384406,1,0,0:0:0:0:
300,324,384540,1,2,0:0:0:0:
424,247,384673,1,0,0:0:0:0:
172,218,384807,5,8,0:0:0:0:
132,154,384874,1,0,0:0:0:0:
126,85,384941,1,0,0:0:0:0:
229,13,385075,1,2,0:0:0:0:
441,161,385209,2,0,L|490:60,1,90,0|2,0:0|0:0,0:0:0:0:
224,116,385477,2,0,L|116:88,2,90,4|2|4,0:3|0:0|0:3,0:0:0:0:
343,61,385879,1,8,0:0:0:0:
372,132,385946,1,0,0:0:0:0:
181,70,386013,2,0,L|119:145,2,90,0|2|0,0:0|0:0|0:0,0:0:0:0:
436,288,386415,5,2,0:0:0:0:
432,204,386481,1,0,0:0:0:0:
408,124,386548,1,0,0:0:0:0:
294,79,386682,1,2,0:0:0:0:
69,133,386816,2,0,L|15:223,2,90,0|8|4,0:0|0:0|0:3,0:0:0:0:
155,67,387218,5,2,0:0:0:0:
422,280,387352,1,4,0:3:0:0:
494,204,387486,1,2,0:0:0:0:
508,133,387553,1,0,0:0:0:0:
491,66,387620,1,0,0:0:0:0:
237,65,387754,2,0,L|193:153,1,90,2|0,0:0|0:0,0:0:0:0:
462,246,388022,5,8,0:0:0:0:
478,306,388089,1,0,0:0:0:0:
465,362,388156,1,0,0:0:0:0:
365,219,388290,1,2,0:0:0:0:
92,257,388423,1,4,0:3:0:0:
53,129,388557,1,2,0:0:0:0:
359,322,388691,1,4,0:3:0:0:
403,205,388825,5,2,0:0:0:0:
379,104,388959,1,0,0:0:0:0:
160,76,389093,1,8,0:0:0:0:
109,52,389160,1,0,0:0:0:0:
160,76,389227,1,0,0:0:0:0:
423,132,389361,1,2,0:0:0:0:
449,239,389495,1,0,0:0:0:0:
252,352,389629,5,2,0:0:0:0:
201,376,389696,1,0,0:0:0:0:
252,352,389763,1,0,0:0:0:0:
471,312,389897,1,2,0:0:0:0:
164,252,390031,1,0,0:0:0:0:
84,165,390165,1,8,0:0:0:0:
419,182,390298,1,0,0:0:0:0:
460,77,390432,5,2,0:0:0:0:
240,34,390566,1,0,0:0:0:0:
36,31,390700,1,2,0:0:0:0:
256,4,390834,1,0,0:0:0:0:
455,4,390968,1,2,0:0:0:0:
252,120,391102,1,0,0:0:0:0:
34,213,391236,6,0,L|32:307,1,90,4|0,0:2|0:0,0:0:0:0:
283,305,391504,2,0,L|156:303,1,90,2|0,0:0|0:0,0:0:0:0:
478,213,391772,2,0,L|480:307,1,90,4|0,0:2|0:0,0:0:0:0:
229,305,392040,2,0,L|356:303,1,90,2|0,0:0|0:0,0:0:0:0:
122,281,392307,1,4,2:0:0:0:
159,153,392441,1,8,0:0:0:0:
256,79,392575,1,8,0:0:0:0:
480,43,392709,1,0,0:0:0:0:
171,145,392843,6,0,L|236:53,1,90,4|0,0:2|0:0,0:0:0:0:
504,181,393111,2,0,L|443:94,1,90,2|0,0:0|0:0,0:0:0:0:
148,281,393379,2,0,L|152:173,1,90,4|0,0:2|0:0,0:0:0:0:
423,128,393647,2,0,L|307:108,1,90,2|0,0:0|0:0,0:0:0:0:
27,97,393915,1,4,2:0:0:0:
257,56,394048,1,8,0:0:0:0:
487,20,394183,2,0,L|495:129,1,90,8|0,0:0|0:0,0:0:0:0:
236,281,394450,6,0,L|362:278,1,90,4|0,0:2|0:0,0:0:0:0:
254,142,394718,1,2,0:0:0:0:
139,77,394852,1,0,0:0:0:0:
461,200,394986,2,0,L|478:97,1,90,4|0,0:2|0:0,0:0:0:0:
141,209,395254,2,0,L|124:106,1,90,2|0,0:0|0:0,0:0:0:0:
229,161,395522,1,4,2:0:0:0:
148,64,395656,1,8,0:0:0:0:
25,25,395790,1,8,0:0:0:0:
263,10,395923,1,0,0:0:0:0:
479,47,396058,6,0,L|509:159,2,90,4|0|0,0:2|0:0|2:0,0:0:0:0:
239,295,396459,1,8,0:0:0:0:
284,180,396593,1,8,0:0:0:0:
393,118,396727,1,4,2:0:0:0:
196,156,396861,1,8,0:0:0:0:
188,56,396995,1,8,0:0:0:0:
490,212,397129,1,8,0:0:0:0:
504,98,397263,1,2,0:0:0:0:
182,271,397397,1,2,0:0:0:0:
148,155,397531,1,2,0:0:0:0:
478,213,397665,6,0,L|480:307,1,90,4|0,0:2|0:0,0:0:0:0:
229,305,397933,2,0,L|356:303,1,90,2|0,0:0|0:0,0:0:0:0:
34,213,398200,2,0,L|32:307,1,90,4|0,0:2|0:0,0:0:0:0:
283,305,398468,2,0,L|156:303,1,90,2|0,0:0|0:0,0:0:0:0:
433,354,398736,1,4,2:0:0:0:
421,233,398870,1,8,0:0:0:0:
371,114,399004,1,8,0:0:0:0:
104,58,399138,1,0,0:0:0:0:
356,9,399272,5,4,0:2:0:0:
414,124,399406,1,0,0:0:0:0:
181,329,399540,1,2,0:0:0:0:
283,236,399673,1,0,0:0:0:0:
25,232,399807,1,4,0:2:0:0:
13,103,399941,1,0,0:0:0:0:
286,90,400075,1,2,0:0:0:0:
427,56,400209,1,0,0:0:0:0:
224,39,400343,1,4,2:0:0:0:
21,39,400477,1,8,0:0:0:0:
64,172,400611,1,8,0:0:0:0:
328,276,400745,1,0,0:0:0:0:
107,295,400879,5,4,0:2:0:0:
152,168,401013,1,0,0:0:0:0:
407,92,401147,1,2,0:0:0:0:
480,41,401281,1,0,0:0:0:0:
203,204,401415,1,4,0:2:0:0:
170,71,401548,1,0,0:0:0:0:
474,244,401682,1,2,0:0:0:0:
415,131,401816,1,0,0:0:0:0:
290,109,401950,1,4,2:0:0:0:
53,192,402084,1,8,0:0:0:0:
40,59,402218,1,8,0:0:0:0:
371,320,402352,1,2,0:0:0:0:
405,194,402486,5,2,0:0:0:0:
358,91,402620,1,0,2:0:0:0:
250,21,402754,1,0,2:0:0:0:
52,252,402888,2,0,L|79:125,2,90,8|8|0,0:0|0:0|2:0,0:0:0:0:
388,320,403290,1,4,0:2:0:0:
358,199,403423,1,0,0:0:0:0:
261,111,403557,1,0,0:0:0:0:
50,52,403691,1,4,0:2:0:0:
48,173,403825,1,0,0:0:0:0:
132,280,403959,1,0,0:0:0:0:
443,306,404093,5,4,0:2:0:0:
474,161,404227,1,0,0:0:0:0:
162,205,404361,1,2,0:0:0:0:
145,75,404495,1,0,0:0:0:0:
397,326,404629,1,4,0:2:0:0:
443,222,404763,1,0,0:0:0:0:
395,106,404897,1,2,0:0:0:0:
283,51,405031,1,0,0:0:0:0:
69,56,405165,1,4,2:0:0:0:
303,162,405298,1,8,0:0:0:0:
335,282,405432,1,8,0:0:0:0:
91,335,405566,1,0,0:0:0:0:
339,337,405700,5,4,0:2:0:0:
469,331,405834,1,0,0:0:0:0:
206,252,405968,1,2,0:0:0:0:
192,128,406102,1,0,0:0:0:0:
424,135,406236,1,4,0:2:0:0:
494,73,406370,1,0,0:0:0:0:
242,163,406504,1,2,0:0:0:0:
185,54,406638,1,0,0:0:0:0:
454,282,406772,1,4,2:0:0:0:
487,161,406906,1,8,0:0:0:0:
458,45,407040,1,8,0:0:0:0:
237,17,407173,1,0,0:0:0:0:
35,5,407307,5,4,0:2:0:0:
70,142,407441,1,0,0:0:0:0:
309,275,407575,1,2,0:0:0:0:
434,315,407709,1,0,0:0:0:0:
101,303,407843,1,4,0:2:0:0:
87,178,407977,1,0,0:0:0:0:
337,169,408111,1,2,0:0:0:0:
456,112,408245,1,0,0:0:0:0:
248,44,408379,1,4,2:0:0:0:
33,57,408513,1,8,0:0:0:0:
56,216,408647,1,8,0:0:0:0:
321,282,408781,1,0,0:0:0:0:
61,323,408915,5,4,0:2:0:0:
80,198,409048,1,0,2:0:0:0:
168,113,409182,1,0,2:0:0:0:
448,202,409316,1,4,0:2:0:0:
206,206,409450,1,0,2:2:0:0:
141,103,409584,1,0,2:0:0:0:
424,147,409718,1,8,0:0:0:0:
454,51,409852,1,8,0:0:0:0:
132,248,409986,1,8,0:0:0:0:
170,139,410120,1,2,0:0:0:0:
443,179,410254,1,2,0:0:0:0:
484,59,410388,1,2,0:0:0:0:
202,54,410522,5,4,0:2:0:0:
69,95,410656,1,0,0:0:0:0:
359,112,410790,1,2,0:0:0:0:
492,153,410923,1,0,0:0:0:0:
146,176,411057,1,4,0:2:0:0:
111,298,411191,1,0,0:0:0:0:
394,323,411325,1,2,0:0:0:0:
423,199,411459,1,0,0:0:0:0:
185,90,411593,1,4,2:0:0:0:
457,48,411727,1,8,0:0:0:0:
488,160,411861,1,8,0:0:0:0:
411,283,411995,1,0,0:0:0:0:
173,245,412129,5,4,0:2:0:0:
57,288,412263,1,0,0:0:0:0:
398,324,412397,1,2,0:0:0:0:
436,205,412531,1,0,0:0:0:0:
190,119,412665,1,4,0:2:0:0:
95,54,412798,1,0,0:0:0:0:
353,123,412932,1,2,0:0:0:0:
391,23,413066,1,0,0:0:0:0:
160,65,413200,1,4,2:0:0:0:
371,211,413334,1,8,0:0:0:0:
345,102,413468,1,8,0:0:0:0:
249,38,413602,1,0,0:0:0:0:
33,281,413736,5,4,0:2:0:0:
53,156,413870,1,0,0:0:0:0:
400,192,414004,1,2,0:0:0:0:
312,96,414138,1,0,0:0:0:0:
53,156,414272,1,4,0:2:0:0:
78,31,414406,1,0,0:0:0:0:
372,156,414540,1,2,0:0:0:0:
346,61,414673,1,0,0:0:0:0:
127,27,414807,1,4,2:0:0:0:
416,104,414941,1,8,0:0:0:0:
467,192,415075,1,8,0:0:0:0:
276,300,415209,1,0,0:0:0:0:
84,300,415342,5,4,0:2:0:0:
46,194,415476,1,0,2:0:0:0:
83,79,415610,1,0,2:0:0:0:
383,177,415744,1,4,0:2:0:0:
417,62,415878,1,0,2:2:0:0:
325,4,416012,1,0,2:0:0:0:
99,262,416146,5,8,0:0:0:0:
125,148,416280,1,8,0:0:0:0:
203,94,416414,1,8,0:0:0:0:
443,176,416548,1,2,0:0:0:0:
417,62,416682,1,2,0:0:0:0:
339,8,416815,1,2,0:0:0:0:
128,24,416950,6,0,L|66:94,2,90,4|0|0,0:2|2:0|2:0,0:0:0:0:
353,103,417351,2,0,L|415:173,2,90,4|0|0,0:2|2:0|2:0,0:0:0:0:
147,108,417753,5,8,0:0:0:0:
61,170,417887,1,8,0:0:0:0:
38,289,418021,1,8,0:0:0:0:
314,136,418155,1,2,0:0:0:0:
400,198,418289,1,2,0:0:0:0:
423,317,418423,1,2,0:0:0:0:
96,64,418557,6,0,L|34:134,2,90,4|0|0,0:2|2:0|2:0,0:0:0:0:
321,143,418958,2,0,L|383:213,2,90,4|0|0,0:2|2:0|2:0,0:0:0:0:
96,224,419360,5,8,0:0:0:0:
113,107,419494,1,8,0:0:0:0:
201,30,419628,1,8,0:0:0:0:
455,240,419762,1,2,0:0:0:0:
438,123,419896,1,2,0:0:0:0:
350,46,420030,1,2,0:0:0:0:
73,42,420164,6,0,P|47:147|103:219,1,180,4|0,0:2|0:0,0:0:0:0:
361,330,420573,2,0,P|394:195|353:164,1,180,4|0,0:2|0:0,0:0:0:0:
139,28,420982,2,0,P|53:231|387:107,1,810,4|0,0:2|0:0,0:0:0:0:
177,33,422345,6,0,P|110:73|71:177,1,180,4|0,0:2|0:0,0:0:0:0:
317,134,422754,2,0,P|342:221|290:313,1,180,4|0,0:2|0:0,0:0:0:0:
71,163,423164,2,0,P|63:334|261:100,1,810,4|0,0:2|0:0,0:0:0:0:
71,163,424527,6,0,P|56:96|156:26,1,180,4|0,0:2|0:0,0:0:0:0:
416,288,424936,2,0,P|426:196|350:118,1,180,4|0,0:2|0:0,0:0:0:0:
160,0,425345,2,0,B|33:63|33:191|33:191|257:95|257:95|257:319|106:348,1,810,4|0,0:2|0:0,0:0:0:0:
384,352,426709,6,0,P|416:320|384:192,1,180,4|0,0:2|0:0,0:0:0:0:
128,224,427118,2,0,P|96:160|160:64,1,180,0|0,0:2|0:0,0:0:0:0:
352,0,427527,2,0,B|479:63|479:191|479:191|255:95|255:95|255:319|406:348,1,810,4|0,0:2|0:0,0:0:0:0:
180,344,428891,6,0,P|80:276|232:24,1,450,4|0,0:0|0:0,0:0:0:0:
256,52,429732,2,0,P|409:209|196:353,1,540,4|0,0:0|0:0,0:0:0:0:
352,110,430854,1,0,0:0:0:0:
339,56,430993,1,0,0:0:0:0:
95,160,431133,5,4,0:0:0:0:
285,205,431554,2,0,L|271:99,1,90
103,260,431975,2,0,L|126:66,1,180,0|4,0:0|0:0,0:0:0:0:
346,204,432536,2,0,L|323:106,1,90
97,135,432816,1,0,0:0:0:0:
325,117,433097,1,2,0:0:0:0:
139,33,433377,6,0,P|66:127|88:286,1,270,4|0,0:0|0:0,0:0:0:0:
369,338,434218,2,0,P|408:247|325:83,2,270
174,337,435340,2,0,L|144:224,1,90
378,187,435620,1,4,0:0:0:0:
137,134,436041,6,0,L|108:40,1,90
284,119,436461,2,0,L|243:228,1,90
138,200,436741,1,4,0:0:0:0:
397,312,437022,2,0,L|374:118,1,180
115,278,437583,2,0,L|142:180,1,90,2|0,0:0|0:0,0:0:0:0:
373,33,437863,6,0,P|446:127|424:286,1,270,4|0,0:0|0:0,0:0:0:0:
143,338,438704,2,0,P|104:247|187:83,2,270
338,337,439826,2,0,L|368:224,1,90
149,187,440106,1,4,0:0:0:0:
375,134,440527,2,0,L|404:40,1,90
180,102,440947,2,0,L|139:211,1,90
267,137,441227,1,4,0:0:0:0:
89,194,441508,1,0,0:0:0:0:
478,239,441788,2,0,L|510:57,1,180,0|2,0:0|0:0,0:0:0:0:
421,61,442209,1,0,0:0:0:0:
125,86,442348,6,0,P|87:141|88:274,1,180,4|0,0:0|0:0,0:0:0:0:
171,322,442770,2,0,P|200:227|175:133,1,180
32,150,443190,2,0,P|68:27|54:148,1,360
445,329,444031,2,0,P|485:251|451:172,1,180
397,169,444452,1,0,0:0:0:0:
175,173,444592,1,4,0:0:0:0:
414,200,445013,6,0,L|429:97,1,90
143,230,445433,2,0,L|220:58,1,180,0|4,0:0|0:0,0:0:0:0:
335,73,445854,2,0,P|347:144|257:216,1,180
185,222,446274,1,0,0:0:0:0:
455,174,446555,1,2,0:0:0:0:
89,340,446835,6,0,P|51:280|119:207,1,180,4|0,0:0|0:0,0:0:0:0:
208,214,447256,2,0,P|242:137|159:120,1,180
415,44,447676,2,0,P|496:157|348:300,1,360
79,300,448517,2,0,P|77:274|174:153,1,180
273,128,448938,1,0,0:0:0:0:
385,98,449078,5,4,0:0:0:0:
192,167,449499,2,0,L|141:241,1,90
329,203,449919,2,0,P|368:150|299:70,1,180,0|4,0:0|0:0,0:0:0:0:
227,75,450340,2,0,L|135:78,2,90
307,70,450760,1,0,0:0:0:0:
137,77,451041,1,2,0:0:0:0:
315,70,451321,6,0,P|350:195|245:281,2,270,4|0|0,0:0|0:0|0:0,0:0:0:0:
148,96,452583,2,0,P|100:169|107:258,1,180
197,284,453003,1,0,0:0:0:0:
395,274,453283,1,0,0:0:0:0:
449,207,453423,1,0,0:0:0:0:
233,200,453563,5,4,0:0:0:0:
430,141,453984,2,0,L|416:35,1,90
348,266,454405,2,0,L|325:72,1,180,0|4,0:0|0:0,0:0:0:0:
118,213,454965,2,0,L|141:115,1,90
377,128,455246,1,0,0:0:0:0:
182,199,455527,2,0,L|158:307,1,90,2|0,0:0|0:0,0:0:0:0:
373,33,455806,6,0,P|446:127|424:286,1,270,4|0,0:0|0:0,0:0:0:0:
143,338,456648,2,0,P|104:247|178:85,2,270
338,337,457769,2,0,L|368:224,1,90
149,187,458049,1,4,0:0:0:0:
375,134,458470,2,0,L|404:40,1,90
150,106,458891,2,0,L|112:207,1,90
337,230,459171,1,4,0:0:0:0:
115,312,459451,2,0,L|138:118,1,180
397,278,460013,2,0,L|370:180,1,90,2|0,0:0|0:0,0:0:0:0:
139,33,460292,6,0,P|66:127|88:286,1,270,4|0,0:0|0:0,0:0:0:0:
369,338,461134,2,0,P|408:247|325:83,2,270
174,337,462255,2,0,L|144:224,1,90
363,187,462535,1,4,0:0:0:0:
137,134,462956,2,0,L|108:40,1,90
336,111,463376,2,0,L|295:220,1,90
221,193,463657,1,4,0:0:0:0:
438,180,463937,1,0,0:0:0:0:
88,287,464218,2,0,L|56:81,1,180,0|2,0:0|0:0,0:0:0:0:
154,88,464638,1,0,0:0:0:0:
387,86,464778,6,0,P|425:141|424:274,1,180,4|0,0:0|0:0,0:0:0:0:
293,334,465199,2,0,P|219:279|200:177,1,180
467,143,465619,2,0,P|419:64|148:258,1,540
320,280,466741,2,0,B|385:188|385:188|95:233|95:233|194:110,1,540
362,116,467863,2,0,B|421:204|421:204|137:163|137:163|234:295,1,540
386,281,468984,1,0,0:0:0:0:
125,86,469265,6,0,P|87:141|88:274,1,180,4|0,0:0|0:0,0:0:0:0:
219,334,469685,2,0,P|293:279|312:177,1,180
45,143,470106,2,0,P|93:64|364:258,1,540
192,280,471227,2,0,B|127:188|127:188|417:233|417:233|318:110,1,540
150,116,472349,2,0,B|91:204|91:204|375:163|375:163|278:295,1,540
126,281,473470,1,0,0:0:0:0:
387,86,473751,6,0,P|425:141|424:274,1,180,4|0,0:0|0:0,0:0:0:0:
166,258,474171,2,0,P|92:203|73:101,1,180
181,194,474592,2,0,P|229:115|500:309,1,540
244,274,475713,2,0,B|179:182|179:182|469:227|469:227|370:104,1,540
205,93,476835,2,0,B|146:181|146:181|430:140|430:140|333:272,1,540
95,240,477956,1,0,0:0:0:0:
123,167,478097,1,0,0:0:0:0:
407,72,478237,6,0,P|451:113|432:233,1,180,4|0,0:0|0:0,0:0:0:0:
348,139,478657,2,0,P|334:198|432:171,1,180
190,326,479078,2,0,P|137:283|328:285,1,540
80,264,480199,2,0,P|27:221|218:223,1,540
408,329,481321,2,0,P|461:286|270:288,1,540
437,217,482442,2,0,L|358:130,1,90
125,86,482723,6,0,P|87:141|88:274,1,180,4|0,0:0|0:0,0:0:0:0:
174,270,483143,2,0,P|248:215|267:113,1,180
45,143,483564,2,0,P|93:64|364:258,1,540
326,292,484545,5,0,0:0:0:0:
258,309,484685,1,0,0:0:0:0:
191,291,484826,1,0,0:0:0:0:
137,239,484966,2,0,P|185:160|402:253,1,360,4|0,0:0|0:0,0:0:0:0:
342,293,485667,5,0,0:0:0:0:
266,274,485807,1,0,0:0:0:0:
216,216,485947,1,0,0:0:0:0:
250,145,486087,2,0,P|298:66|510:169,1,360,4|0,0:0|0:0,0:0:0:0:
472,210,486788,1,0,0:0:0:0:
418,269,486928,1,0,0:0:0:0:
125,86,487209,6,0,P|87:141|179:180,1,180,4|0,0:0|0:0,0:0:0:0:
262,189,487629,2,0,P|268:269|188:270,1,180
392,297,488050,2,0,P|419:64|157:102,1,540
117,128,489031,5,0,0:0:0:0:
111,210,489171,1,0,0:0:0:0:
176,274,489312,1,0,0:0:0:0:
261,309,489452,2,0,P|327:160|174:73,1,360,4|0,0:0|0:0,0:0:0:0:
114,106,490153,5,0,0:0:0:0:
68,178,490293,1,0,0:0:0:0:
109,254,490433,1,0,0:0:0:0:
197,269,490573,2,0,P|266:86|169:73,1,360,4|0,0:0|0:0,0:0:0:0:
113,116,491274,1,0,0:0:0:0:
175,161,491414,1,0,0:0:0:0:
387,86,491695,6,0,P|425:141|424:274,1,180,4|0,0:0|0:0,0:0:0:0:
261,261,492115,2,0,P|203:224|245:113,1,180
437,201,492536,2,0,P|418:57|132:143,1,540
191,204,493517,5,0,0:0:0:0:
254,141,493657,1,0,0:0:0:0:
191,204,493798,1,0,0:0:0:0:
411,219,493938,2,0,P|456:111|257:50,1,360,4|0,0:0|0:0,0:0:0:0:
202,90,494639,5,0,0:0:0:0:
272,141,494779,1,0,0:0:0:0:
198,191,494919,1,0,0:0:0:0:
426,226,495059,2,0,P|471:118|272:57,1,360,4|0,0:0|0:0,0:0:0:0:
224,105,495760,1,0,0:0:0:0:
289,169,495900,1,0,0:0:0:0:
125,86,496181,6,0,P|87:141|88:274,1,180,4|0,0:0|0:0,0:0:0:0:
286,253,496601,2,0,P|344:216|302:105,1,180
75,201,497022,2,0,P|94:57|380:143,1,540
321,204,498003,5,0,0:0:0:0:
258,141,498143,1,0,0:0:0:0:
321,204,498284,1,0,0:0:0:0:
101,219,498424,2,0,P|56:111|255:50,1,360,4|0,0:0|0:0,0:0:0:0:
310,90,499125,5,0,0:0:0:0:
240,141,499265,1,0,0:0:0:0:
314,191,499405,1,0,0:0:0:0:
86,226,499545,2,0,P|41:118|240:57,1,360,4|0,0:0|0:0,0:0:0:0:
287,102,500246,1,0,0:0:0:0:
223,151,500386,1,0,0:0:0:0:
436,320,500667,6,0,L|482:131,1,180,4|0,0:2|0:0,0:0:0:0:
343,257,501087,2,0,L|389:68,1,180
137,59,501508,2,0,L|39:61,1,90
269,143,501788,6,0,L|290:245,1,90,4|0,0:0|0:0,0:0:0:0:
161,145,502069,2,0,L|135:53,1,90
44,151,502349,2,0,L|25:224,2,45
293,145,502629,2,0,L|319:53,1,90
76,320,502910,6,0,L|30:131,1,180,4|0,0:0|0:0,0:0:0:0:
169,257,503330,2,0,L|123:68,1,180
375,59,503751,2,0,L|473:61,1,90
243,143,504031,6,0,L|222:245,1,90,4|0,0:0|0:0,0:0:0:0:
351,145,504312,2,0,L|377:53,1,90
128,148,504592,2,0,L|111:223,2,45
32,146,504872,2,0,L|58:54,1,90
386,322,505153,6,0,P|424:261|421:123,1,180,4|0,0:0|0:0,0:0:0:0:
338,236,505573,2,0,P|376:175|373:37,1,180
120,55,505994,2,0,P|90:106|83:160,1,90
329,140,506274,2,0,P|342:202|330:241,1,90,4|0,0:0|0:0,0:0:0:0:
245,102,506555,2,0,P|251:43|290:-3,1,90
480,69,506835,2,0,L|500:132,2,45
283,115,507115,2,0,L|359:53,1,90
126,322,507396,6,0,P|88:261|91:123,1,180,4|0,0:0|0:0,0:0:0:0:
174,236,507816,2,0,P|136:175|139:37,1,180
392,55,508237,2,0,P|422:106|429:160,1,90
183,140,508517,2,0,P|170:202|182:241,1,90,4|0,0:0|0:0,0:0:0:0:
267,102,508798,2,0,P|261:43|222:-3,1,90
468,151,509078,2,0,L|487:224,2,45
218,99,509358,2,0,L|192:7,1,90
418,312,509639,6,0,P|456:251|453:113,1,180,4|0,0:0|0:0,0:0:0:0:
321,316,510059,2,0,P|283:255|297:124,1,180
378,69,510480,2,0,P|408:120|415:174,1,90
124,128,510760,2,0,P|111:190|123:229,1,90,4|0,0:0|0:0,0:0:0:0:
255,155,511041,2,0,P|314:161|360:200,1,90
116,214,511321,2,0,L|103:277,2,45
255,155,511601,2,0,L|353:155,1,90
126,322,511882,6,0,P|88:261|91:123,1,180,4|0,0:0|0:0,0:0:0:0:
226,323,512302,2,0,P|264:262|250:131,1,180
188,76,512723,2,0,P|158:127|151:181,1,90
388,128,513003,2,0,P|401:190|389:229,1,90,4|0,0:0|0:0,0:0:0:0:
257,155,513284,2,0,P|198:161|152:200,1,90
396,214,513564,2,0,L|409:277,2,45
257,155,513844,2,0,L|340:73,1,90
80,113,514125,6,0,P|54:179|145:228,1,180,4|0,0:0|0:0,0:0:0:0:
276,227,514545,2,0,P|350:188|328:108,1,180
112,51,514966,2,0,P|59:81|42:120,1,90
338,67,515246,5,4,0:0:0:0:
121,72,515386,2,2,L|99:116,2,45
338,67,515667,1,2,0:0:0:0:
121,72,515807,2,0,L|79:170,1,90
369,68,516087,2,0,L|411:166,1,90
150,127,516368,6,0,P|85:185|-27:202,1,180,4|0,0:2|0:0,0:0:0:0:
224,64,516788,2,0,L|11:12,1,180,4|0,0:2|0:0,0:0:0:0:
305,292,517209,2,0,P|392:284|447:233,1,135,4|0,0:2|0:0,0:0:0:0:
470,211,517489,5,4,0:0:0:0:
492,174,517559,1,4,0:0:0:0:
491,126,517629,1,4,0:0:0:0:
465,84,517699,1,4,0:0:0:0:
212,52,517770,1,4,0:0:0:0:
186,94,517840,1,4,0:0:0:0:
185,142,517910,1,4,0:0:0:0:
216,172,517980,1,4,0:0:0:0:
317,78,518050,1,4,0:0:0:0:
343,120,518120,1,4,0:0:0:0:
344,168,518190,1,4,0:0:0:0:
313,198,518260,1,4,0:0:0:0:
126,194,518330,1,4,0:0:0:0:
104,157,518400,1,4,0:0:0:0:
132,110,518470,1,4,0:0:0:0:
184,87,518541,1,4,0:0:0:0:
341,85,518611,6,0,L|426:171,1,90,2|0,0:0|0:0,0:0:0:0:
184,87,518891,2,0,L|55:87,1,90,2|0,0:0|0:0,0:0:0:0:
184,87,519171,1,0,0:0:0:0:
400,84,519312,2,0,L|529:84,2,90,2|0|0,0:0|0:0|0:0,0:0:0:0:
171,85,519732,6,0,L|86:171,1,90,2|0,0:0|0:0,0:0:0:0:
328,87,520013,2,0,L|457:87,2,90,2|0|0,0:0|0:0|0:0,0:0:0:0:
108,95,520433,2,0,L|197:95,1,90,2|0,0:0|0:0,0:0:0:0:
418,87,520713,1,0,0:0:0:0:
108,95,520854,6,0,L|23:181,1,90,2|0,0:0|0:0,0:0:0:0:
249,172,521134,2,0,L|120:172,1,90,2|0,0:0|0:0,0:0:0:0:
53,169,521414,1,0,0:0:0:0:
270,101,521555,2,0,L|399:101,2,90,2|0|0,0:0|0:0|0:0,0:0:0:0:
50,117,521975,6,0,L|135:203,1,90,2|0,0:0|0:0,0:0:0:0:
335,178,522256,2,0,L|464:178,2,90,2|0|0,0:0|0:0|0:0,0:0:0:0:
109,120,522676,2,0,L|217:119,1,90,2|0,0:0|0:0,0:0:0:0:
419,119,522956,1,0,0:0:0:0:
198,119,523097,6,0,L|113:205,1,90,2|0,0:0|0:0,0:0:0:0:
353,118,523377,2,0,L|482:118,2,90,2|0|0,0:0|0:0|0:0,0:0:0:0:
135,117,523798,2,0,L|6:117,2,90,2|0|0,0:0|0:0|0:0,0:0:0:0:
353,118,524218,6,0,L|416:53,1,90,2|0,0:0|0:0,0:0:0:0:
196,41,524499,2,0,L|325:41,2,90,2|0|0,0:0|0:0|0:0,0:0:0:0:
417,128,524919,2,0,L|328:128,1,90,2|0,0:0|0:0,0:0:0:0:
106,120,525199,1,0,0:0:0:0:
440,97,525340,6,0,L|525:183,1,90,2|0,0:0|0:0,0:0:0:0:
263,172,525620,2,0,L|392:172,1,90,2|0,0:0|0:0,0:0:0:0:
459,169,525900,1,0,0:0:0:0:
238,150,526041,2,0,L|109:150,2,90,2|0|0,0:0|0:0|0:0,0:0:0:0:
456,152,526461,6,0,L|371:238,1,90,2|0,0:0|0:0,0:0:0:0:
168,213,526741,2,0,L|297:213,2,90,2|0|0,0:0|0:0|0:0,0:0:0:0:
387,211,527162,2,0,L|298:211,1,90,2|0,0:0|0:0,0:0:0:0:
80,210,527442,1,0,0:0:0:0:
296,208,527583,6,0,L|172:208,1,90,2|0,0:0|0:0,0:0:0:0:
428,136,527863,2,0,L|512:48,2,90,2|0|0,0:0|0:0|0:0,0:0:0:0:
212,76,528284,2,0,L|320:76,2,90,2|0|0,0:0|0:0|0:0,0:0:0:0:
432,176,528704,6,0,L|308:176,1,90,2|0,0:0|0:0,0:0:0:0:
120,176,528984,2,0,L|4:176,2,90,2|0|0,0:0|0:0|0:0,0:0:0:0:
336,136,529405,2,0,L|257:211,1,90,2|0,0:0|0:0,0:0:0:0:
415,138,529685,1,0,0:0:0:0:
120,76,529826,6,0,L|205:162,1,90,2|0,0:0|0:0,0:0:0:0:
404,256,530106,2,0,L|275:256,2,90,2|0|0,0:0|0:0|0:0,0:0:0:0:
188,252,530527,2,0,L|59:252,2,90,2|0|0,0:0|0:0|0:0,0:0:0:0:
462,117,530947,6,0,L|377:203,1,90,2|0,0:0|0:0,0:0:0:0:
177,178,531227,2,0,L|48:178,2,90,2|0|0,0:0|0:0|0:0,0:0:0:0:
396,176,531648,2,0,L|267:176,1,90,2|0,0:0|0:0,0:0:0:0:
471,175,531928,1,0,0:0:0:0:
177,178,532069,6,0,L|262:264,1,90,2|0,0:0|0:0,0:0:0:0:
456,132,532349,2,0,L|327:132,2,90,2|0|0,0:0|0:0|0:0,0:0:0:0:
236,212,532770,2,0,L|365:212,2,90,2|0|0,0:0|0:0|0:0,0:0:0:0:
456,208,533190,6,0,L|393:143,1,90,2|0,0:0|0:0,0:0:0:0:
176,80,533470,2,0,L|47:80,2,90,2|0|0,0:0|0:0|0:0,0:0:0:0:
392,80,533891,2,0,L|521:80,1,90,2|0,0:0|0:0,0:0:0:0:
338,79,534171,1,0,0:0:0:0:
72,97,534312,6,0,L|-13:183,1,90,2|0,0:0|0:0,0:0:0:0:
249,172,534592,2,0,L|120:172,1,90,2|0,0:0|0:0,0:0:0:0:
53,169,534872,1,0,0:0:0:0:
274,150,535013,2,0,L|403:150,2,90,2|0|0,0:0|0:0|0:0,0:0:0:0:
56,152,535433,6,0,L|141:238,1,90,2|0,0:0|0:0,0:0:0:0:
344,213,535713,2,0,L|215:213,2,90,2|0|0,0:0|0:0|0:0,0:0:0:0:
125,211,536134,2,0,L|214:211,1,90,2|0,0:0|0:0,0:0:0:0:
432,210,536414,1,0,0:0:0:0:
215,211,536555,5,2,0:0:0:0:
170,211,536625,1,2,0:0:0:0:
125,211,536695,1,2,0:0:0:0:
344,104,536835,1,2,0:0:0:0:
389,104,536905,1,2,0:0:0:0:
432,104,536975,2,0,L|328:100,2,90,2|0|0,0:0|0:0|0:0,0:0:0:0:
216,100,537396,2,2,L|104:100,1,90
344,96,537676,5,2,0:0:0:0:
434,96,537816,1,0,0:0:0:0:
216,100,537956,2,0,L|108:100,2,90,2|0|0,0:0|0:0|0:0,0:0:0:0:
434,96,538377,1,2,0:0:0:0:
216,100,538517,1,2,0:0:0:0:
171,100,538587,1,2,0:0:0:0:
126,100,538657,1,2,0:0:0:0:
344,204,538798,5,2,0:0:0:0:
389,204,538868,1,2,0:0:0:0:
434,204,538938,1,2,0:0:0:0:
215,97,539078,1,2,0:0:0:0:
170,97,539148,1,2,0:0:0:0:
127,97,539218,2,0,L|231:93,2,90,2|0|0,0:0|0:0|0:0,0:0:0:0:
343,93,539639,2,2,L|455:93,1,90
215,89,539919,5,2,0:0:0:0:
125,89,540059,1,0,0:0:0:0:
431,93,540199,2,0,L|327:89,2,90,2|0|0,0:0|0:0|0:0,0:0:0:0:
341,89,540620,1,2,0:0:0:0:
120,88,540760,1,2,0:0:0:0:
165,88,540830,1,2,0:0:0:0:
210,88,540900,1,2,0:0:0:0:
431,93,541041,5,2,0:0:0:0:
386,93,541111,1,2,0:0:0:0:
341,93,541181,1,2,0:0:0:0:
120,88,541321,1,2,0:0:0:0:
75,88,541391,1,2,0:0:0:0:
120,88,541461,2,0,L|227:89,2,90,2|0|0,0:0|0:0|0:0,0:0:0:0:
210,167,541882,2,2,L|98:167,1,90
344,96,542162,5,2,0:0:0:0:
434,96,542302,1,0,0:0:0:0:
216,100,542442,2,0,L|108:100,2,90,2|0|0,0:0|0:0|0:0,0:0:0:0:
434,96,542863,1,2,0:0:0:0:
216,100,543003,1,2,0:0:0:0:
171,100,543073,1,2,0:0:0:0:
126,100,543143,1,2,0:0:0:0:
455,173,543284,5,2,0:0:0:0:
500,173,543354,1,2,0:0:0:0:
455,173,543424,1,2,0:0:0:0:
104,178,543564,1,2,0:0:0:0:
59,178,543634,1,2,0:0:0:0:
104,178,543704,1,2,0:0:0:0:
344,96,543844,2,0,L|456:96,2,90,0|0|2,0:0|0:0|0:0,0:0:0:0:
434,96,544265,1,0,0:0:0:0:
179,91,544405,6,0,L|83:91,1,90,2|0,0:0|0:0,0:0:0:0:
344,96,544685,2,0,L|240:95,2,90,2|0|0,0:0|0:0|0:0,0:0:0:0:
89,91,545106,1,2,0:0:0:0:
314,89,545246,1,2,0:0:0:0:
359,89,545316,1,2,0:0:0:0:
404,89,545386,1,2,0:0:0:0:
88,151,545527,6,2,L|24:153,2,45
314,89,545807,1,2,0:0:0:0:
358,86,545877,1,2,0:0:0:0:
403,84,545947,1,2,0:0:0:0:
179,88,546087,2,0,L|78:89,1,90,2|0,0:0|0:0,0:0:0:0:
322,154,546368,2,0,L|423:155,1,90,2|0,0:0|0:0,0:0:0:0:
186,157,546648,5,0,0:0:0:0:
322,154,546788,1,0,0:0:0:0:
186,157,546928,1,2,0:0:0:0:
322,154,547069,1,0,0:0:0:0:
98,239,547209,2,0,L|66:335,1,90,2|0,0:0|0:0,0:0:0:0:
414,239,547489,2,0,L|446:335,1,90,2|0,0:0|0:0,0:0:0:0:
88,151,547770,6,2,L|24:153,2,45
198,89,548050,1,2,0:0:0:0:
154,86,548120,1,2,0:0:0:0:
109,84,548190,1,2,0:0:0:0:
333,88,548330,2,0,L|434:89,1,90,2|0,0:0|0:0,0:0:0:0:
190,154,548611,2,0,L|89:155,1,90,2|0,0:0|0:0,0:0:0:0:
326,157,548891,5,0,0:0:0:0:
190,154,549031,1,0,0:0:0:0:
326,157,549171,1,2,0:0:0:0:
190,154,549312,1,0,0:0:0:0:
414,239,549452,2,0,L|446:335,1,90,2|0,0:0|0:0,0:0:0:0:
98,239,549732,2,0,L|66:335,1,90,2|0,0:0|0:0,0:0:0:0:
414,239,550013,6,2,L|478:241,2,45
140,245,550293,1,2,0:0:0:0:
184,242,550363,1,2,0:0:0:0:
229,240,550433,1,2,0:0:0:0:
464,133,550573,2,0,L|363:134,1,90,2|0,0:0|0:0,0:0:0:0:
149,127,550854,2,0,L|48:128,1,90,2|0,0:0|0:0,0:0:0:0:
285,123,551134,5,0,0:0:0:0:
423,122,551274,1,0,0:0:0:0:
285,123,551414,1,2,0:0:0:0:
512,114,551555,1,0,0:0:0:0:
285,123,551695,2,0,L|178:123,1,90,2|0,0:0|0:0,0:0:0:0:
423,122,551975,2,0,L|455:218,1,90,2|0,0:0|0:0,0:0:0:0:
88,151,552256,6,2,L|24:153,2,45
198,89,552536,1,2,0:0:0:0:
154,86,552606,1,2,0:0:0:0:
109,84,552676,1,2,0:0:0:0:
333,88,552816,2,0,L|434:89,1,90,2|0,0:0|0:0,0:0:0:0:
190,154,553097,2,0,L|89:155,1,90,2|0,0:0|0:0,0:0:0:0:
326,157,553377,5,0,0:0:0:0:
190,154,553517,1,0,0:0:0:0:
326,157,553657,1,2,0:0:0:0:
190,154,553798,1,0,0:0:0:0:
414,239,553938,5,4,0:0:0:0:
438,279,554008,1,4,0:0:0:0:
418,338,554078,1,4,0:0:0:0:
353,353,554148,1,4,0:0:0:0:
98,239,554218,1,4,0:0:0:0:
63,290,554288,1,4,0:0:0:0:
78,351,554358,1,4,0:0:0:0:
138,368,554428,1,4,0:0:0:0:
418,338,554499,6,0,P|438:274|374:159,1,180,2|0,0:0|0:0,0:0:0:0:
94,46,554919,2,0,P|74:110|138:225,1,180,2|0,0:0|0:0,0:0:0:0:
471,134,555340,2,0,P|134:214|117:282,1,450,2|0,0:0|0:0,0:0:0:0:
348,333,556181,2,2,P|403:320|434:290,1,90
330,250,556461,2,2,P|385:237|416:207,1,90
94,338,556741,6,0,P|74:274|138:159,1,180,2|0,0:0|0:0,0:0:0:0:
418,46,557162,2,0,P|438:110|374:225,1,180,2|0,0:0|0:0,0:0:0:0:
41,134,557583,2,0,P|378:214|395:282,1,450,2|0,0:0|0:0,0:0:0:0:
164,333,558424,2,2,P|109:320|78:290,1,90
321,282,558704,2,2,P|376:269|407:239,1,90
120,77,558984,6,0,P|79:140|115:261,1,180,2|0,0:0|0:0,0:0:0:0:
378,150,559405,2,0,P|419:213|383:334,1,180,2|0,0:0|0:0,0:0:0:0:
110,322,559826,2,0,P|166:217|481:188,1,450,2|0,0:0|0:0,0:0:0:0:
385,202,560667,2,2,P|451:175|480:182,1,90
353,237,560947,2,2,P|419:210|448:217,1,90
120,334,561227,6,0,L|47:276,1,90
51,197,561508,1,2,0:0:0:0:
188,256,561648,2,0,L|115:198,1,90
119,119,561928,1,2,0:0:0:0:
258,195,562069,2,0,L|185:137,1,90
262,84,562349,1,2,0:0:0:0:
398,140,562489,1,0,0:0:0:0:
143,119,562629,6,0,P|87:137|41:177,1,90,2|0,0:0|0:0,0:0:0:0:
395,331,562910,2,0,P|445:264|425:156,1,180,2|0,0:0|0:0,0:0:0:0:
108,164,563330,1,0,0:0:0:0:
408,136,563470,6,0,P|389:78|342:51,1,90,8|0,1:0|1:0,1:0:0:0:
107,42,563751,1,0,1:0:0:0:
367,60,563891,2,0,P|407:96|419:148,1,90,8|0,1:0|1:0,1:0:0:0:
220,260,564171,1,0,1:0:0:0:
20,292,564312,2,0,P|36:232|72:212,1,90,8|0,1:0|1:0,1:0:0:0:
308,212,564592,6,0,P|296:148|260:112,1,90,8|0,1:0|1:0,1:0:0:0:
72,92,564872,1,0,1:0:0:0:
312,52,565013,1,8,1:0:0:0:
352,180,565153,1,0,1:0:0:0:
112,272,565293,1,0,1:0:0:0:
144,160,565433,1,8,1:0:0:0:
244,80,565573,1,0,1:0:0:0:
32,152,565713,6,0,L|24:40,1,90,8|0,1:0|1:0,1:0:0:0:
272,120,565994,1,0,1:0:0:0:
40,244,566134,1,8,1:0:0:0:
320,296,566274,2,0,L|288:196,1,90,0|0,1:0|1:0,1:0:0:0:
48,148,566555,6,0,L|104:52,1,90,8|0,1:0|1:0,1:0:0:0:
332,76,566835,2,0,L|408:8,1,90,8|0,1:0|1:0,1:0:0:0:
116,160,567115,1,0,1:0:0:0:
432,204,567256,2,0,P|424:248|376:304,1,90,8|0,1:0|1:0,1:0:0:0:
104,308,567536,1,0,1:0:0:0:
384,272,567676,1,8,1:0:0:0:
180,168,567816,1,0,1:0:0:0:
472,160,567956,6,0,L|480:64,1,90,8|0,1:0|1:0,1:0:0:0:
264,40,568237,1,0,1:0:0:0:
480,280,568377,1,8,1:0:0:0:
252,228,568517,1,0,1:0:0:0:
24,192,568657,1,0,1:0:0:0:
268,180,568798,2,0,L|296:64,1,90,8|0,1:0|1:0,1:0:0:0:
16,120,569078,6,0,L|12:20,1,90,8|0,1:0|1:0,1:0:0:0:
280,36,569358,1,0,1:0:0:0:
24,72,569499,2,0,L|100:148,1,90,8|0,1:0|1:0,1:0:0:0:
344,208,569779,2,0,L|376:336,1,90,0|8,1:0|1:0,1:0:0:0:
148,244,570059,1,0,1:0:0:0:
416,248,570199,5,8,1:0:0:0:
380,136,570340,1,0,1:0:0:0:
296,56,570480,1,0,1:0:0:0:
32,36,570620,1,8,1:0:0:0:
256,64,570760,1,0,1:0:0:0:
356,160,570900,1,0,1:0:0:0:
88,184,571041,1,8,1:0:0:0:
40,292,571181,1,0,1:0:0:0:
272,264,571321,5,8,1:0:0:0:
204,148,571461,1,0,1:0:0:0:
440,152,571601,1,0,1:0:0:0:
468,32,571741,1,8,1:0:0:0:
224,20,571882,1,0,1:0:0:0:
488,24,572022,1,0,1:0:0:0:
480,176,572162,1,8,1:0:0:0:
376,272,572302,1,0,1:0:0:0:
96,288,572442,6,0,L|160:200,1,90,8|0,1:0|1:0,1:0:0:0:
412,72,572723,1,0,1:0:0:0:
152,48,572863,2,0,L|56:80,2,90,8|0|0,1:0|1:0|1:0,1:0:0:0:
436,80,573284,2,0,L|460:176,1,90,8|0,1:0|1:0,1:0:0:0:
96,168,573564,6,0,P|68:208|72:276,1,90,8|0,1:0|1:0,1:0:0:0:
284,284,573844,1,0,1:0:0:0:
496,292,573984,2,0,L|476:192,1,90,8|0,1:0|1:0,1:0:0:0:
200,120,574265,1,0,1:0:0:0:
500,56,574405,1,8,1:0:0:0:
256,28,574545,1,0,1:0:0:0:
32,56,574685,6,0,P|4:108|16:152,1,90,8|0,1:0|1:0,1:0:0:0:
236,216,574966,1,0,1:0:0:0:
16,232,575106,2,0,P|32:164|68:136,1,90,8|0,1:0|1:0,1:0:0:0:
292,104,575386,1,0,1:0:0:0:
56,68,575527,1,8,1:0:0:0:
104,184,575667,1,0,1:0:0:0:
344,280,575807,5,8,1:0:0:0:
448,312,575947,1,0,1:0:0:0:
152,252,576087,1,0,1:0:0:0:
88,148,576227,1,8,1:0:0:0:
80,32,576368,1,0,1:0:0:0:
376,100,576508,1,0,1:0:0:0:
112,64,576648,1,8,1:0:0:0:
124,172,576788,1,0,1:0:0:0:
440,308,576928,5,8,1:0:0:0:
480,200,577069,1,0,1:0:0:0:
392,108,577209,1,0,1:0:0:0:
120,96,577349,1,8,1:0:0:0:
244,96,577489,1,0,1:0:0:0:
152,176,577629,1,0,1:0:0:0:
416,296,577770,2,0,L|392:200,1,90,8|0,1:0|1:0,1:0:0:0:
76,188,578050,6,0,L|16:96,1,90,8|0,1:0|1:0,1:0:0:0:
296,80,578330,1,0,1:0:0:0:
388,16,578470,1,8,1:0:0:0:
116,36,578611,1,0,1:0:0:0:
328,148,578751,1,0,1:0:0:0:
84,244,578891,2,0,P|72:212|80:152,1,90,8|0,1:0|1:0,1:0:0:0:
412,348,579171,1,8,1:0:0:0:
404,248,579312,1,0,1:0:0:0:
168,196,579452,1,0,1:0:0:0:
376,144,579592,1,8,1:0:0:0:
136,112,579732,1,0,1:0:0:0:
136,28,579872,1,0,1:0:0:0:
424,84,580013,1,8,1:0:0:0:
436,8,580153,1,0,1:0:0:0:
200,148,580293,5,8,1:0:0:0:
184,52,580433,1,0,1:0:0:0:
460,180,580573,1,0,1:0:0:0:
484,88,580713,1,8,1:0:0:0:
212,88,580854,1,0,1:0:0:0:
456,48,580994,1,0,1:0:0:0:
168,152,581134,1,8,1:0:0:0:
132,252,581274,1,0,1:0:0:0:
416,312,581414,5,8,1:0:0:0:
380,179,581555,1,0,1:0:0:0:
296,104,581695,1,0,1:0:0:0:
64,112,581835,2,0,P|36:84|36:12,2,90,8|0|0,1:0|1:0|1:0,1:0:0:0:
404,264,582256,2,0,P|348:152|340:148,1,90,8|0,1:0|1:0,1:0:0:0:
300,92,582536,5,8,1:0:0:0:
168,32,582676,1,0,1:0:0:0:
448,216,582816,1,0,1:0:0:0:
472,100,582956,1,8,1:0:0:0:
240,136,583097,1,0,1:0:0:0:
488,32,583237,1,0,1:0:0:0:
268,48,583377,1,8,1:0:0:0:
352,4,583517,1,0,1:0:0:0:
124,60,583657,5,8,1:0:0:0:
88,184,583798,1,0,1:0:0:0:
160,288,583938,1,0,1:0:0:0:
440,248,584078,1,8,1:0:0:0:
352,160,584218,1,0,1:0:0:0:
104,108,584358,1,0,1:0:0:0:
380,96,584499,1,8,1:0:0:0:
368,248,584639,1,0,1:0:0:0:
284,324,584779,5,8,1:0:0:0:
160,344,584919,1,0,1:0:0:0:
376,216,585059,1,0,1:0:0:0:
148,196,585199,1,8,1:0:0:0:
96,104,585340,1,0,1:0:0:0:
432,72,585480,1,0,1:0:0:0:
128,56,585620,1,8,1:0:0:0:
156,144,585760,1,0,1:0:0:0:
408,240,585900,6,0,L|364:336,1,90,8|0,1:0|1:0,1:0:0:0:
268,364,586181,1,0,1:0:0:0:
36,328,586321,1,8,1:0:0:0:
368,264,586461,1,0,1:0:0:0:
328,168,586601,1,0,1:0:0:0:
52,136,586741,1,8,1:0:0:0:
64,40,586882,1,0,1:0:0:0:
416,120,587022,5,8,1:0:0:0:
408,32,587162,1,0,1:0:0:0:
128,40,587302,1,0,1:0:0:0:
152,152,587442,1,8,1:0:0:0:
248,220,587583,1,0,1:0:0:0:
28,288,587723,1,0,1:0:0:0:
20,184,587863,1,8,1:0:0:0:
212,152,588003,1,0,1:0:0:0:
404,168,588143,1,8,1:0:0:0:
412,64,588284,1,0,1:0:0:0:
208,40,588424,1,0,1:0:0:0:
12,68,588564,1,8,1:0:0:0:
56,212,588704,1,0,1:0:0:0:
348,280,588844,1,0,1:0:0:0:
76,288,588984,1,8,1:0:0:0:
108,184,589125,1,0,1:0:0:0:
408,148,589265,5,8,1:0:0:0:
388,56,589405,1,0,1:0:0:0:
80,108,589545,1,0,1:0:0:0:
32,16,589685,1,8,1:0:0:0:
256,36,589826,1,0,1:0:0:0:
31,247,589966,1,0,1:0:0:0:
233,224,590106,1,8,1:0:0:0:
436,206,590246,1,0,1:0:0:0:
104,188,590386,6,0,P|68:88|76:76,1,90,8|0,1:0|1:0,1:0:0:0:
324,64,590667,1,0,1:0:0:0:
48,36,590807,1,8,1:0:0:0:
128,108,590947,1,0,1:0:0:0:
40,184,591087,1,0,1:0:0:0:
336,264,591227,1,8,1:0:0:0:
320,144,591368,1,0,1:0:0:0:
108,64,591508,5,8,1:0:0:0:
368,36,591648,1,0,1:0:0:0:
96,152,591788,1,0,1:0:0:0:
128,276,591928,1,8,1:0:0:0:
368,340,592069,1,0,1:0:0:0:
100,328,592209,1,0,1:0:0:0:
132,208,592349,1,8,1:0:0:0:
252,136,592489,1,0,1:0:0:0:
492,136,592629,5,8,1:0:0:0:
480,40,592770,1,0,1:0:0:0:
256,32,592910,1,0,1:0:0:0:
48,64,593050,1,8,1:0:0:0:
64,168,593190,1,0,1:0:0:0:
336,272,593330,1,0,1:0:0:0:
68,336,593470,1,8,1:0:0:0:
88,228,593611,1,0,1:0:0:0:
388,152,593751,5,8,1:0:0:0:
452,64,593891,1,0,1:0:0:0:
176,32,594031,1,0,1:0:0:0:
104,144,594171,1,8,1:0:0:0:
140,252,594312,1,0,1:0:0:0:
384,280,594452,1,0,1:0:0:0:
136,328,594592,1,8,1:0:0:0:
368,228,594732,1,0,1:0:0:0:
64,180,594872,6,0,P|40:64|48:56,1,90,8|0,1:0|1:0,1:0:0:0:
244,188,595153,1,0,1:0:0:0:
464,132,595293,2,0,P|488:16|480:8,1,90,8|0,1:0|1:0,1:0:0:0:
256,40,595573,1,0,1:0:0:0:
22,106,595713,2,0,P|62:30|78:26,1,90,8|0,1:0|1:0,1:0:0:0:
400,92,595994,6,0,P|360:16|344:12,1,90,8|0,1:0|1:0,1:0:0:0:
80,56,596274,1,0,1:0:0:0:
364,96,596414,1,8,1:0:0:0:
100,208,596555,1,0,1:0:0:0:
320,188,596695,2,0,P|348:200|372:264,1,90,0|8,1:0|1:0,1:0:0:0:
124,328,596975,1,0,1:0:0:0:
444,272,597115,6,0,P|416:136|336:104,1,180,4|0,1:2|1:0,1:0:0:0:
64,164,597536,6,0,P|92:28|172:-4,1,180,4|0,1:2|1:0,1:0:0:0:
371,381,597956,2,0,P|159:9|230:402,1,1187.99996374512,4|0,0:2|0:0,0:0:0:0:
256,192,601601,12,0,612816,0:0:0:0:
