osu file format v14

[General]
AudioFilename: audio.mp3
AudioLeadIn: 0
PreviewTime: 160954
Countdown: 0
SampleSet: None
StackLeniency: 0.7
Mode: 0
LetterboxInBreaks: 0
WidescreenStoryboard: 0

[Editor]
Bookmarks: 8020,66796,154122,248824,266088,294773,340730,355730,386368,427219,457857,498708,539559,546635,573981,619950
DistanceSpacing: 1.5
BeatDivisor: 4
GridSize: 4
TimelineZoom: 2.6

[Metadata]
Title:Ghost of Perdition
TitleUnicode:Ghost of Perdition
Artist:Opeth
ArtistUnicode:Opeth
Creator:SacredSage
Version:Apparition of Eternal Damnation
Source:
Tags:
BeatmapID:1407742
BeatmapSetID:665134

[Difficulty]
HPDrainRate:5
CircleSize:4.4
OverallDifficulty:9
ApproachRate:9.6
SliderMultiplier:1.4
SliderTickRate:1

[Events]
//Background and Video events
0,0,"5788836-ghost-wallpaper.jpg",0,0
//Break Periods
2,437751,452751
2,546835,569604
//Storyboard Layer 0 (Background)
//Storyboard Layer 1 (Fail)
//Storyboard Layer 2 (Pass)
//Storyboard Layer 3 (Foreground)
//Storyboard Sound Samples

[TimingPoints]
8021,306.122448979592,6,1,0,70,1,0
21796,-66.6666666666667,6,1,0,70,0,0
22714,-100,6,1,0,70,0,0
36490,-66.6666666666667,6,1,0,70,0,0
37408,-100,6,1,0,70,0,0
51184,-66.6666666666667,6,1,0,70,0,0
52102,-100,6,1,0,70,0,0
65878,-66.6666666666667,6,1,0,70,0,0
66796,297.029702970297,6,2,0,40,1,0
66796,-133.333333333333,6,2,0,40,0,0
73924,-133.333333333333,6,3,0,40,0,0
79271,-100,6,3,0,60,0,0
81053,-100,6,1,0,60,0,1
96350,-66.6666666666667,6,3,0,60,0,0
97093,-133.333333333333,6,3,0,40,0,0
111350,-100,6,1,0,40,0,1
125607,-100,6,1,0,40,0,0
138974,-66.6666666666667,6,1,0,40,0,0
139865,-100,6,1,0,40,0,0
154122,-800,6,2,0,10,0,0
155904,-400,6,2,0,10,0,0
161251,-400,6,1,0,30,0,0
163033,-200,6,1,0,50,0,0
164815,333.333333333333,6,2,0,70,1,0
164815,-400,6,2,0,10,0,0
168825,333.333333333333,6,2,0,30,1,0
168825,-133.333333333333,6,2,0,30,0,0
200824,-100,6,2,0,30,0,0
229158,-200,6,2,0,30,0,0
232491,-100,6,2,0,30,0,0
232824,-200,6,2,0,30,0,0
244824,-800,6,2,0,30,0,0
248824,319.148936170213,6,1,0,70,1,0
250738,-100,6,3,0,70,0,1
263185,483.870967741935,6,1,0,70,1,0
266078,474.298300395257,4,1,0,70,1,0
266078,-80,4,1,0,70,0,0
267985,474.308300395257,4,1,0,70,1,0
267985,-80,4,1,0,70,0,0
273676,479.990476190477,4,1,0,100,1,0
285675,-83.3333333333333,4,1,0,100,0,0
286155,-71.4285714285714,4,1,0,100,0,0
287105,480,4,1,0,100,1,0
287105,-80,4,1,0,100,0,0
294773,319.148936170213,6,1,0,70,1,0
294773,-80,6,1,0,70,0,0
340730,312.5,6,1,0,70,1,0
341823,-66.6666666666667,6,1,0,70,0,0
348230,-66.6666666666667,6,1,0,70,0,1
349480,-66.6666666666667,6,3,0,70,0,1
351980,-66.6666666666667,6,1,0,70,0,0
355730,319.148936170213,4,1,0,50,1,0
355730,-83.3333333333333,4,1,0,50,0,0
386368,-83.3333333333333,4,3,0,50,0,0
387006,-83.3333333333333,4,1,0,50,0,0
387325,-83.3333333333333,4,3,0,50,0,0
387644,-83.3333333333333,4,1,0,50,0,0
388283,-83.3333333333333,4,3,0,50,0,0
392112,-83.3333333333333,4,1,0,50,0,0
392432,-83.3333333333333,4,3,0,50,0,0
392751,-83.3333333333333,4,1,0,50,0,0
393389,-83.3333333333333,4,3,0,50,0,0
397219,-83.3333333333333,4,1,0,50,0,0
397538,-83.3333333333333,4,3,0,50,0,0
397857,-83.3333333333333,4,1,0,50,0,0
398336,-83.3333333333333,4,3,0,50,0,0
402964,-83.3333333333333,4,1,0,50,0,0
403602,-83.3333333333333,4,3,0,50,0,0
417964,-100,4,1,0,50,0,0
427219,-100,4,2,0,50,0,0
435995,-100,4,3,0,50,0,0
455783,-100,4,1,0,50,0,0
456740,-100,4,3,0,50,0,0
457857,-80,4,1,0,50,0,0
539559,307.692307692308,7,1,0,70,1,0
539559,-66.6666666666667,7,1,0,70,0,1
541712,307.692307692308,4,1,0,70,1,1
545454,304.568527918782,4,1,0,100,1,1
546635,326.086956521739,6,1,0,70,1,0
546635,-100,6,1,0,70,0,0
572059,318.802387267905,6,1,0,70,1,0
576522,-100,6,3,0,70,0,0
577807,318.803000998916,6,3,0,70,1,0
610324,-80,6,3,0,70,0,0
619913,319.148936170213,6,1,0,70,1,0
623742,-80,6,1,0,70,0,0

[Colours]
Combo1 : 255,255,255
Combo2 : 255,0,0

[HitObjects]
392,116,8020,6,0,P|324:88|252:100,1,140
120,268,8480,2,0,P|188:296|260:284,1,140
313,177,8939,1,0,0:0:0:0:
300,192,9245,1,0,0:0:0:0:
287,207,9551,2,0,L|234:266,1,70
184,312,9857,6,0,P|112:256|112:184,1,140
120,64,10316,2,0,P|192:120|192:192,1,140
168,268,10776,1,0,0:0:0:0:
184,276,11082,1,0,0:0:0:0:
200,280,11388,2,0,P|272:264|292:248,1,70
376,212,11694,6,0,P|431:171|451:106,1,140
271,32,12153,2,0,P|295:96|359:120,1,140
488,120,12612,2,0,P|464:192|444:212,1,70
426,267,12918,1,0,0:0:0:0:
414,291,13072,1,0,0:0:0:0:
304,320,13225,1,0,0:0:0:0:
316,344,13379,1,0,0:0:0:0:
404,360,13531,6,0,P|416:312|396:244,1,70
336,168,13837,2,0,P|324:216|344:284,1,70
268,360,14143,1,0,0:0:0:0:
208,324,14296,1,0,0:0:0:0:
174,264,14449,1,0,0:0:0:0:
36,320,14602,1,0,0:0:0:0:
174,264,14755,2,0,L|244:216,1,70
240,88,15061,2,0,L|170:136,1,70
80,204,15367,6,0,P|32:260|28:328,2,140
200,140,16133,1,0,0:0:0:0:
360,104,16286,6,0,L|324:180,1,70
284,296,16592,1,0,0:0:0:0:
192,116,16745,2,0,L|212:216,1,70
236,328,17051,5,0,0:0:0:0:
236,328,17128,1,0,0:0:0:0:
236,328,17204,2,0,P|304:324|320:304,1,70
384,252,17510,1,0,0:0:0:0:
248,196,17663,2,0,P|180:200|164:220,1,70
100,272,17969,1,0,0:0:0:0:
44,180,18123,6,0,P|56:116|88:92,1,70
144,16,18429,1,0,0:0:0:0:
144,16,18582,2,0,P|208:28|232:60,1,70
312,112,18888,5,0,0:0:0:0:
344,123,18964,1,0,0:0:0:0:
377,115,19041,2,0,P|368:176|388:216,1,70
400,288,19347,1,0,0:0:0:0:
268,212,19500,1,0,0:0:0:0:
292,320,19653,6,0,L|304:372,2,46.6666666666667
268,212,19959,1,0,0:0:0:0:
227,155,20112,1,0,0:0:0:0:
152,204,20265,1,0,0:0:0:0:
111,147,20418,1,0,0:0:0:0:
112,308,20572,1,0,0:0:0:0:
48,180,20725,1,0,0:0:0:0:
212,276,20878,6,0,P|376:288|416:204,1,210
412,140,21490,1,0,0:0:0:0:
432,208,21643,1,0,0:0:0:0:
364,88,21796,6,0,B|264:36|264:36|232:156,1,210.000008010865
212,232,22255,2,0,B|186:326|186:326|86:274,1,210.000008010865
4,232,22714,6,0,P|64:116|116:96,1,140
228,56,23174,2,0,P|168:172|116:192,1,140
36,236,23633,1,0,0:0:0:0:
58,262,23939,1,0,0:0:0:0:
81,288,24245,2,0,P|148:300|188:296,1,70
292,288,24551,6,0,P|352:264|328:188,1,140
216,148,25010,2,0,P|207:83|267:58,1,140
412,124,25469,1,0,0:0:0:0:
403,158,25775,1,0,0:0:0:0:
395,192,26082,2,0,L|344:256,1,70
280,324,26388,6,0,P|224:344|136:320,1,140
107,166,26847,2,0,P|168:200|211:255,1,140
252,356,27306,2,0,L|344:336,1,70
440,308,27612,1,0,0:0:0:0:
264,272,27765,1,0,0:0:0:0:
440,236,27918,1,0,0:0:0:0:
288,340,28072,1,0,0:0:0:0:
440,164,28225,6,0,P|356:128|336:104,1,70
348,32,28531,2,0,P|432:68|452:92,1,70
352,160,28837,1,0,0:0:0:0:
248,36,28990,1,0,0:0:0:0:
188,216,29143,1,0,0:0:0:0:
304,96,29296,1,0,0:0:0:0:
356,240,29449,1,0,0:0:0:0:
200,96,29602,1,0,0:0:0:0:
208,292,29755,1,0,0:0:0:0:
344,164,29908,1,0,0:0:0:0:
96,224,30061,5,0,0:0:0:0:
96,224,30367,2,0,L|160:256,1,70
352,340,30674,2,0,P|292:276|292:244,1,70
272,144,30980,6,0,L|240:224,1,70
192,352,31286,1,0,0:0:0:0:
20,248,31439,2,0,L|108:256,1,70
316,264,31745,1,0,0:0:0:0:
316,264,31822,1,0,0:0:0:0:
316,264,31898,2,0,L|236:232,1,70
108,184,32204,1,0,0:0:0:0:
212,12,32357,2,0,L|204:100,1,70
192,248,32663,1,0,0:0:0:0:
320,140,32816,6,0,P|376:132|400:140,1,70
360,221,33123,1,0,0:0:0:0:
400,302,33276,2,0,P|344:310|320:302,1,70
249,275,33582,1,0,0:0:0:0:
168,324,33735,6,0,P|112:344|52:268,1,140
32,180,34194,2,0,P|96:196|128:192,1,70
208,176,34500,1,0,0:0:0:0:
288,288,34653,5,0,0:0:0:0:
408,184,34806,1,0,0:0:0:0:
224,212,34959,1,0,0:0:0:0:
424,260,35112,1,0,0:0:0:0:
264,136,35265,1,0,0:0:0:0:
376,316,35418,1,0,0:0:0:0:
340,148,35572,6,0,P|368:64|436:32,1,140
496,12,36031,2,0,P|468:96|400:128,1,140
308,180,36490,6,0,B|244:220|244:220|384:248,1,210.000008010865
484,272,36949,2,0,B|548:312|548:312|408:340,1,210.000008010865
304,344,37408,6,0,P|252:312|240:228,1,140
344,216,37867,2,0,P|333:148|276:110,1,140
140,96,38327,1,0,0:0:0:0:
149,129,38633,1,0,0:0:0:0:
159,163,38939,2,0,P|208:192|228:196,1,70
400,212,39245,6,0,P|332:288|280:296,1,140
340,76,39704,2,0,P|327:177|289:213,1,140
224,280,40163,1,0,0:0:0:0:
256,291,40469,1,0,0:0:0:0:
289,303,40776,2,0,L|356:268,1,70
472,200,41082,6,0,B|436:160|380:184|344:124,1,140
304,44,41541,2,0,P|240:60|228:136,1,140
236,220,42000,2,0,P|192:268|176:276,1,70
92,328,42306,1,0,0:0:0:0:
276,284,42459,1,0,0:0:0:0:
108,216,42612,2,0,P|56:176|52:140,1,70
28,60,42918,6,0,P|80:48|116:60,1,70
248,92,43225,1,0,0:0:0:0:
168,40,43378,1,0,0:0:0:0:
104,144,43531,1,0,0:0:0:0:
172,36,43684,1,0,0:0:0:0:
248,192,43837,5,0,0:0:0:0:
265,222,43913,1,0,0:0:0:0:
282,253,43990,1,0,0:0:0:0:
400,120,44143,1,0,0:0:0:0:
368,304,44296,1,0,0:0:0:0:
464,192,44449,1,0,0:0:0:0:
282,253,44602,1,0,0:0:0:0:
196,92,44755,6,0,P|150:129|136:156,1,70
96,256,45061,1,0,0:0:0:0:
208,196,45214,2,0,P|264:184|316:184,1,70
432,188,45521,1,0,0:0:0:0:
300,120,45674,2,0,P|244:108|180:116,1,70
64,124,45980,1,0,0:0:0:0:
188,40,46133,2,0,P|248:32|288:40,1,70
432,40,46439,5,0,0:0:0:0:
432,40,46515,1,0,0:0:0:0:
432,40,46592,2,0,P|432:100|428:120,1,70
352,308,46898,1,0,0:0:0:0:
352,308,47051,2,0,P|352:248|348:228,1,70
276,84,47357,1,0,0:0:0:0:
276,84,47510,2,0,P|276:144|272:164,1,70
216,292,47816,5,0,0:0:0:0:
172,132,47969,1,0,0:0:0:0:
56,251,48123,1,0,0:0:0:0:
216,292,48276,1,0,0:0:0:0:
114,192,48429,2,0,P|81:126|136:54,1,140
180,8,48888,1,0,0:0:0:0:
240,136,49041,6,0,L|264:180,2,46.6666666666667
364,40,49347,1,0,0:0:0:0:
329,47,49423,1,0,0:0:0:0:
295,54,49500,1,0,0:0:0:0:
440,120,49653,1,0,0:0:0:0:
288,156,49806,1,0,0:0:0:0:
408,204,49959,1,0,0:0:0:0:
256,240,50112,1,0,0:0:0:0:
365,303,50265,6,0,P|274:237|229:251,1,140
279,328,50725,1,0,0:0:0:0:
310,265,50878,1,0,0:0:0:0:
342,203,51031,1,0,0:0:0:0:
373,140,51184,6,0,B|404:84|444:52|444:52|280:56,1,210.000008010865
228,64,51643,2,0,B|168:84|141:161|141:161|262:168,1,210.000008010865
376,168,52102,6,0,P|344:252|256:276,1,140
136,216,52561,2,0,P|168:132|256:108,1,140
256,192,53021,1,0,0:0:0:0:
256,192,53327,1,0,0:0:0:0:
360,268,53633,1,0,0:0:0:0:
383,203,53786,1,0,0:0:0:0:
357,140,53939,6,0,L|192:112,1,140
68,176,54398,2,0,L|233:204,1,140
368,224,54857,1,0,0:0:0:0:
368,224,55163,1,0,0:0:0:0:
340,336,55469,1,0,0:0:0:0:
280,301,55622,1,0,0:0:0:0:
249,239,55776,6,0,P|216:188|124:168,1,140
49,326,56235,2,0,P|116:311|157:256,1,140
196,104,56694,2,0,L|272:140,1,70
276,296,57000,1,0,0:0:0:0:
360,140,57153,1,0,0:0:0:0:
220,228,57306,1,0,0:0:0:0:
304,72,57459,1,0,0:0:0:0:
276,296,57612,6,0,L|232:216,1,70
172,116,57918,2,0,P|140:101|105:98,1,70
64,232,58225,1,0,0:0:0:0:
260,80,58378,1,0,0:0:0:0:
136,304,58531,5,0,0:0:0:0:
272,188,58684,1,0,0:0:0:0:
304,175,58760,1,0,0:0:0:0:
337,163,58837,1,0,0:0:0:0:
232,288,58990,1,0,0:0:0:0:
424,208,59143,1,0,0:0:0:0:
216,296,59296,1,0,0:0:0:0:
424,320,59449,6,0,P|364:296|340:268,1,70
244,128,59755,1,0,0:0:0:0:
256,160,59908,2,0,P|248:208|208:236,1,70
136,344,60214,1,0,0:0:0:0:
164,328,60367,2,0,L|244:284,1,70
392,208,60674,1,0,0:0:0:0:
360,203,60827,2,0,L|269:190,1,70
68,184,61133,5,0,0:0:0:0:
78,216,61209,1,0,0:0:0:0:
105,237,61286,2,0,L|184:224,1,70
436,128,61592,1,0,0:0:0:0:
398,181,61745,2,0,L|319:167,1,70
80,68,62051,1,0,0:0:0:0:
117,121,62204,2,0,L|195:107,1,70
400,80,62510,1,0,0:0:0:0:
368,256,62663,1,0,0:0:0:0:
308,120,62816,1,0,0:0:0:0:
484,152,62969,1,0,0:0:0:0:
308,200,63123,6,0,P|236:236|216:312,1,140
368,336,63582,2,0,P|420:284|416:240,1,70
448,180,63888,1,0,0:0:0:0:
292,240,64041,1,0,0:0:0:0:
258,248,64117,1,0,0:0:0:0:
224,257,64194,1,0,0:0:0:0:
352,328,64347,1,0,0:0:0:0:
282,332,64500,1,0,0:0:0:0:
212,337,64653,1,0,0:0:0:0:
128,176,64806,1,0,0:0:0:0:
72,346,64959,6,0,B|84:248|224:304|228:160,1,210
248,84,65572,2,0,P|324:112|340:144,1,70
392,184,65878,6,0,P|456:224|504:232,2,105.000004005432
320,240,66337,2,0,P|330:314|355:356,2,105.000004005432
320,112,66796,5,0,0:0:0:0:
320,112,66944,1,0,0:0:0:0:
320,112,67093,1,0,0:0:0:0:
320,112,67241,2,0,L|256:80,1,52.5000020027161
176,128,67538,2,0,L|144:192,1,52.5000020027161
192,272,67835,1,0,0:0:0:0:
192,272,67984,2,0,L|256:304,1,52.5000020027161
300,328,68280,1,0,0:0:0:0:
376,160,68578,5,0,0:0:0:0:
376,160,68726,1,0,0:0:0:0:
376,160,68875,1,0,0:0:0:0:
376,160,69023,2,0,L|368:236,1,52.5000020027161
264,220,69320,2,0,L|298:288,1,52.5000020027161
392,316,69617,1,0,0:0:0:0:
392,316,69766,2,0,L|424:264,1,52.5000020027161
468,348,70063,1,0,0:0:0:0:
120,96,70360,5,0,0:0:0:0:
120,96,70508,1,0,0:0:0:0:
120,96,70657,1,0,0:0:0:0:
120,96,70805,2,0,P|168:92|188:100,1,52.5000020027161
228,168,71102,2,0,P|180:172|160:164,1,52.5000020027161
260,92,71399,1,0,0:0:0:0:
260,92,71548,2,0,P|308:88|328:96,1,52.5000020027161
388,176,71845,1,0,0:0:0:0:
388,176,72142,5,0,0:0:0:0:
268,240,72291,1,0,0:0:0:0:
396,172,72439,1,0,0:0:0:0:
152,128,72588,1,0,0:0:0:0:
140,124,72885,1,0,0:0:0:0:
128,120,73182,5,0,0:0:0:0:
304,152,73330,1,0,0:0:0:0:
188,288,73479,1,0,0:0:0:0:
128,120,73627,1,0,0:0:0:0:
128,120,73924,6,0,L|80:160,1,52.5000020027161
80,260,74221,2,0,L|128:220,1,52.5000020027161
200,156,74518,2,0,L|240:204,1,52.5000020027161
232,300,74815,2,0,L|280:260,1,52.5000020027161
348,192,75112,2,0,L|388:240,1,52.5000020027161
488,240,75409,2,0,L|448:192,1,52.5000020027161
388,120,75706,6,0,P|336:116|304:128,1,52.5000020027161
284,208,76003,1,0,0:0:0:0:
284,208,76152,2,0,P|257:209|232:203,1,52.5000020027161
216,99,76449,1,0,0:0:0:0:
216,99,76598,2,0,P|190:94|164:95,1,52.5000020027161
68,140,76895,2,0,L|48:208,2,52.5000020027161
96,40,77340,1,0,0:0:0:0:
169,115,77489,5,0,0:0:0:0:
169,115,77786,2,0,L|240:104,1,52.5000020027161
324,92,78083,1,0,0:0:0:0:
408,32,78231,1,0,0:0:0:0:
468,116,78380,2,0,P|488:192|464:272,1,157.500006008148
380,324,78974,1,0,0:0:0:0:
400,192,79122,1,0,0:0:0:0:
248,304,79271,6,0,P|176:336|104:308,1,140
12,172,79716,2,0,P|84:204|156:176,1,140
220,144,80088,1,0,0:0:0:0:
220,144,80162,2,0,P|260:168|280:192,1,70
496,72,80607,2,0,P|432:96|400:92,1,70
356,24,80904,1,0,0:0:0:0:
472,200,81053,6,0,P|436:268|376:280,1,140
256,224,81498,1,0,0:0:0:0:
388,192,81647,1,0,0:0:0:0:
280,100,81796,2,0,B|236:120|236:120|192:96|192:96|132:124,1,140
24,168,82241,2,0,P|20:236|40:264,1,70
140,312,82538,2,0,P|144:244|124:216,1,70
104,112,82835,5,0,0:0:0:0:
200,212,82984,1,0,0:0:0:0:
230,228,83058,1,0,0:0:0:0:
265,231,83132,1,0,0:0:0:0:
204,104,83281,1,0,0:0:0:0:
324,176,83429,1,0,0:0:0:0:
272,44,83578,1,0,0:0:0:0:
356,248,83726,6,0,L|388:316,2,70
296,112,84172,2,0,P|216:84|168:104,1,140
80,192,84617,6,0,P|92:256|112:272,1,70
160,344,84914,2,0,L|224:316,1,70
184,204,85211,2,0,L|247:232,1,70
380,284,85508,1,0,0:0:0:0:
460,220,85657,2,0,P|464:176|432:128,1,70
396,60,85954,2,0,L|316:84,1,70
188,124,86251,1,0,0:0:0:0:
324,168,86399,6,0,L|404:192,1,70
472,308,86696,1,0,0:0:0:0:
444,116,86845,2,0,P|360:88|332:92,1,70
244,104,87142,1,0,0:0:0:0:
412,208,87291,5,0,0:0:0:0:
191,256,87440,1,0,0:0:0:0:
342,87,87588,1,0,0:0:0:0:
319,313,87737,1,0,0:0:0:0:
205,116,87885,1,0,0:0:0:0:
412,208,88033,1,0,0:0:0:0:
204,188,88182,6,0,P|148:172|128:152,1,70
72,92,88479,1,0,0:0:0:0:
24,272,88627,1,0,0:0:0:0:
164,104,88776,1,0,0:0:0:0:
10,185,88924,2,0,P|80:204|111:283,1,140
192,360,89370,2,0,P|236:312|244:272,1,70
280,192,89667,1,0,0:0:0:0:
364,304,89815,5,0,0:0:0:0:
397,314,89889,1,0,0:0:0:0:
430,304,89963,1,0,0:0:0:0:
496,192,90112,1,0,0:0:0:0:
460,376,90261,1,0,0:0:0:0:
368,160,90409,1,0,0:0:0:0:
384,312,90558,1,0,0:0:0:0:
452,96,90706,1,0,0:0:0:0:
416,232,90855,6,0,L|316:244,1,70
216,252,91152,1,0,0:0:0:0:
296,148,91300,1,0,0:0:0:0:
128,112,91449,1,0,0:0:0:0:
196,98,91597,1,0,0:0:0:0:
264,84,91746,6,0,P|308:76|344:92,1,70
452,268,92043,2,0,L|432:184,1,70
300,224,92340,2,0,L|320:140,1,70
336,52,92637,5,0,0:0:0:0:
208,144,92786,2,0,P|176:192|172:236,1,70
304,136,93083,1,0,0:0:0:0:
432,228,93232,2,0,P|464:276|468:320,1,70
352,320,93528,6,0,P|308:352|288:352,2,70
432,228,93974,2,0,P|440:152|412:112,1,105
372,56,94271,1,8,0:0:0:0:
372,56,94419,2,0,P|312:88|228:64,1,140
164,16,94865,2,0,P|112:64|108:84,1,70
102,128,95161,1,0,0:0:0:0:
116,160,95236,1,0,0:0:0:0:
131,191,95310,5,0,0:0:0:0:
364,244,95459,1,0,0:0:0:0:
386,251,95756,1,0,0:0:0:0:
408,259,96053,1,0,0:0:0:0:
430,267,96350,5,0,0:0:0:0:
188,304,96498,1,0,0:0:0:0:
472,176,96647,1,0,0:0:0:0:
316,64,96796,2,0,B|272:112|272:112|312:156|312:156|312:220,1,157.500006008148
312,204,97093,5,0,0:0:0:0:
312,204,97241,1,0,0:0:0:0:
312,204,97390,1,0,0:0:0:0:
312,204,97538,2,0,L|272:244,1,52.5000020027161
200,180,97835,2,0,L|240:140,1,52.5000020027161
316,72,98132,1,0,0:0:0:0:
354,108,98281,2,0,L|396:148,1,52.5000020027161
428,180,98578,1,0,0:0:0:0:
416,274,98875,5,0,0:0:0:0:
365,266,99023,1,0,0:0:0:0:
321,293,99172,1,0,0:0:0:0:
286,332,99320,2,0,L|224:296,1,52.5000020027161
268,204,99617,2,0,L|222:177,1,52.5000020027161
171,173,99914,1,0,0:0:0:0:
125,198,100063,1,0,0:0:0:0:
94,239,100211,1,0,0:0:0:0:
99,290,100360,1,0,0:0:0:0:
308,296,100657,6,0,L|360:252,1,52.5000020027161
428,192,100954,1,0,0:0:0:0:
460,292,101102,2,0,P|392:284|376:264,1,52.5000020027161
332,224,101399,2,0,P|306:219|281:226,1,52.5000020027161
204,296,101696,1,0,0:0:0:0:
156,316,101844,1,0,0:0:0:0:
107,301,101993,1,0,0:0:0:0:
77,259,102141,1,0,0:0:0:0:
77,259,102439,5,0,0:0:0:0:
184,88,102588,1,0,0:0:0:0:
212,224,102736,1,0,0:0:0:0:
16,96,102885,2,0,P|36:32|56:16,1,52.5000020027161
184,0,103182,2,0,P|164:64|144:80,1,52.5000020027161
132,172,103479,5,0,0:0:0:0:
312,128,103627,1,0,0:0:0:0:
104,196,103776,1,0,0:0:0:0:
369,78,103924,1,0,0:0:0:0:
369,78,104221,6,0,P|384:152|380:168,1,52.5000020027161
320,212,104518,1,0,0:0:0:0:
320,212,104667,2,0,P|268:224|232:216,1,52.5000020027161
240,124,104964,1,0,0:0:0:0:
240,124,105113,2,0,P|188:112|152:120,1,52.5000020027161
88,140,105409,1,0,0:0:0:0:
180,192,105558,1,0,0:0:0:0:
76,232,105706,1,0,0:0:0:0:
100,128,105855,1,0,0:0:0:0:
144,312,106003,6,0,L|208:328,1,52.5000020027161
292,288,106300,1,0,0:0:0:0:
292,288,106449,2,0,L|352:308,1,52.5000020027161
432,252,106746,1,0,0:0:0:0:
432,252,106895,2,0,L|372:232,1,52.5000020027161
280,208,107192,1,0,0:0:0:0:
368,148,107340,1,0,0:0:0:0:
276,200,107489,1,0,0:0:0:0:
360,140,107637,1,0,0:0:0:0:
268,192,107786,5,0,0:0:0:0:
268,192,108083,2,0,L|184:156,1,52.5000020027161
124,132,108380,1,0,0:0:0:0:
208,68,108528,1,0,0:0:0:0:
236,274,108677,2,0,P|308:274|356:198,1,157.500006008148
372,104,109271,1,0,0:0:0:0:
436,188,109419,1,0,0:0:0:0:
396,284,109568,6,0,L|352:296,1,26.2500010013581
280,324,109716,1,0,0:0:0:0:
262,314,109790,1,0,0:0:0:0:
251,299,109864,1,0,0:0:0:0:
247,280,109938,1,0,0:0:0:0:
252,261,110013,6,0,L|264:228,1,26.2500010013581
296,156,110162,1,0,0:0:0:0:
278,136,110236,1,0,0:0:0:0:
254,126,110310,1,0,0:0:0:0:
228,126,110384,1,0,0:0:0:0:
205,138,110459,6,0,L|176:168,1,26.2500010013581
92,176,110607,2,0,L|116:200,1,26.2500010013581
176,232,110756,2,0,L|152:256,1,26.2500010013581
104,304,110904,5,0,0:0:0:0:
104,304,111350,6,0,P|173:337|240:308,1,140
292,196,111795,1,0,0:0:0:0:
167,248,111944,1,0,0:0:0:0:
200,110,112093,2,0,B|247:100|247:100|268:55|268:55|333:42,1,140
447,14,112538,2,0,P|490:66|490:101,1,70
438,199,112835,2,0,P|394:146|394:111,1,70
372,40,113132,5,0,0:0:0:0:
308,164,113281,1,0,0:0:0:0:
278,182,113355,1,0,0:0:0:0:
244,187,113429,1,0,0:0:0:0:
248,88,113578,1,0,0:0:0:0:
372,276,113726,1,0,0:0:0:0:
396,112,113875,1,0,0:0:0:0:
272,204,114023,2,0,B|208:244|160:176|88:240|152:312,1,210
199,333,114617,1,0,0:0:0:0:
268,329,114766,1,0,0:0:0:0:
323,288,114914,6,0,P|356:244|356:208,1,70
138,202,115211,2,0,P|160:252|192:270,1,70
352,124,115508,2,0,P|308:92|272:92,1,70
176,92,115805,5,0,0:0:0:0:
92,184,115953,1,0,0:0:0:0:
203,156,116102,1,0,0:0:0:0:
131,241,116250,1,0,0:0:0:0:
248,212,116399,1,0,0:0:0:0:
24,264,116547,1,0,0:0:0:0:
36,280,116622,1,0,0:0:0:0:
48,296,116696,6,0,P|112:328|128:328,2,70
72,108,117142,2,0,P|105:118|132:139,1,70
96,214,117439,1,0,0:0:0:0:
220,136,117588,6,0,P|276:116|312:124,2,70
96,214,118033,1,0,0:0:0:0:
225,283,118182,1,0,0:0:0:0:
220,136,118330,1,0,0:0:0:0:
354,214,118479,6,0,P|392:256|396:304,2,70
264,144,118924,1,0,0:0:0:0:
224,248,119073,2,0,P|168:280|112:264,1,70
152,160,119370,1,0,0:0:0:0:
260,336,119518,2,0,P|336:328|352:308,1,70
420,232,119815,1,0,0:0:0:0:
320,144,119964,6,0,P|244:152|228:168,1,70
236,156,120187,1,0,0:0:0:0:
224,168,120261,2,0,P|192:200|160:208,1,70
32,244,120558,1,0,0:0:0:0:
32,244,120706,2,0,P|58:278|97:294,1,70
120,196,121003,1,0,0:0:0:0:
172,292,121152,5,0,0:0:0:0:
203,306,121226,1,0,0:0:0:0:
238,304,121300,1,0,0:0:0:0:
268,286,121375,1,0,0:0:0:0:
291,261,121449,1,0,0:0:0:0:
324,249,121523,1,0,0:0:0:0:
358,251,121597,1,0,0:0:0:0:
389,268,121672,1,0,0:0:0:0:
423,262,121746,1,0,0:0:0:0:
450,240,121820,1,0,0:0:0:0:
464,208,121894,1,0,0:0:0:0:
460,174,121969,1,0,0:0:0:0:
441,145,122043,6,0,P|396:120|360:128,1,70
268,224,122340,2,0,P|313:249|349:241,1,70
272,132,122637,2,0,P|219:128|190:150,1,70
204,280,122934,5,0,0:0:0:0:
80,216,123083,2,0,P|56:176|64:132,1,70
200,28,123380,2,0,P|224:68|216:112,1,70
128,160,123677,1,0,0:0:0:0:
292,76,123825,5,0,0:0:0:0:
416,152,123974,2,0,L|440:248,1,70
328,216,124271,2,0,L|320:308,1,70
316,368,124568,1,0,0:0:0:0:
184,260,124716,5,0,0:0:0:0:
184,260,124791,1,0,0:0:0:0:
184,260,124865,1,0,0:0:0:0:
44,204,125013,1,0,0:0:0:0:
152,140,125162,1,0,0:0:0:0:
264,177,125310,2,0,P|320:184|344:156,1,70
416,116,125607,6,0,P|440:204|416:272,1,140
376,352,126053,2,0,P|304:360|224:328,1,140
148,288,126498,2,0,P|176:248|208:236,1,70
284,260,126796,2,0,P|256:300|224:312,1,70
84,336,127093,1,0,0:0:0:0:
212,244,127241,1,0,0:0:0:0:
44,248,127390,6,0,P|16:212|52:112,1,140
83,60,127835,2,0,P|111:96|75:196,1,140
28,272,128281,2,0,P|72:296|112:284,1,70
180,212,128578,2,0,P|214:213|242:234,1,70
312,320,128875,1,0,0:0:0:0:
368,116,129023,1,0,0:0:0:0:
272,212,129172,6,0,P|224:232|136:172,1,140
155,46,129617,2,0,P|209:88|216:156,1,140
200,336,130063,2,0,P|252:308|284:304,1,70
368,292,130360,1,0,0:0:0:0:
384,328,130508,1,0,0:0:0:0:
452,216,130657,1,0,0:0:0:0:
444,256,130805,1,0,0:0:0:0:
368,140,130954,5,0,0:0:0:0:
300,224,131102,1,0,0:0:0:0:
300,224,131251,2,0,P|264:248|232:184,1,105
224,200,131548,2,0,L|208:116,1,70
196,12,131845,6,0,P|144:28|120:60,1,70
80,120,132068,1,0,0:0:0:0:
80,120,132142,2,0,L|156:148,1,70
168,256,132439,2,0,L|92:228,1,70
240,176,132736,6,0,P|300:216|312:288,2,140
225,264,133479,1,0,0:0:0:0:
364,192,133627,2,0,P|412:192|448:208,1,70
408,296,133924,1,0,0:0:0:0:
288,216,134073,2,0,P|288:168|304:132,1,70
436,108,134370,5,0,0:0:0:0:
436,108,134444,1,0,0:0:0:0:
436,108,134518,2,0,P|388:108|352:92,1,70
392,4,134815,1,0,0:0:0:0:
512,84,134964,2,0,P|512:132|496:168,1,70
408,180,135261,1,0,0:0:0:0:
324,112,135409,6,0,P|272:108|244:124,1,70
200,192,135706,1,0,0:0:0:0:
143,269,135855,2,0,P|109:278|75:271,1,70
108,140,136152,5,0,0:0:0:0:
108,140,136226,1,0,0:0:0:0:
108,140,136300,2,0,P|192:108|252:124,1,140
336,168,136746,1,0,0:0:0:0:
420,244,136895,2,0,P|460:252|484:240,2,46.6666666666667
404,136,137192,5,0,0:0:0:0:
316,220,137340,2,0,L|304:296,1,70
248,128,137637,1,0,0:0:0:0:
416,228,137786,1,0,0:0:0:0:
324,68,137934,1,0,0:0:0:0:
300,224,138083,6,0,P|248:288|168:272,1,140
76,220,138528,1,0,0:0:0:0:
76,220,138677,2,0,L|128:160,1,70
188,96,138974,6,0,P|284:100|192:176,1,210.000008010865
196,264,139419,2,0,B|144:316|188:360|188:360|248:336|316:364,1,210.000008010865
384,372,139865,6,0,P|456:356|472:280,1,140
320,304,140310,2,0,P|248:288|232:212,1,140
440,224,140756,2,0,P|420:168|400:144,1,70
302,233,141053,2,0,P|246:253|222:273,1,70
408,152,141350,1,0,0:0:0:0:
232,264,141498,1,0,0:0:0:0:
316,144,141647,6,0,P|308:84|216:80,1,140
196,152,142093,2,0,P|131:137|119:72,1,140
224,20,142538,2,0,L|300:28,1,70
440,104,142835,2,0,L|364:112,1,70
236,124,143132,1,0,0:0:0:0:
424,196,143281,1,0,0:0:0:0:
264,216,143429,6,0,P|224:240|208:336,1,140
289,301,143875,2,0,P|313:341|409:357,1,140
374,275,144320,2,0,L|408:180,1,70
420,136,144617,1,0,0:0:0:0:
468,260,144766,1,0,0:0:0:0:
468,112,144914,1,0,0:0:0:0:
416,272,145063,1,0,0:0:0:0:
512,104,145211,6,0,P|496:64|464:48,1,70
380,32,145508,2,0,P|336:64|320:112,1,105
320,124,145805,2,0,P|296:184|264:200,1,70
220,252,146102,6,0,L|152:296,1,70
4,256,146399,2,0,L|72:212,1,70
192,40,146696,1,0,0:0:0:0:
28,136,146845,1,0,0:0:0:0:
244,128,146994,6,0,P|312:104|336:40,2,140
116,104,147736,1,0,0:0:0:0:
124,220,147885,2,0,P|168:244|188:240,1,70
280,176,148182,1,0,0:0:0:0:
376,256,148330,2,0,P|426:253|441:240,1,70
452,72,148627,5,0,0:0:0:0:
418,62,148701,1,0,0:0:0:0:
387,75,148776,2,0,P|344:104|304:108,1,70
220,40,149073,1,0,0:0:0:0:
344,176,149221,2,0,P|372:219|376:259,1,70
292,312,149518,1,0,0:0:0:0:
192,240,149667,2,0,P|163:196|159:156,1,70
244,104,149964,1,0,0:0:0:0:
340,172,150112,2,0,P|400:168|424:136,1,70
468,72,150409,1,0,0:0:0:0:
472,236,150558,6,0,P|424:276|336:264,1,140
340,172,151003,2,0,P|271:166|217:208,1,140
181,317,151449,1,0,0:0:0:0:
246,296,151597,1,0,0:0:0:0:
289,242,151746,1,0,0:0:0:0:
293,173,151894,1,0,0:0:0:0:
257,114,152043,1,0,0:0:0:0:
194,86,152191,1,0,0:0:0:0:
128,100,152340,6,0,L|60:136,2,70
232,64,152786,2,0,P|312:64|340:136,1,140
364,200,153231,1,0,0:0:0:0:
396,344,153380,1,0,0:0:0:0:
284,160,153528,1,0,0:0:0:0:
268,288,153677,1,0,0:0:0:0:
208,120,153825,1,0,0:0:0:0:
188,192,153974,1,0,0:0:0:0:
132,140,154122,6,0,B|88:144|88:144|60:176,1,87.5
60,264,155904,6,0,B|120:308|160:248|232:284,1,175
296,336,157687,5,0,0:0:0:0:
378,313,157984,1,0,0:0:0:0:
419,239,158281,1,0,0:0:0:0:
312,244,158578,5,0,0:0:0:0:
237,202,158875,1,0,0:0:0:0:
215,120,159172,1,0,0:0:0:0:
284,48,159469,6,0,L|324:48,1,35
428,52,160063,2,0,P|416:80|348:120,1,105
272,128,161251,6,0,B|224:172|256:224,1,105
288,284,163033,6,0,B|412:320|448:172,1,210
348,164,164815,6,0,B|272:132|188:188|188:188|80:188|120:56|184:60|192:104|252:76,1,411.25
256,72,168825,6,0,P|284:64|320:76,1,52.5000020027161
372,116,169158,1,0,0:0:0:0:
448,92,169325,1,0,0:0:0:0:
500,152,169491,2,0,P|508:196|496:224,1,52.5000020027161
436,240,169825,2,0,P|400:236|376:220,1,52.5000020027161
324,180,170158,1,0,0:0:0:0:
280,244,170325,2,0,P|254:217|246:190,1,52.5000020027161
228,128,170658,1,0,0:0:0:0:
188,60,170825,6,0,P|140:48|116:56,1,52.5000020027161
64,80,171158,1,0,0:0:0:0:
76,160,171325,2,0,P|124:172|148:164,1,52.5000020027161
200,140,171658,1,0,0:0:0:0:
268,184,171825,2,0,P|304:216|312:240,1,52.5000020027161
236,252,172158,1,0,0:0:0:0:
168,212,172325,2,0,P|136:216|112:240,1,52.5000020027161
72,288,172658,1,0,0:0:0:0:
140,328,172825,6,0,P|188:324|208:312,1,52.5000020027161
256,280,173158,1,0,0:0:0:0:
328,312,173325,2,0,P|380:308|392:256,1,105.000004005432
380,184,173825,2,0,P|376:144|384:128,1,52.5000020027161
424,68,174158,1,0,0:0:0:0:
356,108,174325,2,0,P|296:124|256:104,1,105.000004005432
204,52,174825,6,0,P|156:56|120:96,1,105.000004005432
96,172,175325,2,0,P|76:200|44:212,2,52.5000020027161
148,112,175825,2,0,P|184:112|252:168,1,105.000004005432
288,212,176325,2,0,P|328:232|348:232,2,52.5000020027161
216,176,176825,6,0,B|168:164|119:180|119:180|192:268|99:334,1,262.500010013581
73,252,177825,2,0,B|164:216|202:312|202:312|272:292|260:228,1,262.500010013581
264,164,178825,2,0,P|284:120|352:96,2,105.000004005432
220,316,179825,2,0,P|172:320|120:264,1,105.000004005432
0,380,180491,2,0,P|32:344|32:324,1,52.5000020027161
52,264,180825,1,0,0:0:0:0:
200,316,181158,2,0,P|248:312|272:252,1,105.000004005432
332,120,181825,6,0,P|380:112|400:120,2,52.5000020027161
264,164,182325,2,0,P|216:172|196:164,2,52.5000020027161
340,192,182825,2,0,P|384:216|392:236,1,52.5000020027161
420,284,183158,1,0,0:0:0:0:
476,228,183324,2,0,P|488:184|476:160,1,52.5000020027161
448,108,183658,1,0,0:0:0:0:
372,132,183824,2,0,P|320:136|288:124,1,52.5000020027161
288,64,184158,1,0,0:0:0:0:
252,136,184324,2,0,P|208:152|172:144,1,52.5000020027161
156,88,184658,1,0,0:0:0:0:
108,152,184824,5,0,0:0:0:0:
108,152,185158,2,0,P|148:184|192:184,1,52.5000020027161
216,148,185491,2,0,P|176:116|132:116,1,52.5000020027161
100,96,185824,1,0,0:0:0:0:
164,48,185991,2,0,P|228:36|252:40,1,52.5000020027161
264,96,186324,2,0,P|328:108|352:104,1,52.5000020027161
388,80,186658,1,0,0:0:0:0:
448,132,186824,6,0,P|456:176|448:200,1,52.5000020027161
412,248,187158,1,0,0:0:0:0:
348,204,187324,2,0,P|296:204|248:244,1,105.000004005432
320,277,187824,2,0,P|376:308|400:308,1,52.5000020027161
420,248,188158,1,0,0:0:0:0:
368,188,188324,2,0,P|360:124|392:88,1,105.000004005432
452,56,188824,6,0,P|424:24|384:16,1,52.5000020027161
336,12,189158,1,0,0:0:0:0:
284,72,189324,2,0,P|244:104|172:108,1,105.000004005432
124,72,189824,6,0,P|92:100|84:140,1,52.5000020027161
80,188,190158,1,0,0:0:0:0:
140,240,190324,2,0,P|172:280|176:352,1,105.000004005432
256,348,190824,6,0,P|312:324|280:256,1,105.000004005432
240,260,191324,2,0,P|250:211|298:198,1,105.000004005432
332,268,191824,2,0,P|380:255|390:206,1,105.000004005432
380,128,192324,2,0,P|384:92|428:60,2,52.5000020027161
396,204,192824,6,0,B|420:272|456:300|456:300|380:288|332:312,1,210.000008010865
208,340,193824,2,0,P|260:292|176:216,1,210.000008010865
36,280,194824,2,0,B|16:200|100:180|100:180|184:264|280:164,1,315.000012016297
258,184,196158,1,0,0:0:0:0:
258,184,196491,1,0,0:0:0:0:
316,132,196658,1,0,0:0:0:0:
368,188,196824,6,0,L|380:244,1,52.5000020027161
392,316,197158,2,0,P|316:336|272:304,1,105.000004005432
188,212,197824,2,0,P|236:164|296:176,1,105.000004005432
312,232,198324,2,0,P|362:224|393:183,1,105.000004005432
416,108,198824,2,0,B|352:72|352:72|284:92,1,105.000004005432
256,128,199324,2,0,B|320:164|320:164|388:144,1,105.000004005432
420,116,199824,2,0,P|452:192|424:248,1,105.000004005432
376,180,200324,2,0,P|324:208|296:204,2,52.5000020027161
436,128,200824,6,0,P|424:88|376:64,1,70
340,40,201158,1,0,0:0:0:0:
284,80,201324,1,0,0:0:0:0:
288,152,201491,2,0,P|280:196|240:228,1,70
212,264,201824,2,0,P|168:256|136:216,1,70
92,196,202158,1,0,0:0:0:0:
160,208,202324,2,0,P|216:212|240:192,1,70
292,184,202658,1,0,0:0:0:0:
320,248,202824,6,0,P|360:280|404:284,1,70
384,216,203158,1,0,0:0:0:0:
324,180,203324,2,0,P|252:204|228:260,1,140
292,292,203824,2,0,P|344:264|356:232,1,70
312,196,204158,1,0,0:0:0:0:
284,132,204324,2,0,P|336:72|424:68,1,140
432,120,204824,6,0,P|472:112|496:84,1,70
472,24,205158,1,0,0:0:0:0:
404,48,205324,2,0,P|384:104|416:188,1,140
440,240,205824,2,0,P|388:264|352:260,1,70
304,260,206158,1,0,0:0:0:0:
364,224,206324,2,0,P|424:184|432:112,1,140
392,64,206824,6,0,P|328:88|272:152,1,140
220,176,207324,2,0,P|169:128|145:63,1,140
204,24,207824,2,0,L|272:44,2,70
92,28,208324,2,0,L|24:8,2,70
192,60,208824,6,0,B|236:104|221:155|221:155|115:119|73:230,1,280
172,239,209824,2,0,B|232:264|260:340|260:340|300:280|300:280|304:348|368:340,1,280
424,232,210824,1,0,0:0:0:0:
308,312,211158,2,0,P|212:288|304:184,1,280
272,249,212158,1,0,0:0:0:0:
272,249,212491,1,0,0:0:0:0:
212,284,212658,1,0,0:0:0:0:
152,248,212824,2,0,L|196:184,1,70
232,132,213158,2,0,P|308:104|380:136,1,140
140,48,213824,6,0,P|108:76|88:168,1,140
132,316,214324,2,0,P|127:273|175:192,1,140
252,84,214824,2,0,P|238:124|269:213,1,140
340,292,215324,2,0,P|335:249|383:168,1,140
476,120,215824,5,0,0:0:0:0:
415,86,215990,1,0,0:0:0:0:
346,91,216157,1,0,0:0:0:0:
290,131,216323,1,0,0:0:0:0:
264,195,216491,1,0,0:0:0:0:
216,243,216657,1,0,0:0:0:0:
148,236,216824,6,0,P|92:208|92:176,1,70
104,104,217158,2,0,P|160:132|160:164,1,70
176,236,217491,2,0,P|212:268|256:268,1,70
320,216,217824,2,0,P|353:226|376:251,1,70
424,348,218158,1,0,0:0:0:0:
492,268,218324,2,0,P|512:224|508:200,1,70
488,100,218657,1,0,0:0:0:0:
400,45,218824,6,0,P|332:57|308:93,1,70
260,133,219158,1,0,0:0:0:0:
364,153,219324,2,0,P|392:217|316:273,1,140
284,268,219824,2,0,P|208:260|188:280,1,70
156,284,220158,1,0,0:0:0:0:
112,232,220324,2,0,P|160:168|224:172,1,140
280,188,220824,6,0,P|336:196|368:164,2,70
216,156,221324,2,0,P|136:168|112:228,1,140
116,284,221824,2,0,P|168:300|204:276,1,70
244,264,222158,1,0,0:0:0:0:
276,200,222324,2,0,P|316:136|384:128,1,140
444,136,222824,6,0,P|456:188|452:224,1,70
400,248,223158,2,0,P|388:196|392:160,1,70
468,284,223491,1,0,0:0:0:0:
412,328,223658,1,0,0:0:0:0:
352,292,223824,6,0,P|317:287|282:288,1,70
248,352,224158,2,0,P|282:356|317:355,1,70
200,288,224491,1,0,0:0:0:0:
148,336,224658,1,0,0:0:0:0:
280,312,224824,6,0,P|352:292|256:184,1,280
300,242,225824,2,0,B|232:244|156:228|156:228|84:290|5:206,1,280
92,161,226824,1,0,0:0:0:0:
268,48,227158,2,0,B|232:120|232:120|340:220|224:308,1,280
244,290,228158,1,0,0:0:0:0:
244,290,228491,5,0,0:0:0:0:
332,252,228658,1,0,0:0:0:0:
452,352,228824,2,0,P|404:320|384:276,1,70
353,170,229158,2,0,B|325:216|325:216|344:263,1,105
344,264,229824,6,0,B|196:256|276:72|276:72|84:152|84:152|160:204,1,525
184,236,232491,6,0,P|216:272|220:304,1,70
228,364,232824,2,0,B|268:368|268:368|296:336,2,70
72,212,233824,6,0,P|116:248|188:208,1,140
208,152,234658,1,0,0:0:0:0:
240,88,234824,2,0,P|280:76|328:96,1,70
416,104,235324,5,0,0:0:0:0:
413,121,235407,1,0,0:0:0:0:
410,138,235491,1,0,0:0:0:0:
396,224,235658,2,0,L|356:264,1,52.5
284,320,236241,2,0,B|256:296|256:296|220:332|184:296|184:296|108:352|40:292|76:236,1,297.5
124,140,237824,5,0,0:0:0:0:
124,140,237991,2,0,L|196:192,1,87.5
280,236,238574,2,0,B|376:188|308:104|308:104|212:144|160:76|160:76|84:48|26:103|34:173|63:197,1,542.5
296,248,241824,6,0,P|244:236|236:160,1,140
247,146,242574,1,0,0:0:0:0:
251,129,242657,1,0,0:0:0:0:
248,112,242741,1,0,0:0:0:0:
237,99,242824,2,0,P|200:76|176:220,1,280
182,147,244491,1,0,0:0:0:0:
182,147,244824,6,0,B|284:168|284:168|259:263,1,201.25
258,270,248824,5,0,0:0:0:0:
258,270,250579,5,0,0:0:0:0:
108,96,250738,2,0,P|160:88|192:100,1,70
324,176,251058,2,0,P|272:184|240:172,1,70
164,120,251377,1,0,0:0:0:0:
260,40,251536,1,0,0:0:0:0:
352,232,251696,1,0,0:0:0:0:
428,136,251855,2,0,P|484:168|492:188,1,70
492,280,252175,2,0,P|460:336|440:344,1,70
332,336,252494,1,0,0:0:0:0:
292,192,252653,6,0,P|248:172|160:176,1,70
112,240,252972,2,0,P|156:260|244:256,1,70
140,160,253292,2,0,P|91:158|12:196,1,70
0,240,253611,1,0,0:0:0:0:
92,80,253770,2,0,L|176:64,1,70
372,156,254089,2,0,L|288:172,1,70
88,200,254409,1,0,0:0:0:0:
184,296,254568,6,0,P|228:292|260:256,1,70
340,148,254887,2,0,P|369:129|403:129,1,70
392,240,255206,1,0,0:0:0:0:
260,96,255366,1,0,0:0:0:0:
312,336,255526,1,0,0:0:0:0:
188,304,255685,2,0,P|132:272|116:232,1,70
136,168,256004,2,0,P|192:200|208:240,1,70
232,316,256324,1,0,0:0:0:0:
328,236,256483,6,0,P|388:216|432:228,1,70
336,328,256802,2,0,P|276:348|232:336,1,70
124,276,257121,1,0,0:0:0:0:
292,240,257281,1,0,0:0:0:0:
72,72,257441,1,0,0:0:0:0:
152,136,257600,2,0,P|216:148|260:124,1,70
315,212,257919,2,0,P|316:247|304:280,1,70
260,372,258238,1,0,0:0:0:0:
376,304,258398,6,0,P|432:288|464:296,1,70
352,224,258717,2,0,P|296:208|264:216,1,70
272,300,259036,1,0,0:0:0:0:
440,228,259196,1,0,0:0:0:0:
264,28,259355,1,0,0:0:0:0:
332,96,259515,2,0,P|380:92|416:64,1,70
480,24,259834,2,0,P|494:55|494:90,1,70
480,184,260153,1,0,0:0:0:0:
380,120,260313,6,0,P|316:112|276:132,1,70
132,264,260632,2,0,P|196:272|236:252,1,70
344,160,260951,1,0,0:0:0:0:
436,280,261111,1,0,0:0:0:0:
84,120,261270,1,0,0:0:0:0:
168,212,261430,2,0,P|232:192|248:160,1,70
332,80,261749,2,0,P|350:109|351:143,1,70
304,280,262068,1,0,0:0:0:0:
232,192,262228,6,0,P|176:184|140:196,1,70
40,288,262547,2,0,P|96:296|132:284,1,70
300,236,262866,1,0,0:0:0:0:
196,336,263026,1,0,0:0:0:0:
72,96,263185,5,0,0:0:0:0:
448,200,263668,1,0,0:0:0:0:
56,248,264152,1,0,0:0:0:0:
296,24,264636,1,0,0:0:0:0:
168,372,265120,1,0,0:0:0:0:
224,52,265604,2,0,B|208:96|208:96|236:140,1,87.5
280,200,266078,6,0,P|344:216|392:176,2,116.666666666667
216,128,266868,1,0,0:0:0:0:
192,240,267026,2,0,P|168:280|128:288,1,58.3333333333333
100,176,267342,1,0,0:0:0:0:
276,196,267500,1,0,0:0:0:0:
276,196,267658,2,0,L|360:240,1,58.3333333333333
448,264,267985,6,0,P|504:240|508:180,1,116.666666666667
492,84,268459,2,0,P|440:84|408:96,1,87.5
383,113,268775,1,0,0:0:0:0:
356,123,268854,1,0,0:0:0:0:
327,125,268933,2,0,P|279:119|238:63,1,116.666666666667
314,51,269408,2,0,L|256:160,1,116.666666666667
224,252,269882,6,0,P|243:294|308:268,1,116.666666666667
345,192,270356,2,0,P|396:175|424:221,1,116.666666666667
416,332,270831,2,0,P|340:324|288:272,1,116.666666666667
236,224,271305,1,0,0:0:0:0:
352,156,271463,1,0,0:0:0:0:
236,89,271621,1,0,0:0:0:0:
236,224,271779,6,0,P|160:248|96:224,1,116.666666666667
188,144,272254,2,0,P|264:120|328:144,1,116.666666666667
320,140,272649,1,0,0:0:0:0:
336,160,272728,2,0,B|372:208|372:208|376:268,1,116.666666666667
272,344,273202,2,0,B|236:296|236:296|232:236,1,116.666666666667
228,132,273676,6,0,P|168:88|128:96,1,93.3333333333333
36,116,274155,1,0,0:0:0:0:
156,179,274315,1,0,0:0:0:0:
108,40,274475,1,0,0:0:0:0:
78,229,274635,2,0,L|112:268,1,46.6666666666667
196,344,274955,1,0,0:0:0:0:
280,240,275115,1,0,0:0:0:0:
280,240,275275,2,0,L|336:304,1,46.6666666666667
376,348,275595,6,0,P|432:336|452:276,1,93.3333333333333
452,200,276075,2,0,L|408:148,1,46.6666666666667
350,108,276395,1,0,0:0:0:0:
350,108,276474,1,0,0:0:0:0:
350,108,276555,2,0,P|304:116|276:156,1,93.3333333333333
248,272,277035,2,0,L|180:320,1,46.6666666666667
120,348,277355,5,0,0:0:0:0:
48,208,277515,2,0,P|68:160|88:144,1,46.6666666666667
148,72,277835,1,0,0:0:0:0:
182,225,277995,2,0,P|228:248|288:228,1,93.3333333333333
388,196,278475,2,0,P|460:192|492:228,1,93.3333333333333
424,276,278955,1,0,0:0:0:0:
334,302,279115,1,0,0:0:0:0:
244,328,279275,1,0,0:0:0:0:
154,354,279435,6,0,P|76:344|60:296,1,93.3333333333333
12,184,279915,2,0,P|90:194|106:242,1,93.3333333333333
148,300,280395,1,0,0:0:0:0:
148,300,280875,2,0,L|188:252,1,46.6666666666667
248,172,281195,1,0,0:0:0:0:
332,248,281355,6,0,P|376:244|424:196,1,93.3333333333333
464,120,281835,1,0,0:0:0:0:
456,252,281995,2,0,L|448:324,1,46.6666666666667
336,172,282315,1,0,0:0:0:0:
372,344,282475,1,0,0:0:0:0:
232,244,282635,1,0,0:0:0:0:
132,348,282795,1,0,0:0:0:0:
72,232,282955,2,0,L|44:184,1,46.6666666666667
8,104,283275,6,0,P|64:92|104:104,1,93.3333333333333
204,168,283755,2,0,P|260:160|292:128,1,93.3333333333333
336,48,284235,2,0,B|384:64|384:64|408:116,1,93.3333333333333
416,236,284715,2,0,L|380:280,1,46.6666666666667
328,192,285035,1,0,0:0:0:0:
264,276,285195,6,0,P|216:308|180:308,1,93.3333333333333
193,217,285675,2,0,P|161:169|161:117,1,111.999996582031
249,144,286155,2,0,P|297:112|368:112,1,130.666662679037
328,198,286635,2,0,L|348:264,2,65.3333313395183
304,104,287105,5,0,0:0:0:0:
286,88,287185,1,0,0:0:0:0:
265,78,287265,1,0,0:0:0:0:
242,76,287345,1,0,0:0:0:0:
220,81,287425,1,0,0:0:0:0:
200,93,287505,1,0,0:0:0:0:
185,111,287585,2,0,L|162:137,5,29.1666666666667
256,184,288065,5,0,0:0:0:0:
270,202,288145,1,0,0:0:0:0:
288,216,288225,1,0,0:0:0:0:
310,225,288305,1,0,0:0:0:0:
333,227,288385,1,0,0:0:0:0:
356,224,288465,1,0,0:0:0:0:
377,215,288545,2,0,L|412:192,5,29.1666666666667
340,304,289025,6,0,L|328:336,5,29.1666666666667
420,280,289505,2,0,L|436:316,5,29.1666666666667
384,204,289985,5,0,0:0:0:0:
338,195,290065,1,0,0:0:0:0:
291,197,290145,1,0,0:0:0:0:
246,208,290225,1,0,0:0:0:0:
200,217,290305,1,0,0:0:0:0:
154,215,290385,1,0,0:0:0:0:
108,205,290465,1,0,0:0:0:0:
67,184,290545,1,0,0:0:0:0:
47,142,290625,1,0,0:0:0:0:
56,98,290705,1,0,0:0:0:0:
90,67,290785,1,0,0:0:0:0:
136,63,290865,1,0,0:0:0:0:
175,87,290945,6,0,L|216:120,1,29.1666666666667
280,168,291105,1,0,0:0:0:0:
314,174,291185,1,0,0:0:0:0:
346,163,291265,1,0,0:0:0:0:
370,138,291345,1,0,0:0:0:0:
379,105,291425,6,0,L|424:128,1,29.1666666666667
512,176,291585,1,0,0:0:0:0:
511,222,291665,1,0,0:0:0:0:
491,263,291745,1,0,0:0:0:0:
455,292,291825,1,0,0:0:0:0:
410,303,291905,6,0,L|364:280,1,29.1666666666667
292,244,292065,1,0,0:0:0:0:
241,230,292145,1,0,0:0:0:0:
190,239,292225,1,0,0:0:0:0:
147,269,292305,1,0,0:0:0:0:
121,314,292385,6,0,L|80:276,1,29.1666666666667
40,224,292545,1,0,0:0:0:0:
55,174,292625,1,0,0:0:0:0:
91,137,292705,1,0,0:0:0:0:
141,122,292785,1,0,0:0:0:0:
192,131,292865,5,0,0:0:0:0:
304,196,293025,1,0,0:0:0:0:
324,207,293105,1,0,0:0:0:0:
344,219,293185,1,0,0:0:0:0:
392,60,293345,1,0,0:0:0:0:
452,208,293505,1,0,0:0:0:0:
433,222,293585,1,0,0:0:0:0:
415,237,293665,1,0,0:0:0:0:
348,148,293825,1,0,0:0:0:0:
380,336,293985,1,0,0:0:0:0:
360,323,294065,1,0,0:0:0:0:
340,311,294145,1,0,0:0:0:0:
424,208,294305,1,0,0:0:0:0:
248,328,294465,1,0,0:0:0:0:
440,196,294625,1,0,0:0:0:0:
264,280,294773,6,0,P|212:272|180:160,1,175
368,84,295251,1,0,0:0:0:0:
368,84,295411,2,0,L|304:160,1,87.5
188,280,295730,2,0,P|120:244|104:144,1,175
404,268,296368,1,0,0:0:0:0:
404,268,296687,6,0,P|340:284|256:216,1,175
236,80,297166,1,0,0:0:0:0:
188,208,297326,2,0,P|192:280|212:304,1,87.5
336,336,297645,2,0,L|424:324,1,87.5
288,240,297964,2,0,L|201:251,1,87.5
336,144,298283,2,0,L|424:132,1,87.5
288,48,298602,6,0,B|200:16|200:16|152:100,1,175
100,228,299081,1,0,0:0:0:0:
244,188,299241,2,0,P|328:184|359:199,1,87.5
412,331,299560,2,0,B|364:299|320:327|320:327|288:247,1,175
256,136,300038,1,0,0:0:0:0:
360,84,300198,2,0,L|282:124,1,87.5
152,180,300517,6,0,P|120:236|124:260,1,87.5
144,368,300836,1,0,0:0:0:0:
16,288,300996,2,0,P|-8:188|32:128,1,175
148,56,301475,1,0,0:0:0:0:
80,212,301634,2,0,P|136:232|184:228,1,87.5
324,180,301953,1,0,0:0:0:0:
268,328,302113,1,0,0:0:0:0:
425,303,302273,1,0,0:0:0:0:
268,268,302432,6,0,P|224:248|232:136,1,175
324,48,302911,1,0,0:0:0:0:
220,128,303070,2,0,P|160:132|112:116,1,87.5
12,68,303390,2,0,B|16:168|16:168|84:192|100:228,1,175
164,304,303868,1,0,0:0:0:0:
252,204,304028,2,0,P|316:192|368:204,1,87.5
236,276,304347,6,0,P|172:288|120:276,1,87.5
24,256,304666,1,0,0:0:0:0:
112,160,304826,1,0,0:0:0:0:
220,236,304985,2,0,P|268:232|312:208,1,87.5
412,144,305304,2,0,P|440:192|412:272,1,87.5
356,324,305624,1,0,0:0:0:0:
344,192,305783,1,0,0:0:0:0:
252,288,305943,1,0,0:0:0:0:
380,256,306102,1,0,0:0:0:0:
256,216,306262,6,0,P|200:184|176:72,1,175
280,4,306741,1,0,0:0:0:0:
408,20,306900,2,0,P|416:68|392:120,1,87.5
352,224,307219,1,0,0:0:0:0:
352,224,307538,2,0,P|272:204|256:184,1,87.5
240,76,307858,2,0,P|320:96|336:116,1,87.5
416,192,308177,5,0,0:0:0:0:
445,224,308256,1,0,0:0:0:0:
474,257,308336,1,0,0:0:0:0:
252,172,308496,1,0,0:0:0:0:
346,266,308655,1,0,0:0:0:0:
375,298,308734,1,0,0:0:0:0:
404,331,308814,1,0,0:0:0:0:
352,156,308975,1,0,0:0:0:0:
244,304,309134,5,0,0:0:0:0:
132,152,309294,1,0,0:0:0:0:
188,336,309453,1,0,0:0:0:0:
184,116,309613,1,0,0:0:0:0:
128,356,309773,1,0,0:0:0:0:
248,88,309932,1,0,0:0:0:0:
72,368,310092,6,0,P|20:304|36:204,1,175
100,108,310570,1,0,0:0:0:0:
188,204,310730,2,0,P|264:176|280:136,1,87.5
324,56,311049,2,0,L|432:76,1,87.5
308,152,311368,2,0,L|200:132,1,87.5
118,216,311687,2,0,L|226:236,1,87.5
396,276,312007,6,0,P|360:212|436:160,1,175
492,272,312485,1,0,0:0:0:0:
384,348,312645,2,0,P|332:336|292:288,1,87.5
240,200,312964,1,0,0:0:0:0:
240,200,313283,2,0,P|320:180|344:152,1,87.5
396,68,313602,1,0,0:0:0:0:
424,196,313762,1,0,0:0:0:0:
413,238,313841,1,0,0:0:0:0:
392,276,313921,6,0,L|272:288,1,87.5
172,292,314241,1,0,0:0:0:0:
284,220,314400,2,0,P|269:157|226:175,1,87.5
128,176,314719,1,0,0:0:0:0:
232,92,314879,2,0,P|324:108|356:140,1,87.5
432,164,315198,1,0,0:0:0:0:
264,180,315358,1,0,0:0:0:0:
384,236,315517,2,0,P|452:196|464:152,1,87.5
512,72,315836,6,0,B|428:32|428:32|320:64,1,175
228,108,316315,1,0,0:0:0:0:
348,164,316475,2,0,P|392:200|400:264,1,87.5
412,360,316794,2,0,P|328:336|268:224,2,175
160,284,317751,6,0,P|216:264|236:152,1,175
196,36,318230,1,0,0:0:0:0:
316,92,318390,2,0,P|388:92|416:64,1,87.5
504,8,318709,2,0,P|528:104|480:184,1,175
408,264,319187,1,0,0:0:0:0:
328,160,319347,2,0,P|308:116|360:84,1,87.5
460,96,319666,6,0,L|408:276,1,175
312,348,320145,1,0,0:0:0:0:
188,300,320304,2,0,P|160:240|180:188,1,87.5
184,92,320624,1,0,0:0:0:0:
184,92,320943,2,0,P|264:100|320:136,1,87.5
344,212,321262,2,0,P|264:204|208:168,1,87.5
132,168,321581,5,0,0:0:0:0:
44,268,321741,2,0,P|36:332|60:376,1,87.5
174,352,322060,2,0,P|182:288|158:244,1,87.5
100,160,322379,1,0,0:0:0:0:
216,216,322538,2,0,B|268:244|304:292|304:292|336:208,1,175
364,112,323017,2,0,L|334:214,1,87.5
304,324,323336,1,0,0:0:0:0:
381,236,323496,6,0,P|290:205|228:236,1,131.25
240,228,323815,1,0,0:0:0:0:
132,304,323975,1,0,0:0:0:0:
132,304,324294,6,0,P|104:236|108:192,1,87.5
284,116,324613,2,0,P|312:184|308:228,1,87.5
188,168,324932,2,0,P|160:100|164:56,1,87.5
272,16,325251,1,0,0:0:0:0:
388,80,325411,6,0,P|408:148|340:240,1,175
240,296,325890,1,0,0:0:0:0:
328,200,326049,2,0,P|356:144|344:100,1,87.5
256,32,326368,1,0,0:0:0:0:
256,32,326687,2,0,P|168:60|132:100,1,87.5
56,116,327007,1,0,0:0:0:0:
232,108,327166,1,0,0:0:0:0:
120,180,327326,6,0,B|160:216|160:216|280:192,1,175
408,168,327804,1,0,0:0:0:0:
464,288,327964,2,0,P|376:308|332:296,1,87.5
248,296,328283,1,0,0:0:0:0:
248,296,328602,1,0,0:0:0:0:
148,212,328762,1,0,0:0:0:0:
224,316,328921,1,0,0:0:0:0:
280,196,329081,1,0,0:0:0:0:
376,284,329241,6,0,P|448:236|428:148,1,175
356,52,329719,1,0,0:0:0:0:
356,52,329879,2,0,L|256:104,1,87.5
156,140,330198,2,0,L|112:232,1,87.5
248,200,330517,2,0,L|248:296,1,87.5
364,224,330836,2,0,L|408:320,1,87.5
472,192,331155,6,0,P|436:144|316:136,1,175
204,172,331634,1,0,0:0:0:0:
328,216,331794,1,0,0:0:0:0:
224,280,331953,1,0,0:0:0:0:
104,224,332113,1,0,0:0:0:0:
315,374,332432,1,0,0:0:0:0:
340,116,332751,1,0,0:0:0:0:
88,48,333070,6,0,P|220:48|224:84,1,175
252,180,333549,1,0,0:0:0:0:
344,276,333709,2,0,P|400:216|388:172,1,87.5
412,88,334028,1,0,0:0:0:0:
228,276,334347,1,0,0:0:0:0:
416,80,334666,1,0,0:0:0:0:
220,280,334985,6,0,P|156:300|76:220,1,175
72,104,335464,1,0,0:0:0:0:
188,168,335624,2,0,P|252:180|292:148,1,87.5
364,80,335943,1,0,0:0:0:0:
364,80,336262,2,0,L|408:200,1,87.5
372,332,336581,2,0,L|328:212,1,87.5
300,124,336900,6,0,B|240:88|240:88|136:96,1,175
8,132,337379,1,0,0:0:0:0:
136,152,337538,1,0,0:0:0:0:
54,252,337698,1,0,0:0:0:0:
182,274,337858,2,0,P|256:244|280:176,1,87.5
316,120,338177,1,0,0:0:0:0:
428,188,338336,1,0,0:0:0:0:
456,60,338496,1,0,0:0:0:0:
376,204,338655,1,0,0:0:0:0:
332,80,338815,6,0,P|260:60|212:68,1,87.5
76,100,339134,1,0,0:0:0:0:
76,100,339294,2,0,P|148:120|196:112,1,87.5
376,184,339613,1,0,0:0:0:0:
376,184,339773,2,0,P|304:204|256:196,1,87.5
160,200,340092,1,0,0:0:0:0:
100,259,340251,1,0,0:0:0:0:
119,340,340411,1,0,0:0:0:0:
199,367,340570,1,0,0:0:0:0:
263,314,340730,5,0,0:0:0:0:
172,172,340886,1,0,0:0:0:0:
137,165,340964,1,0,0:0:0:0:
103,158,341042,1,0,0:0:0:0:
80,308,341198,1,0,0:0:0:0:
276,220,341355,2,0,P|364:228|396:244,1,70
392,344,341667,1,0,0:0:0:0:
376,188,341823,6,0,B|352:136|352:136|304:128,1,105.000004005432
136,196,342136,2,0,B|160:248|160:248|208:256,1,105.000004005432
364,268,342448,1,0,0:0:0:0:
116,72,342605,5,0,0:0:0:0:
248,160,342761,1,0,0:0:0:0:
300,157,342839,1,0,0:0:0:0:
346,133,342917,1,0,0:0:0:0:
248,256,343073,1,0,0:0:0:0:
432,152,343230,1,0,0:0:0:0:
236,264,343386,1,0,0:0:0:0:
320,48,343542,1,0,0:0:0:0:
176,204,343698,6,0,L|92:296,1,105.000004005432
336,204,344011,2,0,L|420:296,1,105.000004005432
256,88,344323,1,0,0:0:0:0:
280,336,344480,6,0,L|212:328,1,52.5000020027161
40,316,344636,2,0,L|108:308,1,52.5000020027161
320,272,344792,2,0,L|252:264,1,52.5000020027161
80,252,344948,2,0,L|148:244,1,52.5000020027161
360,208,345105,1,0,0:0:0:0:
148,244,345261,1,0,0:0:0:0:
420,352,345417,1,0,0:0:0:0:
148,152,345573,6,0,P|216:172|276:156,1,105.000004005432
360,60,345886,2,0,P|292:40|232:56,1,105.000004005432
92,128,346198,1,0,0:0:0:0:
300,180,346355,6,0,L|360:192,1,52.5000020027161
512,220,346511,1,0,0:0:0:0:
498,269,346589,1,0,0:0:0:0:
452,292,346667,2,0,L|396:292,1,52.5000020027161
228,288,346823,1,0,0:0:0:0:
416,204,346980,1,0,0:0:0:0:
316,169,347136,1,0,0:0:0:0:
217,135,347292,1,0,0:0:0:0:
117,100,347448,6,0,B|64:128|64:128|64:180,1,105.000004005432
200,300,347761,2,0,B|253:272|253:272|253:220,1,105.000004005432
252,48,348073,1,0,0:0:0:0:
400,148,348230,5,0,0:0:0:0:
435,184,348308,1,0,0:0:0:0:
434,235,348386,1,0,0:0:0:0:
396,269,348464,1,0,0:0:0:0:
345,265,348542,1,0,0:0:0:0:
296,247,348620,1,0,0:0:0:0:
244,241,348698,1,0,0:0:0:0:
192,247,348776,1,0,0:0:0:0:
142,264,348855,5,0,0:0:0:0:
91,267,348933,1,0,0:0:0:0:
50,236,349011,1,0,0:0:0:0:
40,185,349089,1,0,0:0:0:0:
65,140,349167,1,0,0:0:0:0:
115,127,349245,1,0,0:0:0:0:
167,136,349323,1,0,0:0:0:0:
209,167,349401,1,0,0:0:0:0:
256,184,349479,5,0,0:0:0:0:
308,169,349557,1,0,0:0:0:0:
342,130,349636,1,0,0:0:0:0:
383,99,349714,1,0,0:0:0:0:
435,100,349792,1,0,0:0:0:0:
474,134,349870,1,0,0:0:0:0:
485,184,349948,1,0,0:0:0:0:
461,230,350026,1,0,0:0:0:0:
414,251,350105,5,0,0:0:0:0:
369,274,350183,1,0,0:0:0:0:
359,323,350261,1,0,0:0:0:0:
393,361,350339,1,0,0:0:0:0:
443,357,350417,6,0,P|472:324|476:300,1,52.5000020027161
404,176,350573,1,0,0:0:0:0:
404,176,350651,1,0,0:0:0:0:
404,176,350730,6,0,P|344:188|328:196,1,52.5000020027161
240,288,350886,1,0,0:0:0:0:
240,288,350964,1,0,0:0:0:0:
240,288,351042,6,0,L|192:240,1,52.5000020027161
144,72,351198,2,0,L|192:120,1,52.5000020027161
304,236,351355,1,0,0:0:0:0:
354,236,351433,1,0,0:0:0:0:
389,199,351511,6,0,P|404:168|400:140,1,52.5000020027161
364,32,351667,1,0,0:0:0:0:
313,31,351745,1,0,0:0:0:0:
278,68,351823,6,0,P|263:99|267:127,1,52.5000020027161
264,232,351980,6,0,B|253:296|253:296|192:280|185:362|120:340,1,210.000008010865
36,224,352448,2,0,B|100:204|112:152|112:152|196:252,1,210.000008010865
256,312,352917,2,0,P|356:308|336:208,1,210.000008010865
124,92,353542,1,0,0:0:0:0:
124,92,353855,6,0,L|236:104,1,105.000004005432
424,120,354167,1,0,0:0:0:0:
100,196,354323,1,0,0:0:0:0:
372,36,354480,1,0,0:0:0:0:
184,292,354636,1,0,0:0:0:0:
272,40,354792,1,0,0:0:0:0:
307,138,354948,1,0,0:0:0:0:
204,119,355105,5,0,0:0:0:0:
456,152,355261,1,0,0:0:0:0:
268,328,355417,1,0,0:0:0:0:
352,40,355573,1,0,0:0:0:0:
264,192,355730,6,0,P|204:212|116:148,1,167.999994873047
72,28,356208,1,0,0:0:0:0:
205,118,356368,1,0,0:0:0:0:
76,176,356527,2,0,B|32:216|32:216|32:264,1,83.9999974365235
108,364,356847,2,0,B|152:324|152:324|152:276,1,83.9999974365235
152,156,357166,1,0,0:0:0:0:
280,236,357325,1,0,0:0:0:0:
200,356,357485,1,0,0:0:0:0:
116,240,357644,1,2,0:0:0:0:
256,260,357804,1,2,0:0:0:0:
148,356,357964,1,0,0:0:0:0:
164,216,358123,6,0,P|220:160|320:160,1,167.999994873047
440,204,358602,1,0,0:0:0:0:
372,328,358761,1,0,0:0:0:0:
261,243,358921,1,0,0:0:0:0:
460,36,359240,1,0,0:0:0:0:
460,36,359559,6,0,L|448:136,1,83.9999974365235
318,195,359878,2,0,L|308:112,1,83.9999974365235
420,20,360198,1,0,0:0:0:0:
280,40,360357,2,0,P|224:48|180:80,1,83.9999974365235
112,172,360676,2,0,P|168:164|212:132,1,83.9999974365235
308,68,360995,1,0,0:0:0:0:
432,140,361155,2,0,P|444:192|436:240,1,83.9999974365235
344,328,361474,2,0,P|292:340|244:332,1,83.9999974365235
120,312,361793,1,0,0:0:0:0:
256,260,361953,6,0,P|296:212|204:204,1,167.999994873047
88,228,362432,2,0,L|188:188,1,83.9999974365235
352,120,362751,1,0,0:0:0:0:
216,160,362910,1,0,0:0:0:0:
356,200,363070,2,0,P|424:180|448:156,1,83.9999974365235
488,40,363389,6,0,P|488:96|500:176,1,83.9999974365235
348,112,363708,2,0,P|384:192|416:224,1,83.9999974365235
464,304,364027,1,0,0:0:0:0:
336,236,364187,2,0,B|284:208|284:208|224:236,1,83.9999974365235
144,304,364506,1,0,0:0:0:0:
144,304,364825,5,0,0:0:0:0:
68,184,364985,1,0,0:0:0:0:
152,300,365144,1,0,0:0:0:0:
92,172,365304,1,0,0:0:0:0:
160,296,365464,2,0,P|216:320|268:320,1,83.9999974365235
380,328,365783,6,0,P|448:248|408:160,1,167.999994873047
360,72,366261,2,0,L|276:63,1,83.9999974365235
270,228,366581,2,0,L|354:237,1,83.9999974365235
252,136,366900,2,0,P|192:176|172:208,1,83.9999974365235
108,304,367219,5,0,0:0:0:0:
248,292,367378,1,0,0:0:0:0:
104,276,367538,1,0,0:0:0:0:
240,316,367698,1,0,0:0:0:0:
116,244,367857,1,0,0:0:0:0:
240,172,368017,1,0,0:0:0:0:
240,172,368336,6,0,P|308:196|384:132,1,167.999994873047
424,8,368815,1,0,0:0:0:0:
468,144,368974,1,0,0:0:0:0:
328,112,369134,1,0,0:0:0:0:
464,70,369293,1,0,0:0:0:0:
328,112,369453,1,0,0:0:0:0:
436,208,369612,2,0,P|424:272|280:284,1,167.999994873047
200,272,370091,1,0,0:0:0:0:
344,221,370251,1,0,0:0:0:0:
228,136,370410,2,0,P|164:136|112:160,1,83.9999974365235
29,302,370730,2,0,P|20:261|24:220,1,83.9999974365235
52,52,371049,5,0,0:0:0:0:
168,172,371208,1,0,0:0:0:0:
24,84,371368,1,0,0:0:0:0:
140,204,371527,1,0,0:0:0:0:
0,128,371687,1,0,0:0:0:0:
164,84,371847,2,0,P|212:80|252:96,1,83.9999974365235
380,192,372166,2,0,P|419:204|461:199,1,83.9999974365235
404,40,372485,1,0,0:0:0:0:
292,152,372644,2,0,P|288:212|304:256,1,83.9999974365235
404,364,372964,1,0,0:0:0:0:
256,284,373123,1,0,0:0:0:0:
412,216,373283,1,0,0:0:0:0:
276,316,373442,6,0,P|208:348|120:296,1,167.999994873047
32,176,373921,1,0,0:0:0:0:
206,254,374081,1,0,0:0:0:0:
96,128,374240,2,0,L|192:160,1,83.9999974365235
80,292,374559,2,0,L|-16:260,1,83.9999974365235
16,96,374878,5,0,0:0:0:0:
48,260,375038,1,0,0:0:0:0:
64,92,375198,1,0,0:0:0:0:
88,256,375357,1,0,0:0:0:0:
112,88,375517,1,0,0:0:0:0:
245,192,375676,1,0,0:0:0:0:
245,192,375995,6,0,P|332:208|400:160,1,167.999994873047
472,16,376474,2,0,P|388:8|364:20,1,83.9999974365235
232,60,376793,1,0,0:0:0:0:
336,192,376953,1,0,0:0:0:0:
232,324,377112,1,0,0:0:0:0:
394,265,377272,6,0,P|429:180|374:108,1,167.999994873047
256,20,377751,2,0,P|253:84|259:113,1,83.9999974365235
276,272,378070,1,0,0:0:0:0:
144,168,378230,1,0,0:0:0:0:
300,105,378389,2,0,P|352:144|368:180,1,83.9999974365235
416,320,378708,5,0,0:0:0:0:
360,160,378868,1,0,0:0:0:0:
424,340,379027,1,0,0:0:0:0:
352,140,379187,1,0,0:0:0:0:
280,340,379347,1,0,0:0:0:0:
360,120,379507,1,0,0:0:0:0:
360,120,379825,6,0,P|300:68|208:76,1,167.999994873047
64,144,380304,2,0,P|100:176|144:184,1,83.9999974365235
304,188,380623,1,0,0:0:0:0:
204,324,380783,2,0,P|160:372|116:380,1,83.9999974365235
0,288,381102,2,0,P|44:240|144:224,1,167.999994873047
304,268,381581,2,0,P|380:264|416:240,1,83.9999974365235
468,112,381900,1,0,0:0:0:0:
504,276,382059,1,0,0:0:0:0:
392,148,382219,2,0,P|328:120|288:120,1,83.9999974365235
148,124,382538,5,0,0:0:0:0:
304,184,382698,1,0,0:0:0:0:
144,140,382857,1,0,0:0:0:0:
308,172,383017,1,0,0:0:0:0:
192,284,383176,1,0,0:0:0:0:
248,56,383336,1,0,0:0:0:0:
248,56,383655,6,0,B|336:72|336:72|396:152,1,167.999994873047
472,280,384134,2,0,P|440:320|360:312,1,83.9999974365235
240,320,384453,1,0,0:0:0:0:
396,256,384612,1,0,0:0:0:0:
263,153,384772,1,0,0:0:0:0:
332,308,384932,2,0,P|292:220|332:140,1,167.999994873047
404,36,385410,2,0,L|304:56,1,83.9999974365235
156,84,385730,1,0,0:0:0:0:
316,128,385889,1,0,0:0:0:0:
156,176,386049,2,0,L|256:196,1,83.9999974365235
404,212,386368,5,0,0:0:0:0:
394,252,386447,1,0,0:0:0:0:
365,281,386527,1,0,0:0:0:0:
324,290,386607,1,0,0:0:0:0:
285,276,386687,1,0,0:0:0:0:
275,316,386766,1,0,0:0:0:0:
246,345,386846,1,0,0:0:0:0:
205,354,386926,1,0,0:0:0:0:
166,340,387006,6,0,P|112:296|72:292,1,83.9999974365235
12,368,387325,1,0,0:0:0:0:
12,368,387405,1,0,0:0:0:0:
12,368,387485,1,0,0:0:0:0:
40,204,387644,2,0,P|84:156|112:148,1,83.9999974365235
268,176,387964,2,0,P|224:224|196:232,1,83.9999974365235
48,280,388283,6,0,L|104:284,1,41.9999987182618
192,312,388442,2,0,L|136:308,1,41.9999987182618
60,352,388602,2,0,L|116:356,1,41.9999987182618
184,360,388761,1,0,0:0:0:0:
224,367,388840,1,0,0:0:0:0:
263,352,388920,5,0,0:0:0:0:
289,319,389000,1,0,0:0:0:0:
294,278,389080,1,0,0:0:0:0:
278,240,389159,1,0,0:0:0:0:
244,216,389240,1,0,0:0:0:0:
204,203,389319,1,0,0:0:0:0:
164,212,389400,1,0,0:0:0:0:
123,221,389479,1,0,0:0:0:0:
88,200,389559,5,0,0:0:0:0:
75,161,389639,1,0,0:0:0:0:
93,124,389719,1,0,0:0:0:0:
132,110,389798,1,0,0:0:0:0:
174,108,389878,1,0,0:0:0:0:
215,118,389958,1,0,0:0:0:0:
250,140,390038,1,0,0:0:0:0:
283,165,390117,1,0,0:0:0:0:
324,172,390197,5,0,0:0:0:0:
364,159,390277,1,0,0:0:0:0:
392,129,390357,1,0,0:0:0:0:
404,89,390437,1,0,0:0:0:0:
442,104,390516,1,0,0:0:0:0:
472,136,390596,1,0,0:0:0:0:
476,177,390676,1,0,0:0:0:0:
462,216,390756,1,0,0:0:0:0:
431,243,390836,5,0,0:0:0:0:
392,259,390915,1,0,0:0:0:0:
351,266,390995,1,0,0:0:0:0:
309,264,391075,1,0,0:0:0:0:
268,253,391155,2,0,L|224:236,3,41.9999987182618
197,211,391473,5,0,0:0:0:0:
189,170,391553,1,0,0:0:0:0:
207,134,391633,1,0,0:0:0:0:
244,116,391713,1,0,0:0:0:0:
284,124,391793,5,0,0:0:0:0:
324,133,391872,1,0,0:0:0:0:
361,115,391952,1,0,0:0:0:0:
379,79,392032,1,0,0:0:0:0:
371,38,392112,6,0,P|328:16|288:20,1,83.9999974365235
136,76,392432,1,0,0:0:0:0:
136,76,392511,1,0,0:0:0:0:
136,76,392591,1,0,0:0:0:0:
296,124,392751,2,0,P|328:184|328:216,1,83.9999974365235
196,300,393070,2,0,P|164:240|164:208,1,83.9999974365235
176,56,393389,6,0,L|168:108,1,41.9999987182618
100,148,393549,2,0,L|108:96,1,41.9999987182618
52,44,393708,2,0,L|44:96,1,41.9999987182618
32,168,393868,1,0,0:0:0:0:
21,208,393947,1,0,0:0:0:0:
35,246,394027,5,0,0:0:0:0:
68,271,394107,1,0,0:0:0:0:
110,272,394187,1,0,0:0:0:0:
144,249,394267,1,0,0:0:0:0:
181,229,394346,1,0,0:0:0:0:
221,218,394426,1,0,0:0:0:0:
263,225,394506,1,0,0:0:0:0:
302,247,394586,1,0,0:0:0:0:
339,274,394665,5,0,0:0:0:0:
382,253,394745,1,0,0:0:0:0:
420,262,394825,1,0,0:0:0:0:
452,283,394904,1,0,0:0:0:0:
455,324,394984,1,0,0:0:0:0:
432,357,395064,1,0,0:0:0:0:
392,368,395144,1,0,0:0:0:0:
354,352,395223,1,0,0:0:0:0:
335,315,395304,5,0,0:0:0:0:
322,276,395383,1,0,0:0:0:0:
324,234,395463,1,0,0:0:0:0:
335,193,395543,1,0,0:0:0:0:
340,152,395623,1,0,0:0:0:0:
325,113,395702,1,0,0:0:0:0:
295,83,395783,1,0,0:0:0:0:
255,73,395862,1,0,0:0:0:0:
215,84,395942,5,0,0:0:0:0:
186,114,396022,1,0,0:0:0:0:
176,154,396102,1,0,0:0:0:0:
157,191,396181,1,0,0:0:0:0:
124,217,396261,2,0,L|84:240,3,41.9999987182618
52,260,396580,5,0,0:0:0:0:
37,298,396660,1,0,0:0:0:0:
47,338,396740,1,0,0:0:0:0:
78,366,396820,1,0,0:0:0:0:
119,370,396899,1,0,0:0:0:0:
155,350,396979,1,0,0:0:0:0:
173,312,397059,1,0,0:0:0:0:
201,284,397138,1,0,0:0:0:0:
237,258,397219,6,0,P|296:249|327:264,1,83.9999974365235
468,331,397538,1,0,0:0:0:0:
468,331,397618,1,0,0:0:0:0:
468,331,397698,1,0,0:0:0:0:
300,323,397857,6,0,P|243:289|230:265,1,83.9999974365235
217,107,398176,1,0,0:0:0:0:
432,248,398336,1,0,0:0:0:0:
432,248,398416,1,0,0:0:0:0:
432,248,398495,5,0,0:0:0:0:
413,285,398574,1,0,0:0:0:0:
377,305,398654,1,0,0:0:0:0:
336,303,398734,1,0,0:0:0:0:
304,277,398815,1,0,0:0:0:0:
271,251,398894,1,0,0:0:0:0:
229,249,398974,1,0,0:0:0:0:
193,270,399054,1,0,0:0:0:0:
175,307,399133,5,0,0:0:0:0:
143,333,399213,1,0,0:0:0:0:
102,342,399293,1,0,0:0:0:0:
61,333,399373,1,0,0:0:0:0:
29,306,399452,1,0,0:0:0:0:
13,268,399532,1,0,0:0:0:0:
14,226,399612,1,0,0:0:0:0:
34,190,399692,1,0,0:0:0:0:
68,166,399772,5,0,0:0:0:0:
107,152,399851,1,0,0:0:0:0:
147,159,399931,1,0,0:0:0:0:
179,187,400011,1,0,0:0:0:0:
192,226,400091,1,0,0:0:0:0:
205,265,400170,1,0,0:0:0:0:
236,292,400250,1,0,0:0:0:0:
276,300,400330,1,0,0:0:0:0:
316,286,400410,5,0,0:0:0:0:
346,258,400489,1,0,0:0:0:0:
357,218,400569,1,0,0:0:0:0:
345,178,400649,1,0,0:0:0:0:
314,150,400729,1,0,0:0:0:0:
274,142,400808,1,0,0:0:0:0:
235,156,400888,1,0,0:0:0:0:
209,189,400968,1,0,0:0:0:0:
204,232,401049,5,0,0:0:0:0:
173,260,401128,1,0,0:0:0:0:
132,267,401208,1,0,0:0:0:0:
95,250,401288,1,0,0:0:0:0:
72,215,401368,2,0,L|56:166,3,41.9999987182618
55,133,401686,5,0,0:0:0:0:
74,97,401766,1,0,0:0:0:0:
110,76,401846,1,0,0:0:0:0:
151,79,401926,1,0,0:0:0:0:
185,103,402006,2,0,L|211:149,3,41.9999987182618
227,176,402325,6,0,P|271:217|319:221,1,83.9999974365235
416,108,402644,1,0,0:0:0:0:
416,108,402724,1,0,0:0:0:0:
416,108,402804,1,0,0:0:0:0:
256,52,402964,6,0,P|196:48|172:52,1,83.9999974365235
64,180,403283,2,0,P|105:184|147:180,1,83.9999974365235
188,175,403521,1,0,0:0:0:0:
226,157,403601,5,0,0:0:0:0:
254,126,403681,1,0,0:0:0:0:
270,87,403761,1,0,0:0:0:0:
281,48,403840,1,0,0:0:0:0:
311,19,403920,1,0,0:0:0:0:
352,10,404000,1,0,0:0:0:0:
391,23,404080,1,0,0:0:0:0:
419,54,404159,1,0,0:0:0:0:
426,94,404239,5,0,0:0:0:0:
412,133,404320,1,0,0:0:0:0:
402,173,404399,1,0,0:0:0:0:
415,213,404479,1,0,0:0:0:0:
448,238,404559,1,0,0:0:0:0:
489,241,404639,1,0,0:0:0:0:
461,273,404718,1,0,0:0:0:0:
425,294,404798,1,0,0:0:0:0:
385,304,404878,5,0,0:0:0:0:
343,301,404958,1,0,0:0:0:0:
304,286,405037,1,0,0:0:0:0:
272,259,405117,1,0,0:0:0:0:
249,224,405198,1,0,0:0:0:0:
214,203,405277,1,0,0:0:0:0:
172,205,405357,1,0,0:0:0:0:
140,231,405437,1,0,0:0:0:0:
128,270,405517,5,0,0:0:0:0:
107,305,405596,1,0,0:0:0:0:
67,315,405676,1,0,0:0:0:0:
32,295,405756,1,0,0:0:0:0:
20,256,405836,1,0,0:0:0:0:
40,219,405916,1,0,0:0:0:0:
72,193,405995,1,0,0:0:0:0:
109,173,406075,1,0,0:0:0:0:
149,161,406155,5,0,0:0:0:0:
191,156,406235,1,0,0:0:0:0:
233,159,406314,1,0,0:0:0:0:
273,169,406394,1,0,0:0:0:0:
311,187,406474,2,0,L|352:212,3,41.9999987182618
420,248,406793,6,0,L|404:292,1,41.9999987182618
472,176,406953,2,0,L|488:220,1,41.9999987182618
396,136,407112,2,0,L|380:180,1,41.9999987182618
456,60,407272,2,0,L|472:104,1,41.9999987182618
372,32,407432,1,0,0:0:0:0:
60,156,407751,5,0,0:0:0:0:
60,156,407831,1,0,0:0:0:0:
60,156,407910,1,0,0:0:0:0:
280,320,408708,6,0,L|344:308,1,41.9999987182618
368,240,408868,2,0,L|304:252,1,41.9999987182618
260,196,409027,2,0,L|324:184,1,41.9999987182618
384,172,409187,1,0,0:0:0:0:
424,163,409266,1,0,0:0:0:0:
452,133,409346,5,0,0:0:0:0:
458,92,409426,1,0,0:0:0:0:
439,56,409506,1,0,0:0:0:0:
403,37,409585,1,0,0:0:0:0:
362,42,409665,1,0,0:0:0:0:
332,71,409745,1,0,0:0:0:0:
304,102,409824,1,0,0:0:0:0:
266,119,409904,1,0,0:0:0:0:
224,121,409984,5,0,0:0:0:0:
185,106,410065,1,0,0:0:0:0:
144,101,410144,1,0,0:0:0:0:
109,122,410224,1,0,0:0:0:0:
95,161,410304,1,0,0:0:0:0:
107,200,410384,1,0,0:0:0:0:
142,223,410464,1,0,0:0:0:0:
184,222,410543,1,0,0:0:0:0:
225,219,410623,5,0,0:0:0:0:
265,230,410703,1,0,0:0:0:0:
296,259,410783,1,0,0:0:0:0:
318,294,410862,1,0,0:0:0:0:
349,322,410941,1,0,0:0:0:0:
389,333,411021,1,0,0:0:0:0:
429,322,411101,1,0,0:0:0:0:
460,294,411181,1,0,0:0:0:0:
473,255,411260,5,0,0:0:0:0:
466,214,411340,1,0,0:0:0:0:
440,181,411420,1,0,0:0:0:0:
401,165,411500,1,0,0:0:0:0:
360,170,411581,6,0,L|316:188,1,41.9999987182618
244,220,411740,2,0,L|184:248,1,41.9999987182618
128,268,411900,5,0,0:0:0:0:
86,268,411979,1,0,0:0:0:0:
54,243,412059,1,0,0:0:0:0:
44,203,412139,1,0,0:0:0:0:
61,166,412219,1,0,0:0:0:0:
92,137,412298,1,0,0:0:0:0:
123,109,412378,1,0,0:0:0:0:
154,81,412458,1,0,0:0:0:0:
185,53,412538,1,0,0:0:0:0:
404,308,412857,5,0,0:0:0:0:
435,279,412937,1,0,0:0:0:0:
466,251,413017,1,0,0:0:0:0:
152,56,413655,5,0,0:0:0:0:
316,84,413815,2,0,L|348:132,1,41.9999987182618
384,192,413974,1,0,0:0:0:0:
402,229,414053,1,0,0:0:0:0:
394,269,414133,1,0,0:0:0:0:
363,296,414213,1,0,0:0:0:0:
321,299,414293,1,0,0:0:0:0:
287,276,414373,1,0,0:0:0:0:
256,249,414452,5,0,0:0:0:0:
215,246,414532,1,0,0:0:0:0:
179,267,414612,1,0,0:0:0:0:
148,294,414691,1,0,0:0:0:0:
107,299,414771,1,0,0:0:0:0:
70,280,414851,1,0,0:0:0:0:
49,244,414931,1,0,0:0:0:0:
52,203,415010,1,0,0:0:0:0:
78,170,415090,5,0,0:0:0:0:
117,157,415171,1,0,0:0:0:0:
159,158,415250,1,0,0:0:0:0:
200,166,415330,1,0,0:0:0:0:
241,174,415410,1,0,0:0:0:0:
283,175,415490,1,0,0:0:0:0:
323,162,415569,1,0,0:0:0:0:
356,136,415650,1,0,0:0:0:0:
360,95,415730,2,0,L|316:64,1,41.9999987182618
256,28,415889,5,0,0:0:0:0:
214,26,415968,1,0,0:0:0:0:
172,24,416048,1,0,0:0:0:0:
316,112,416208,1,0,0:0:0:0:
68,98,416368,1,0,0:0:0:0:
428,204,416527,1,0,0:0:0:0:
180,190,416687,1,0,0:0:0:0:
344,116,416847,1,0,0:0:0:0:
232,32,417007,1,0,0:0:0:0:
300,288,417166,1,0,0:0:0:0:
152,104,417325,6,0,P|92:140|88:200,1,125.999996154785
92,216,417644,1,0,0:0:0:0:
380,272,417804,1,0,0:0:0:0:
196,192,417964,6,0,B|133:161|133:161|48:180,1,140
16,268,418442,1,0,0:0:0:0:
104,328,418602,2,0,P|164:308|180:288,1,70
232,220,418921,2,0,P|272:200|364:232,1,140
424,308,419400,1,0,0:0:0:0:
358,226,419559,6,0,P|332:184|372:104,1,140
464,36,420038,1,0,0:0:0:0:
504,144,420198,2,0,P|512:208|500:244,1,70
405,191,420517,2,0,P|368:168|264:194,1,140
184,256,420995,1,0,0:0:0:0:
72,300,421155,2,0,P|48:264|48:228,1,70
120,128,421474,2,0,P|144:164|144:200,1,70
32,168,421793,2,0,P|20:126|31:92,1,70
88,8,422112,6,0,P|176:20|216:64,1,140
268,168,422591,1,0,0:0:0:0:
148,128,422751,2,0,P|112:144|88:196,1,70
80,324,423070,2,0,P|152:328|208:288,1,140
205,290,423708,2,0,L|288:320,1,70
216,176,424027,2,0,L|280:234,1,70
288,88,424347,2,0,L|324:167,1,70
360,252,424666,6,0,B|384:312|384:312|284:316,1,140
192,320,425144,2,0,B|155:323|130:365|130:365|89:302,1,140
44,216,425623,2,0,P|88:160|204:184,1,175
200,180,426102,5,0,0:0:0:0:
200,180,426421,1,0,0:0:0:0:
384,232,426581,1,0,0:0:0:0:
188,172,426740,1,0,0:0:0:0:
264,348,426900,1,0,0:0:0:0:
312,124,427059,1,0,0:0:0:0:
184,276,427219,6,0,P|144:276|72:212,1,140
48,116,427698,1,0,0:0:0:0:
96,336,427857,1,0,0:0:0:0:
96,336,428176,2,0,P|160:328|184:304,1,70
192,312,428415,1,0,0:0:0:0:
225,302,428495,2,0,P|284:296|320:312,1,70
420,340,428815,1,0,0:0:0:0:
508,268,428974,1,0,0:0:0:0:
402,228,429134,1,0,0:0:0:0:
402,228,429453,5,0,0:0:0:0:
232,280,429612,1,0,0:0:0:0:
232,280,429692,1,0,0:0:0:0:
232,280,429772,2,0,P|200:240|196:192,1,70
176,92,430091,1,0,0:0:0:0:
308,152,430251,1,0,0:0:0:0:
144,192,430410,2,0,P|111:204|86:228,1,70
32,336,430730,1,0,0:0:0:0:
32,336,431208,5,0,0:0:0:0:
152,360,431368,2,0,P|228:360|256:348,1,70
336,312,431687,1,0,0:0:0:0:
464,360,431847,2,0,P|456:284|432:264,1,70
400,192,432166,1,0,0:0:0:0:
384,223,432245,1,0,0:0:0:0:
368,254,432325,6,0,P|320:276|272:264,1,70
144,256,432644,1,0,0:0:0:0:
316,184,432804,1,0,0:0:0:0:
136,256,432964,2,0,P|92:220|88:192,1,70
252,148,433283,1,0,0:0:0:0:
160,112,433442,6,0,L|120:80,2,35
300,232,433761,1,0,0:0:0:0:
288,120,433921,2,0,P|328:80|396:108,1,105
388,96,434240,1,0,0:0:0:0:
432,296,434559,6,0,P|408:252|376:232,1,70
358,233,434798,1,0,0:0:0:0:
323,229,434878,1,0,0:0:0:0:
192,224,435038,2,0,L|261:227,1,70
396,232,435357,1,0,0:0:0:0:
212,132,435517,1,0,0:0:0:0:
320,324,435836,5,0,0:0:0:0:
140,284,435995,1,0,0:0:0:0:
140,284,436075,1,0,0:0:0:0:
140,284,436155,2,0,L|220:252,1,70
352,200,436474,2,0,L|272:168,1,70
144,136,436793,1,0,0:0:0:0:
292,252,436953,1,0,0:0:0:0:
117,322,437112,1,0,0:0:0:0:
368,104,453389,6,0,P|338:302|284:320,1,280
291,319,454347,1,0,0:0:0:0:
140,320,454666,2,0,L|120:240,1,70
224,360,454985,1,0,0:0:0:0:
288,184,455144,5,0,0:0:0:0:
288,184,455224,1,0,0:0:0:0:
288,184,455304,1,0,0:0:0:0:
157,176,455464,1,0,0:0:0:0:
220,221,455623,1,0,0:0:0:0:
171,100,455783,2,0,P|176:56|196:32,1,70
368,152,456102,2,0,P|363:196|343:220,1,70
132,184,456421,2,0,P|176:188|200:208,1,70
272,288,456740,5,0,0:0:0:0:
368,164,456900,1,0,0:0:0:0:
412,312,457059,1,0,0:0:0:0:
280,136,457219,1,0,0:0:0:0:
168,316,457378,2,0,P|96:336|72:268,1,140
80,108,457857,6,0,B|140:60|192:128|252:84,1,175
348,24,458336,1,0,0:0:0:0:
372,200,458495,2,0,P|342:266|299:268,1,87.5
204,312,458815,2,0,B|108:256|108:256|184:200,1,175
280,140,459293,1,0,0:0:0:0:
368,244,459453,2,0,P|440:240|468:216,1,87.5
416,96,459772,1,0,0:0:0:0:
480,244,459932,1,0,0:0:0:0:
376,112,460091,1,0,0:0:0:0:
504,208,460251,1,0,0:0:0:0:
360,152,460410,6,0,B|288:120|252:212|156:128,1,175
68,84,460889,1,0,0:0:0:0:
136,196,461049,2,0,L|224:220,1,87.5
384,252,461368,2,0,P|432:164|388:104,1,175
272,24,461847,1,0,0:0:0:0:
272,24,462006,2,0,P|240:88|240:112,1,87.5
244,292,462325,1,0,0:0:0:0:
316,176,462485,1,0,0:0:0:0:
200,216,462644,2,0,P|144:224|104:196,1,87.5
52,116,462964,6,0,P|128:104|160:188,1,175
140,328,463442,1,0,0:0:0:0:
140,328,463602,2,0,P|224:340|248:332,1,87.5
352,296,463921,2,0,B|418:257|469:265|469:265|404:209,1,175
328,144,464400,1,0,0:0:0:0:
256,232,464559,2,0,P|200:260|176:240,1,87.5
88,192,464878,1,0,0:0:0:0:
204,264,465038,1,0,0:0:0:0:
164,148,465197,2,0,P|156:92|184:52,1,87.5
264,0,465517,6,0,P|276:76|192:108,1,175
68,56,465995,1,0,0:0:0:0:
28,208,466155,2,0,P|56:248|92:256,1,87.5
260,248,466474,2,0,B|364:232|364:232|336:316,1,175
332,384,466953,2,0,P|408:376|416:360,1,87.5
460,272,467272,1,0,0:0:0:0:
288,324,467432,1,0,0:0:0:0:
424,176,467591,1,0,0:0:0:0:
448,356,467751,1,0,0:0:0:0:
352,140,467910,1,0,0:0:0:0:
204,260,468070,6,0,P|132:264|84:176,1,175
104,48,468549,1,0,0:0:0:0:
180,176,468708,2,0,P|240:196|276:184,1,87.5
396,144,469027,2,0,P|480:192|460:264,1,175
388,348,469506,1,0,0:0:0:0:
296,240,469666,2,0,P|288:176|320:144,1,87.5
396,76,469985,1,0,0:0:0:0:
452,264,470144,1,0,0:0:0:0:
316,208,470304,2,0,P|260:200|208:220,1,87.5
112,260,470623,6,0,P|74:306|172:311,1,175
264,280,471102,1,0,0:0:0:0:
384,332,471261,2,0,P|444:344|464:332,1,87.5
428,164,471581,2,0,B|336:172|336:172|256:216,1,175
152,284,472059,1,0,0:0:0:0:
256,344,472219,2,0,P|340:320|344:300,1,87.5
368,196,472538,1,0,0:0:0:0:
244,376,472698,1,0,0:0:0:0:
216,224,472857,1,0,0:0:0:0:
396,348,473017,1,0,0:0:0:0:
228,299,473176,6,0,P|145:257|165:165,1,175
216,72,473655,1,0,0:0:0:0:
360,216,473815,1,0,0:0:0:0:
360,216,474134,2,0,P|336:268|252:216,1,175
228,96,474612,1,0,0:0:0:0:
176,224,474772,2,0,P|132:240|96:220,1,87.5
32,140,475091,1,0,0:0:0:0:
68,316,475251,1,0,0:0:0:0:
156,192,475410,2,0,P|216:172|256:172,1,87.5
376,180,475730,6,0,P|448:208|472:228,2,87.5
248,168,476208,2,0,P|192:140|176:24,1,175
160,176,476687,2,0,B|188:120|188:120|248:72,1,116.666666666667
296,48,477006,6,0,L|344:16,2,58.3333333333333
316,120,477325,2,0,L|376:136,2,58.3333333333333
268,196,477644,1,0,0:0:0:0:
221,227,477750,1,0,0:0:0:0:
169,208,477856,1,0,0:0:0:0:
154,154,477964,1,0,0:0:0:0:
139,99,478070,1,0,0:0:0:0:
86,80,478176,1,0,0:0:0:0:
40,112,478283,6,0,B|28:168|80:272|80:272|24:356|24:356|128:320|228:352,1,437.5
312,360,479240,2,0,P|384:348|356:264,1,175
248,204,479719,1,0,0:0:0:0:
248,204,479799,1,0,0:0:0:0:
248,204,479878,2,0,P|192:232|144:228,1,87.5
24,160,480198,2,0,P|80:132|128:136,1,87.5
260,160,480517,1,0,0:0:0:0:
76,56,480676,1,0,0:0:0:0:
208,256,480836,6,0,P|312:256|368:120,1,262.5
348,12,481474,1,0,0:0:0:0:
172,68,481634,1,0,0:0:0:0:
212,83,481713,1,0,0:0:0:0:
253,99,481793,2,0,B|320:120|344:164|344:164|412:100|480:168,1,262.5
410,211,482432,2,0,P|432:276|464:296,1,87.5
356,344,482751,1,0,0:0:0:0:
272,288,482910,2,0,P|180:272|112:320,1,175
28,144,483389,6,0,B|132:192|132:92|240:156,1,218.75
272,176,483867,1,0,0:0:0:0:
313,164,483947,1,0,0:0:0:0:
347,136,484027,1,0,0:0:0:0:
367,97,484107,1,0,0:0:0:0:
397,68,484186,1,0,0:0:0:0:
440,68,484266,1,0,0:0:0:0:
468,96,484346,1,0,0:0:0:0:
469,141,484426,6,0,B|460:212|460:212|404:264,1,131.25
373,241,484745,1,0,0:0:0:0:
330,236,484825,1,0,0:0:0:0:
286,236,484905,1,0,0:0:0:0:
243,242,484985,2,0,P|196:272|176:312,1,87.5
276,352,485304,5,0,0:0:0:0:
144,96,485464,2,0,B|208:152|208:152|152:192|248:216,1,175
392,248,485942,2,0,B|444:188|444:188|356:236,1,175
244,312,486421,2,0,B|160:357|160:357|212:297,1,175
263,47,486900,5,0,0:0:0:0:
270,79,486979,1,0,0:0:0:0:
277,111,487059,1,0,0:0:0:0:
284,143,487139,1,0,0:0:0:0:
291,175,487219,2,0,P|348:188|384:176,1,87.5
364,56,487538,1,0,0:0:0:0:
244,232,487698,2,0,P|356:257|428:233,1,175
399,117,488177,5,0,0:0:0:0:
336,304,488336,1,0,0:0:0:0:
276,164,488495,2,0,B|248:112|248:112|144:164,1,175
16,228,488974,1,0,0:0:0:0:
56,108,489134,2,0,P|128:72|160:84,1,87.5
260,168,489453,2,0,P|328:184|376:96,1,175
368,8,489932,1,0,0:0:0:0:
368,8,490091,2,0,L|272:40,1,87.5
144,80,490410,5,0,0:0:0:0:
328,128,490570,1,0,0:0:0:0:
176,200,490730,1,0,0:0:0:0:
141,223,490809,1,0,0:0:0:0:
145,265,490889,1,0,0:0:0:0:
183,281,490969,1,0,0:0:0:0:
216,256,491049,6,0,P|248:236|280:224,2,58.3333333333333
140,312,491368,2,0,P|68:320|60:288,1,116.666666666667
60,188,491687,1,0,0:0:0:0:
89,172,491766,1,0,0:0:0:0:
118,157,491846,1,0,0:0:0:0:
147,142,491926,1,0,0:0:0:0:
176,127,492006,1,0,0:0:0:0:
191,156,492086,1,0,0:0:0:0:
206,185,492166,1,0,0:0:0:0:
221,214,492246,1,0,0:0:0:0:
236,243,492325,6,0,P|312:292|380:252,1,175
378,254,492964,1,0,0:0:0:0:
472,144,493124,1,0,0:0:0:0:
372,268,493283,1,0,0:0:0:0:
348,112,493443,1,0,0:0:0:0:
284,208,493602,5,0,0:0:0:0:
246,228,493681,1,0,0:0:0:0:
205,218,493761,1,0,0:0:0:0:
183,181,493841,1,0,0:0:0:0:
191,140,493921,5,0,0:0:0:0:
199,98,494000,1,0,0:0:0:0:
177,61,494080,1,0,0:0:0:0:
136,51,494160,1,0,0:0:0:0:
98,72,494240,1,0,0:0:0:0:
80,111,494319,1,0,0:0:0:0:
76,154,494399,1,0,0:0:0:0:
88,196,494479,1,0,0:0:0:0:
114,231,494559,6,0,P|116:308|32:280,1,175
0,180,495038,1,0,0:0:0:0:
0,180,495198,2,0,P|60:164|96:164,1,87.5
208,180,495517,1,0,0:0:0:0:
332,196,495676,2,0,B|440:200|440:200|424:140|368:136,1,175
304,56,496155,6,0,B|244:16|244:16|232:144,1,175
208,328,496634,2,0,B|268:368|268:368|280:240,1,175
288,80,497112,5,0,0:0:0:0:
285,123,497191,1,0,0:0:0:0:
283,167,497271,1,0,0:0:0:0:
160,116,497432,1,0,0:0:0:0:
236,248,497591,2,0,P|304:264|336:248,1,87.5
432,196,497910,5,0,0:0:0:0:
356,344,498070,1,0,0:0:0:0:
264,208,498230,1,0,0:0:0:0:
472,264,498389,1,0,0:0:0:0:
280,328,498549,1,0,0:0:0:0:
372,156,498708,6,0,P|376:104|360:72,1,87.5
140,228,499027,2,0,P|136:280|152:312,1,87.5
374,296,499347,2,0,P|334:313|292:308,2,87.5
440,160,499825,2,0,P|372:120|280:140,1,175
152,232,500304,2,0,P|100:264|64:268,1,87.5
88,124,500623,1,0,0:0:0:0:
256,232,500783,1,0,0:0:0:0:
172,128,500942,1,0,0:0:0:0:
228,312,501102,1,0,0:0:0:0:
256,144,501261,6,0,P|316:108|344:108,1,87.5
460,168,501581,1,0,0:0:0:0:
400,64,501740,2,0,P|366:36|324:26,1,87.5
312,184,502059,1,0,0:0:0:0:
264,68,502219,2,0,P|221:77|188:105,1,87.5
100,224,502538,5,0,0:0:0:0:
100,224,502698,2,0,L|184:248,1,87.5
396,296,503017,1,0,0:0:0:0:
396,296,503177,2,0,L|372:212,1,87.5
336,68,503495,1,0,0:0:0:0:
272,288,503655,1,0,0:0:0:0:
220,144,503815,6,0,P|224:64|324:80,1,175
412,188,504293,1,0,0:0:0:0:
268,104,504453,2,0,P|164:92|140:108,1,87.5
40,124,504772,1,0,0:0:0:0:
204,176,504932,5,0,0:0:0:0:
204,176,505011,1,0,0:0:0:0:
204,176,505091,1,0,0:0:0:0:
304,280,505251,2,0,P|368:268|388:236,1,87.5
312,104,505570,1,0,0:0:0:0:
412,208,505730,2,0,P|476:196|496:164,1,87.5
420,32,506049,1,0,0:0:0:0:
316,216,506208,1,0,0:0:0:0:
216,56,506368,6,0,P|160:44|124:48,2,87.5
368,112,506847,1,0,0:0:0:0:
136,156,507006,1,0,0:0:0:0:
256,296,507166,1,0,0:0:0:0:
292,52,507325,1,0,0:0:0:0:
352,308,507485,6,0,P|308:220|208:208,1,175
188,344,507964,2,0,P|120:304|108:260,1,87.5
96,144,508283,1,0,0:0:0:0:
224,216,508442,2,0,P|268:152|256:120,1,87.5
312,20,508761,1,0,0:0:0:0:
396,64,508921,6,0,P|448:116|460:168,1,87.5
368,336,509240,2,0,P|316:284|304:232,1,87.5
288,128,509559,2,0,P|368:144|392:176,1,87.5
311,218,509878,1,0,0:0:0:0:
180,196,510038,5,0,0:0:0:0:
180,196,510118,1,0,0:0:0:0:
180,196,510198,2,0,P|136:156|176:84,1,87.5
252,116,510517,2,0,P|292:72|364:112,1,87.5
332,188,510836,2,0,P|376:228|336:300,1,87.5
195,313,511155,1,0,0:0:0:0:
260,268,511314,1,0,0:0:0:0:
325,314,511474,6,0,P|400:296|404:200,1,175
344,96,511953,1,0,0:0:0:0:
292,236,512112,2,0,L|336:344,1,87.5
436,224,512432,1,0,0:0:0:0:
332,128,512591,6,0,B|248:64|248:164|148:104,2,175
456,228,513389,1,0,0:0:0:0:
204,200,513549,1,0,0:0:0:0:
415,154,513708,2,0,L|315:122,1,87.5
184,100,514027,6,0,P|104:164|148:224,1,175
240,320,514506,1,0,0:0:0:0:
140,244,514666,2,0,P|76:252|36:292,1,87.5
136,340,514985,2,0,P|200:332|240:292,1,87.5
300,244,515224,1,0,0:0:0:0:
300,244,515304,2,0,P|344:252|388:288,1,87.5
468,352,515623,1,0,0:0:0:0:
368,164,515783,1,0,0:0:0:0:
344,316,515942,2,0,P|264:320|236:300,1,87.5
152,248,516261,1,0,0:0:0:0:
64,348,516421,1,0,0:0:0:0:
12,232,516581,6,0,P|24:160|56:136,1,87.5
252,240,516900,2,0,P|240:312|208:336,1,87.5
128,268,517219,2,0,P|140:196|172:172,1,87.5
280,88,517538,1,0,0:0:0:0:
147,187,517698,2,0,P|71:191|99:87,1,175
148,16,518176,2,0,L|248:56,1,87.5
72,104,518495,5,0,0:0:0:0:
272,148,518655,1,0,0:0:0:0:
172,170,518815,1,0,0:0:0:0:
372,214,518975,1,0,0:0:0:0:
236,240,519134,6,0,P|172:264|128:360,1,175
44,128,519612,1,0,0:0:0:0:
120,224,519772,2,0,P|172:240|208:176,1,87.5
284,132,520091,1,0,0:0:0:0:
204,56,520251,1,0,0:0:0:0:
204,56,520331,1,0,0:0:0:0:
204,56,520410,2,0,P|152:28|108:68,1,87.5
28,128,520730,1,0,0:0:0:0:
129,36,520889,1,0,0:0:0:0:
76,200,521049,2,0,P|100:256|156:276,1,87.5
268,268,521368,1,0,0:0:0:0:
165,188,521527,1,0,0:0:0:0:
288,288,521687,6,0,P|360:304|400:288,1,87.5
468,200,522006,1,0,0:0:0:0:
432,356,522166,1,0,0:0:0:0:
314,246,522325,1,0,0:0:0:0:
480,284,522485,1,0,0:0:0:0:
314,246,522644,6,0,P|220:196|208:132,1,175
220,24,523123,2,0,P|308:48|336:72,1,87.5
472,96,523442,1,0,0:0:0:0:
472,96,523602,2,0,P|384:120|356:144,1,87.5
280,176,523921,1,0,0:0:0:0:
372,32,524081,1,0,0:0:0:0:
450,183,524240,6,0,P|448:252|344:264,1,175
252,204,524719,1,0,0:0:0:0:
164,292,524878,2,0,P|72:280|52:252,1,87.5
8,192,525198,1,0,0:0:0:0:
132,184,525357,5,0,0:0:0:0:
132,184,525437,1,0,0:0:0:0:
132,184,525517,2,0,L|244:180,1,87.5
420,176,525836,2,0,P|352:224|344:224,1,87.5
212,236,526155,1,0,0:0:0:0:
408,272,526315,1,0,0:0:0:0:
320,140,526474,1,0,0:0:0:0:
324,344,526634,1,0,0:0:0:0:
176,300,526793,6,0,P|116:288|88:288,2,87.5
300,336,527272,1,0,0:0:0:0:
412,300,527432,2,0,P|432:248|416:208,1,87.5
264,264,527751,1,0,0:0:0:0:
472,340,527910,2,0,B|500:300|500:300|496:240,1,87.5
200,168,528230,2,0,B|172:208|172:208|176:268,1,87.5
184,348,528549,5,0,0:0:0:0:
320,216,528708,1,0,0:0:0:0:
120,296,528868,1,0,0:0:0:0:
304,284,529027,2,0,P|380:256|384:208,1,87.5
452,108,529347,6,0,P|376:96|276:128,1,175
180,216,529825,1,0,0:0:0:0:
300,312,529985,2,0,P|368:304|388:280,1,87.5
464,176,530304,1,0,0:0:0:0:
319,229,530464,1,0,0:0:0:0:
432,88,530623,5,0,0:0:0:0:
396,220,530783,2,0,L|432:316,1,87.5
316,120,531102,1,0,0:0:0:0:
224,228,531261,2,0,L|260:324,1,87.5
376,268,531581,1,0,0:0:0:0:
128,280,531740,1,0,0:0:0:0:
328,344,531900,5,0,0:0:0:0:
328,344,532059,2,0,P|256:336|220:300,1,87.5
64,244,532378,2,0,P|103:261|146:259,1,87.5
288,232,532698,1,0,0:0:0:0:
144,348,532857,1,0,0:0:0:0:
184,144,533017,1,0,0:0:0:0:
256,316,533176,6,0,L|344:344,1,87.5
460,208,533495,2,0,L|372:180,1,87.5
412,368,533815,2,0,L|440:280,1,87.5
304,164,534134,2,0,L|276:252,1,87.5
172,328,534453,6,0,P|124:312|80:276,1,87.5
4,184,534772,1,0,0:0:0:0:
164,240,534932,1,0,0:0:0:0:
4,240,535091,2,0,L|108:200,1,87.5
248,152,535410,6,0,P|320:136|376:168,1,87.5
472,184,535730,1,0,0:0:0:0:
308,212,535889,1,0,0:0:0:0:
464,260,536049,1,0,0:0:0:0:
320,144,536208,1,0,0:0:0:0:
328,324,536368,1,0,0:0:0:0:
208,212,536527,1,0,0:0:0:0:
192,352,536687,1,0,0:0:0:0:
72,220,536847,1,0,0:0:0:0:
224,284,537006,6,0,P|304:288|320:280,1,87.5
440,208,537325,1,0,0:0:0:0:
396,344,537485,1,0,0:0:0:0:
248,200,537644,1,0,0:0:0:0:
480,296,537804,1,0,0:0:0:0:
232,196,537964,1,0,0:0:0:0:
384,112,538123,6,0,P|408:56|300:48,1,175
176,88,538602,2,0,P|244:112|276:104,1,87.5
160,228,538921,2,0,P|229:208|251:183,1,87.5
256,344,539240,2,0,P|301:288|305:255,1,87.5
316,132,539559,5,0,0:0:0:0:
282,122,539635,1,0,0:0:0:0:
247,125,539712,1,0,0:0:0:0:
214,136,539789,1,0,0:0:0:0:
180,142,539866,1,0,0:0:0:0:
145,139,539943,1,0,0:0:0:0:
111,129,540020,2,0,P|72:196|88:232,1,105.000004005432
336,320,540328,5,0,0:0:0:0:
336,320,540405,1,0,0:0:0:0:
336,320,540482,2,0,P|360:256|344:208,1,105.000004005432
144,40,540789,2,0,P|120:104|136:152,1,105.000004005432
196,324,541097,1,0,0:0:0:0:
360,112,541251,1,0,0:0:0:0:
68,176,541405,1,0,0:0:0:0:
368,344,541559,6,0,B|400:232|320:232|360:108,1,210.000008010865
384,20,542019,1,0,0:0:0:0:
444,184,542173,1,0,0:0:0:0:
308,80,542327,1,0,0:0:0:0:
348,304,542481,1,0,0:0:0:0:
368,132,542635,1,0,0:0:0:0:
240,312,542788,6,0,P|156:316|116:240,1,140
80,136,543250,1,0,0:0:0:0:
140,352,543404,1,0,0:0:0:0:
168,176,543558,1,0,0:0:0:0:
284,308,543712,1,0,0:0:0:0:
332,323,543788,1,0,0:0:0:0:
380,305,543865,1,0,0:0:0:0:
406,260,543942,1,0,0:0:0:0:
397,209,544019,6,0,P|364:128|396:72,1,140
472,16,544481,1,0,0:0:0:0:
312,160,544635,1,0,0:0:0:0:
236,56,544788,6,0,L|144:80,1,70
80,132,544994,6,0,L|172:156,1,70
236,208,545199,6,0,L|144:232,1,70
48,268,545454,6,0,L|96:300,1,46.6666666666667
152,344,545657,1,0,0:0:0:0:
190,369,545758,1,0,0:0:0:0:
236,375,545860,1,0,0:0:0:0:
280,361,545961,1,0,0:0:0:0:
312,328,546063,6,0,L|346:294,1,46.6666666666667
344,148,546266,2,0,L|309:181,1,46.6666666666667
152,236,546469,2,0,L|186:202,1,46.6666666666667
280,108,546635,5,0,0:0:0:0:
88,64,570113,6,0,P|148:89|168:128,1,70
224,228,570439,1,0,0:0:0:0:
272,88,570602,1,0,0:0:0:0:
344,288,570765,1,0,0:0:0:0:
404,164,570928,1,0,0:0:0:0:
236,240,571091,6,0,P|156:248|132:244,1,70
40,192,571417,1,0,0:0:0:0:
208,328,571580,1,0,0:0:0:0:
60,308,571743,1,0,0:0:0:0:
296,280,571906,1,0,0:0:0:0:
132,336,572059,5,0,0:0:0:0:
132,336,572377,1,0,0:0:0:0:
344,160,572537,2,0,L|328:244,1,70
312,344,572856,1,0,0:0:0:0:
312,344,572935,1,0,0:0:0:0:
312,344,573015,6,0,L|232:320,1,70
48,292,573334,2,0,L|128:268,1,70
296,224,573653,1,0,0:0:0:0:
120,344,573812,1,0,0:0:0:0:
108,120,573971,6,0,P|76:68|-4:68,2,140
132,248,574768,1,0,0:0:0:0:
256,168,574928,2,0,P|332:136|384:160,1,140
436,272,575406,2,0,P|428:330|359:295,1,140
278,124,575884,5,0,0:0:0:0:
247,137,575963,1,0,0:0:0:0:
242,170,576043,1,0,0:0:0:0:
267,192,576123,1,0,0:0:0:0:
300,184,576203,6,0,P|356:172|380:180,1,70
480,228,576522,1,0,0:0:0:0:
343,265,576681,1,0,0:0:0:0:
396,132,576841,1,0,0:0:0:0:
310,245,577000,1,0,0:0:0:0:
272,92,577159,1,0,0:0:0:0:
272,233,577318,1,0,0:0:0:0:
156,128,577478,1,0,0:0:0:0:
231,248,577637,1,0,0:0:0:0:
316,160,577807,6,0,P|368:144|400:148,1,70
476,332,578125,2,0,P|424:348|392:344,1,70
152,280,578444,2,0,P|184:266|218:264,1,70
384,288,578763,5,0,0:0:0:0:
208,184,578922,1,0,0:0:0:0:
288,368,579082,1,0,0:0:0:0:
372,120,579241,1,0,0:0:0:0:
156,256,579401,1,0,0:0:0:0:
436,216,579560,1,0,0:0:0:0:
212,320,579719,6,0,L|136:372,2,70
348,224,580198,1,0,0:0:0:0:
348,224,580357,2,0,P|316:152|280:136,1,70
224,48,580676,2,0,L|232:120,1,70
144,136,580995,2,0,L|168:212,1,70
264,200,581313,2,0,L|244:280,1,70
156,340,581632,6,0,P|76:316|68:280,1,70
0,252,581951,1,0,0:0:0:0:
132,256,582110,2,0,P|208:216|204:160,1,140
192,56,582589,6,0,P|264:48|296:60,1,70
404,96,582907,1,0,0:0:0:0:
240,140,583067,1,0,0:0:0:0:
408,144,583226,1,0,0:0:0:0:
244,100,583386,1,0,0:0:0:0:
440,220,583545,6,0,P|404:256|348:240,1,70
296,152,583864,1,0,0:0:0:0:
376,344,584023,1,0,0:0:0:0:
248,264,584183,2,0,P|200:256|176:264,1,70
60,340,584501,5,0,0:0:0:0:
192,204,584661,1,0,0:0:0:0:
340,260,584820,1,0,0:0:0:0:
196,184,584980,1,0,0:0:0:0:
171,120,585139,1,0,0:0:0:0:
204,61,585298,1,0,0:0:0:0:
271,49,585458,6,0,P|320:72|344:136,1,70
412,240,585777,1,0,0:0:0:0:
280,168,585936,2,0,P|216:152|144:204,1,140
272,312,586414,6,0,P|316:344|368:332,1,70
468,288,586733,1,0,0:0:0:0:
436,160,586892,2,0,P|348:132|324:168,1,140
304,272,587371,6,0,P|268:316|216:324,1,70
208,112,587689,2,0,P|244:68|296:60,1,70
308,152,588008,2,0,P|272:196|220:204,1,70
104,248,588327,6,0,L|28:272,2,70
296,196,588805,1,0,0:0:0:0:
136,172,588965,1,0,0:0:0:0:
224,100,589124,1,0,0:0:0:0:
216,264,589283,6,0,P|279:300|312:296,1,70
400,276,589602,2,0,B|420:172|420:172|328:104,1,210
232,72,590240,6,0,P|220:120|232:168,2,70
290,244,590718,2,0,P|290:278|280:312,2,70
280,124,591196,2,0,P|208:96|132:136,1,140
232,260,591674,2,0,P|304:288|380:248,1,140
460,188,592153,5,0,0:0:0:0:
360,336,592312,1,0,0:0:0:0:
324,92,592471,1,0,0:0:0:0:
300,280,592631,1,0,0:0:0:0:
156,108,592790,1,0,0:0:0:0:
224,284,592950,1,0,0:0:0:0:
280,136,593109,6,0,P|348:120|376:132,1,70
232,248,593428,2,0,P|164:264|136:252,1,70
312,216,593747,2,0,P|328:284|316:312,1,70
200,168,594065,1,0,0:0:0:0:
256,316,594225,2,0,P|336:320|360:304,1,70
428,144,594544,2,0,P|348:140|324:156,1,70
424,288,594862,1,0,0:0:0:0:
312,200,595022,6,0,P|280:156|280:108,1,70
368,20,595341,2,0,P|400:64|400:112,1,70
232,112,595659,1,0,0:0:0:0:
464,156,595819,1,0,0:0:0:0:
272,196,595978,6,0,P|208:204|168:192,1,70
320,28,596297,2,0,P|328:92|316:132,1,70
308,284,596616,1,0,0:0:0:0:
235,73,596775,1,0,0:0:0:0:
188,232,596935,6,0,P|128:240|80:224,2,70
328,172,597413,1,0,0:0:0:0:
464,232,597572,2,0,P|472:292|456:340,1,70
364,360,597891,2,0,B|256:292|256:400|128:324,1,210
28,292,598529,1,0,0:0:0:0:
211,259,598688,1,0,0:0:0:0:
44,208,598847,6,0,P|20:164|32:128,1,70
152,104,599166,1,0,0:0:0:0:
96,260,599326,2,0,P|176:320|224:296,1,140
320,232,599804,6,0,P|392:216|428:224,1,70
496,160,600123,2,0,P|424:144|388:152,1,70
319,87,600442,2,0,P|391:71|427:79,1,70
504,64,600760,6,0,P|540:124|512:192,1,140
444,272,601239,1,0,0:0:0:0:
376,176,601398,2,0,P|328:184|304:212,1,70
240,308,601717,6,0,P|152:296|136:248,1,140
172,136,602195,1,0,0:0:0:0:
56,204,602354,2,0,P|8:152|20:124,1,70
48,48,602673,6,0,P|124:36|208:68,2,140
113,128,603470,1,0,0:0:0:0:
224,72,603630,2,0,P|272:88|304:124,2,70
108,56,604108,1,0,0:0:0:0:
156,168,604267,2,0,L|220:208,1,70
336,272,604586,5,0,0:0:0:0:
156,268,604745,1,0,0:0:0:0:
276,196,604905,2,0,P|320:160|316:64,1,140
325,81,605542,6,0,L|312:156,1,70
204,340,605861,2,0,L|190:265,1,70
176,160,606180,1,0,0:0:0:0:
384,260,606339,1,0,0:0:0:0:
180,272,606499,5,0,0:0:0:0:
336,204,606658,1,0,0:0:0:0:
341,169,606737,1,0,0:0:0:0:
346,134,606817,1,0,0:0:0:0:
172,204,606977,5,0,0:0:0:0:
34,37,607136,1,0,0:0:0:0:
69,42,607216,1,0,0:0:0:0:
104,48,607295,1,0,0:0:0:0:
48,172,607455,5,0,0:0:0:0:
186,338,607614,1,0,0:0:0:0:
151,333,607694,1,0,0:0:0:0:
116,328,607773,1,0,0:0:0:0:
248,216,607933,5,0,0:0:0:0:
32,268,608093,1,0,0:0:0:0:
272,212,608252,1,0,0:0:0:0:
16,272,608412,6,0,P|0:208|20:168,1,70
56,96,608730,2,0,P|120:72|220:80,1,140
190,72,609368,6,0,P|132:83|92:111,1,70
322,312,609687,1,0,0:0:0:0:
173,168,609846,1,0,0:0:0:0:
380,260,610006,2,0,P|437:248|477:220,1,70
400,128,610324,5,0,0:0:0:0:
384,87,610403,1,0,0:0:0:0:
348,64,610483,1,0,0:0:0:0:
305,65,610563,1,0,0:0:0:0:
270,91,610642,1,0,0:0:0:0:
258,132,610722,1,0,0:0:0:0:
271,173,610803,5,0,0:0:0:0:
280,215,610882,1,0,0:0:0:0:
266,256,610962,1,0,0:0:0:0:
233,284,611042,1,0,0:0:0:0:
191,292,611121,1,0,0:0:0:0:
150,277,611201,1,0,0:0:0:0:
123,243,611281,5,0,0:0:0:0:
113,200,611360,1,0,0:0:0:0:
127,159,611440,1,0,0:0:0:0:
160,131,611520,1,0,0:0:0:0:
202,123,611599,1,0,0:0:0:0:
243,138,611679,1,0,0:0:0:0:
270,172,611759,5,0,0:0:0:0:
305,197,611838,1,0,0:0:0:0:
347,204,611918,1,0,0:0:0:0:
389,191,611998,1,0,0:0:0:0:
419,161,612077,1,0,0:0:0:0:
433,119,612157,1,0,0:0:0:0:
426,77,612237,6,0,P|376:52|320:56,1,87.5
164,168,612556,2,0,P|214:193|270:189,1,87.5
396,152,612875,1,0,0:0:0:0:
292,304,613034,1,0,0:0:0:0:
192,144,613194,5,0,0:0:0:0:
128,328,613353,2,0,P|64:304|40:264,1,87.5
168,112,613672,2,0,P|139:144|130:187,1,87.5
200,340,613991,1,0,0:0:0:0:
224,186,614150,5,0,0:0:0:0:
396,104,614309,1,0,0:0:0:0:
396,104,614389,1,0,0:0:0:0:
396,104,614469,1,0,0:0:0:0:
376,330,614628,1,0,0:0:0:0:
260,135,614788,1,0,0:0:0:0:
468,224,614947,1,0,0:0:0:0:
247,275,615106,5,0,0:0:0:0:
204,285,615185,1,0,0:0:0:0:
161,295,615265,1,0,0:0:0:0:
215,159,615425,1,0,0:0:0:0:
0,212,615585,5,0,0:0:0:0:
42,201,615664,1,0,0:0:0:0:
85,191,615744,1,0,0:0:0:0:
32,328,615904,1,0,0:0:0:0:
132,172,616063,6,0,P|220:136|248:144,1,87.5
240,296,616382,1,0,0:0:0:0:
332,132,616541,1,0,0:0:0:0:
400,304,616700,2,0,P|442:294|476:267,1,87.5
496,116,617019,6,0,L|408:72,1,87.5
392,224,617338,1,0,0:0:0:0:
392,224,617497,2,0,L|304:180,1,87.5
288,332,617816,1,0,0:0:0:0:
156,200,617976,5,0,0:0:0:0:
156,200,618055,1,0,0:0:0:0:
156,200,618135,1,0,0:0:0:0:
352,200,618295,1,0,0:0:0:0:
149,162,618454,1,0,0:0:0:0:
352,236,618614,1,0,0:0:0:0:
157,121,618773,1,0,0:0:0:0:
338,274,618933,1,0,0:0:0:0:
180,82,619093,1,0,0:0:0:0:
310,307,619253,1,0,0:0:0:0:
219,49,619412,1,0,0:0:0:0:
268,332,619572,1,0,0:0:0:0:
271,31,619731,1,0,0:0:0:0:
216,342,619913,5,0,0:0:0:0:
88,328,620072,2,0,P|48:320|12:304,1,70
88,240,620391,2,0,P|128:248|164:264,1,70
240,308,620710,1,0,0:0:0:0:
344,272,620870,5,0,0:0:0:0:
444,224,621030,2,0,P|484:200|500:164,1,70
464,88,621349,2,0,P|424:112|408:148,1,70
352,240,621668,1,0,0:0:0:0:
276,136,621827,5,0,0:0:0:0:
144,192,621987,2,0,P|80:188|52:172,1,70
16,68,622306,2,0,P|80:72|108:88,1,70
228,128,622625,1,0,0:0:0:0:
348,20,622785,5,0,0:0:0:0:
212,76,622944,2,0,P|156:72|120:48,1,70
280,0,623264,2,0,P|336:4|372:28,1,70
464,144,623583,1,0,0:0:0:0:
288,76,623742,5,0,0:0:0:0:
288,76,623902,2,0,L|180:108,1,87.5
224,308,624221,2,0,L|332:276,1,87.5
388,156,624540,1,0,0:0:0:0:
128,156,624700,5,0,0:0:0:0:
128,156,624860,2,0,L|163:275,1,87.5
383,227,625179,2,0,L|348:108,1,87.5
224,68,625498,1,0,0:0:0:0:
308,352,625657,5,0,0:0:0:0:
