osu file format v14

[General]
AudioFilename: audio.mp3
AudioLeadIn: 0
PreviewTime: 39238
Countdown: 1
SampleSet: Normal
StackLeniency: 0.7
Mode: 1
LetterboxInBreaks: 0
WidescreenStoryboard: 0

[Editor]
DistanceSpacing: 1.5
BeatDivisor: 4
GridSize: 32
TimelineZoom: 2

[Metadata]
Title:Gin no Iruka to Atsui Kaze
TitleUnicode:銀のイルカと熱い風
Artist:Ootsuki Yui, Ogata Chieri, Nitta Minami
ArtistUnicode:大槻唯(CV:山下七海)、緒方智絵里(CV:大空直美)、新田美波(CV:洲崎綾)
Creator:CivelMamosora
Version:Civel's Taiko
Source:アイドルマスターシンデレラガールズ
Tags:Silver Dolphin and The Hot Wind Yamashita Nanami Oozora Naomi Suzaki Aya CINDERELLA GIRLS STARLIGHT STAGE
BeatmapID:2065671
BeatmapSetID:987444

[Difficulty]
HPDrainRate:7.65
CircleSize:5
OverallDifficulty:3.46
ApproachRate:5
SliderMultiplier:1.6
SliderTickRate:1

[Events]
//Background and Video events
0,0,"NTB.png",0,50
//Break Periods
//Storyboard Layer 0 (Background)
//Storyboard Layer 1 (Fail)
//Storyboard Layer 2 (Pass)
//Storyboard Layer 3 (Foreground)
//Storyboard Sound Samples

[TimingPoints]
4747,338.983050847458,4,1,0,100,1,0
40001,338.983050847458,4,1,0,100,1,1
40001,-100,4,1,0,100,0,1
61695,-100,4,1,0,100,0,0
86102,338.983050847458,4,1,0,100,1,0
96950,-100,4,1,0,100,0,1
113221,-100,4,1,0,100,0,0

[HitObjects]
256,192,4747,5,4,0:0:0:0:
256,192,5255,1,4,0:0:0:0:
256,192,5594,1,0,0:0:0:0:
256,192,5763,1,0,0:0:0:0:
256,192,5933,1,8,0:0:0:0:
256,192,6102,1,0,0:0:0:0:
256,192,6441,1,8,0:0:0:0:
256,192,6780,1,0,0:0:0:0:
256,192,7119,1,8,0:0:0:0:
256,192,7458,1,0,0:0:0:0:
256,192,7797,1,8,0:0:0:0:
256,192,7967,1,0,0:0:0:0:
256,192,8136,1,8,0:0:0:0:
256,192,8475,1,0,0:0:0:0:
256,192,8645,1,8,0:0:0:0:
256,192,8814,1,0,0:0:0:0:
256,192,9153,1,8,0:0:0:0:
256,192,9323,1,0,0:0:0:0:
256,192,9492,1,8,0:0:0:0:
256,192,9831,1,8,0:0:0:0:
256,192,10170,1,4,0:0:0:0:
256,192,10679,1,4,0:0:0:0:
256,192,11018,1,8,0:0:0:0:
256,192,11187,1,8,0:0:0:0:
256,192,11357,1,0,0:0:0:0:
256,192,11526,1,8,0:0:0:0:
256,192,11865,1,8,0:0:0:0:
256,192,12204,1,0,0:0:0:0:
256,192,12543,1,8,0:0:0:0:
256,192,12882,1,0,0:0:0:0:
256,192,13221,1,8,0:0:0:0:
256,192,13391,1,0,0:0:0:0:
256,192,13560,1,0,0:0:0:0:
256,192,13899,1,8,0:0:0:0:
256,192,14069,1,0,0:0:0:0:
256,192,14238,1,8,0:0:0:0:
256,192,14408,1,0,0:0:0:0:
256,192,14577,1,0,0:0:0:0:
256,192,14747,1,0,0:0:0:0:
256,192,14916,1,0,0:0:0:0:
256,192,15085,1,0,0:0:0:0:
256,192,15255,1,8,0:0:0:0:
256,192,15424,1,0,0:0:0:0:
256,192,15594,1,8,0:0:0:0:
256,192,15933,1,0,0:0:0:0:
256,192,16272,1,8,0:0:0:0:
256,192,16441,1,0,0:0:0:0:
256,192,16526,1,0,0:0:0:0:
256,192,16611,1,8,0:0:0:0:
256,192,16780,1,0,0:0:0:0:
256,192,16950,1,8,0:0:0:0:
256,192,17289,1,0,0:0:0:0:
256,192,17628,1,8,0:0:0:0:
250,187,17967,1,0,0:0:0:0:
250,187,18136,1,0,0:0:0:0:
256,192,18306,1,8,0:0:0:0:
250,187,18645,1,0,0:0:0:0:
256,192,18984,1,8,0:0:0:0:
250,187,19153,1,0,0:0:0:0:
250,187,19238,1,0,0:0:0:0:
256,192,19323,1,8,0:0:0:0:
256,192,19492,1,8,0:0:0:0:
256,192,19662,1,0,0:0:0:0:
256,192,20001,1,8,0:0:0:0:
250,187,20340,1,0,0:0:0:0:
256,192,20509,1,8,0:0:0:0:
256,192,20679,1,8,0:0:0:0:
250,187,20848,1,8,0:0:0:0:
256,192,21187,1,0,0:0:0:0:
256,192,21357,1,8,0:0:0:0:
256,192,21526,1,12,0:0:0:0:
256,192,21865,1,8,0:0:0:0:
256,192,22035,1,0,0:0:0:0:
256,192,22204,1,12,0:0:0:0:
256,192,22374,1,0,0:0:0:0:
256,192,22713,1,8,0:0:0:0:
256,192,23052,1,8,0:0:0:0:
253,193,23391,1,0,0:0:0:0:
256,192,23730,1,8,0:0:0:0:
256,192,23899,1,8,0:0:0:0:
256,192,24069,1,8,0:0:0:0:
256,192,24577,1,8,0:0:0:0:
256,192,24747,1,8,0:0:0:0:
256,192,24916,1,12,0:0:0:0:
256,187,25424,1,0,0:0:0:0:
256,192,25763,1,8,0:0:0:0:
256,192,26102,1,8,0:0:0:0:
256,192,26441,1,4,0:0:0:0:
256,192,26611,1,8,0:0:0:0:
256,192,26780,1,0,0:0:0:0:
256,192,26865,1,0,0:0:0:0:
256,192,26950,1,8,0:0:0:0:
256,192,27119,1,0,0:0:0:0:
256,192,27289,1,8,0:0:0:0:
256,192,27458,1,0,0:0:0:0:
256,192,27543,1,0,0:0:0:0:
256,192,27628,1,8,0:0:0:0:
256,192,27797,1,0,0:0:0:0:
256,192,27967,1,8,0:0:0:0:
256,192,28052,1,8,0:0:0:0:
256,192,28136,1,0,0:0:0:0:
256,192,28306,1,8,0:0:0:0:
256,192,28475,1,0,0:0:0:0:
256,192,28560,1,0,0:0:0:0:
256,192,28645,1,8,0:0:0:0:
256,192,28814,1,0,0:0:0:0:
256,192,28899,1,0,0:0:0:0:
256,192,28984,1,8,0:0:0:0:
256,192,29153,1,0,0:0:0:0:
256,192,29323,1,8,0:0:0:0:
256,192,29492,1,0,0:0:0:0:
256,192,29577,1,0,0:0:0:0:
256,192,29662,1,8,0:0:0:0:
256,192,29831,1,0,0:0:0:0:
256,192,30001,1,8,0:0:0:0:
256,192,30170,1,0,0:0:0:0:
256,192,30255,1,0,0:0:0:0:
256,192,30340,1,8,0:0:0:0:
256,192,30509,1,0,0:0:0:0:
256,192,30679,1,8,0:0:0:0:
256,192,30763,1,8,0:0:0:0:
256,192,30848,1,0,0:0:0:0:
256,192,30933,1,0,0:0:0:0:
256,192,31018,1,8,0:0:0:0:
256,192,31187,1,0,0:0:0:0:
256,192,31357,1,8,0:0:0:0:
256,192,31441,1,0,0:0:0:0:
256,192,31526,1,0,0:0:0:0:
256,192,31696,1,8,0:0:0:0:
224,192,31865,1,4,0:0:0:0:
224,192,32035,1,4,0:0:0:0:
224,192,32543,1,4,0:0:0:0:
224,192,32713,1,4,0:0:0:0:
224,192,33221,1,4,0:0:0:0:
224,192,33475,1,8,0:0:0:0:
224,192,33730,1,8,0:0:0:0:
256,192,33899,1,4,0:0:0:0:
256,192,34153,1,8,0:0:0:0:
256,192,34408,1,8,0:0:0:0:
256,192,34577,1,8,0:0:0:0:
256,192,34747,1,4,0:0:0:0:
256,192,35255,1,4,0:0:0:0:
256,192,35763,1,4,0:0:0:0:
256,192,36102,1,4,0:0:0:0:
256,192,36272,1,4,0:0:0:0:
256,192,36441,1,0,0:0:0:0:
256,192,36611,1,0,0:0:0:0:
256,192,36780,1,8,0:0:0:0:
256,192,36950,1,8,0:0:0:0:
256,192,37119,1,8,0:0:0:0:
256,192,37458,1,12,0:0:0:0:
256,192,37628,1,12,0:0:0:0:
256,192,37967,1,12,0:0:0:0:
256,192,38136,1,4,0:0:0:0:
256,192,38475,1,12,0:0:0:0:
256,192,38814,1,4,0:0:0:0:
256,192,38984,1,4,0:0:0:0:
256,192,39323,1,8,0:0:0:0:
256,192,39576,1,8,0:0:0:0:
256,192,39831,1,8,0:0:0:0:
256,192,40001,1,12,0:0:0:0:
256,192,40170,1,8,0:0:0:0:
256,192,40255,1,0,0:0:0:0:
256,192,40340,1,0,0:0:0:0:
256,192,40509,1,8,0:0:0:0:
256,192,40679,1,0,0:0:0:0:
256,192,40763,1,0,0:0:0:0:
256,192,40848,1,8,0:0:0:0:
256,192,41018,1,0,0:0:0:0:
256,192,41187,1,8,0:0:0:0:
256,192,41357,1,0,0:0:0:0:
256,192,41526,1,8,0:0:0:0:
256,192,41611,1,0,0:0:0:0:
256,192,41696,1,0,0:0:0:0:
256,192,41865,1,8,0:0:0:0:
256,192,42035,1,0,0:0:0:0:
256,192,42119,1,0,0:0:0:0:
256,192,42204,1,8,0:0:0:0:
256,192,42289,1,0,0:0:0:0:
256,192,42374,1,0,0:0:0:0:
256,192,42543,1,8,0:0:0:0:
256,192,42713,1,8,0:0:0:0:
256,192,42882,1,8,0:0:0:0:
256,192,42967,1,0,0:0:0:0:
256,192,43052,1,0,0:0:0:0:
256,192,43221,1,8,0:0:0:0:
256,192,43391,1,0,0:0:0:0:
256,192,43560,1,8,0:0:0:0:
256,192,43730,1,0,0:0:0:0:
256,192,43814,1,0,0:0:0:0:
256,192,43899,1,8,0:0:0:0:
256,192,44069,1,0,0:0:0:0:
256,192,44238,1,8,0:0:0:0:
256,192,44323,1,0,0:0:0:0:
256,192,44408,1,0,0:0:0:0:
256,192,44577,1,8,0:0:0:0:
256,192,44747,1,8,0:0:0:0:
256,192,44831,1,0,0:0:0:0:
256,192,44916,1,0,0:0:0:0:
256,192,45001,1,8,0:0:0:0:
256,192,45085,1,0,0:0:0:0:
256,192,45170,1,0,0:0:0:0:
256,192,45255,1,8,0:0:0:0:
256,192,45340,1,0,0:0:0:0:
256,192,45424,1,8,0:0:0:0:
256,192,45594,1,0,0:0:0:0:
256,192,45679,1,0,0:0:0:0:
256,192,45763,1,8,0:0:0:0:
256,192,45848,1,0,0:0:0:0:
256,192,45933,1,0,0:0:0:0:
256,192,46102,1,8,0:0:0:0:
256,192,46272,1,0,0:0:0:0:
256,192,46357,1,8,0:0:0:0:
256,192,46441,1,0,0:0:0:0:
256,192,46526,1,0,0:0:0:0:
256,192,46611,1,8,0:0:0:0:
256,192,46696,1,0,0:0:0:0:
256,192,46780,1,8,0:0:0:0:
256,192,46950,1,0,0:0:0:0:
256,192,47119,1,8,0:0:0:0:
256,192,47204,1,0,0:0:0:0:
256,192,47289,1,0,0:0:0:0:
256,192,47458,1,8,0:0:0:0:
256,192,47628,1,0,0:0:0:0:
256,192,47713,1,8,0:0:0:0:
256,192,47797,1,8,0:0:0:0:
256,192,47882,1,0,0:0:0:0:
256,192,47967,1,8,0:0:0:0:
256,192,48052,1,0,0:0:0:0:
256,192,48136,1,8,0:0:0:0:
256,192,48306,1,8,0:0:0:0:
256,192,48391,1,8,0:0:0:0:
256,192,48475,1,0,0:0:0:0:
256,192,48560,1,0,0:0:0:0:
256,192,48645,1,0,0:0:0:0:
256,192,48814,1,8,0:0:0:0:
256,192,48984,1,8,0:0:0:0:
256,192,49069,1,8,0:0:0:0:
256,192,49153,1,0,0:0:0:0:
256,192,49238,1,0,0:0:0:0:
256,192,49323,1,8,0:0:0:0:
256,192,49492,1,8,0:0:0:0:
256,192,49662,1,0,0:0:0:0:
256,192,49831,1,8,0:0:0:0:
256,192,50001,1,0,0:0:0:0:
256,192,50170,1,8,0:0:0:0:
256,192,50340,1,0,0:0:0:0:
256,192,50424,1,8,0:0:0:0:
256,192,50509,1,8,0:0:0:0:
256,192,50594,1,8,0:0:0:0:
256,192,50679,1,8,0:0:0:0:
256,192,50763,1,8,0:0:0:0:
256,192,50848,1,0,0:0:0:0:
256,192,51018,1,8,0:0:0:0:
256,192,51187,1,0,0:0:0:0:
256,192,51357,1,8,0:0:0:0:
256,192,51441,1,0,0:0:0:0:
256,192,51526,1,0,0:0:0:0:
256,192,51696,1,8,0:0:0:0:
256,192,51865,1,0,0:0:0:0:
256,192,51950,1,0,0:0:0:0:
256,192,52035,1,8,0:0:0:0:
256,192,52119,1,0,0:0:0:0:
256,192,52204,1,0,0:0:0:0:
256,192,52374,1,8,0:0:0:0:
256,192,52543,1,0,0:0:0:0:
256,192,52628,1,0,0:0:0:0:
256,192,52713,1,8,0:0:0:0:
256,192,52882,1,0,0:0:0:0:
256,192,53052,1,8,0:0:0:0:
256,192,53136,1,0,0:0:0:0:
256,192,53221,1,0,0:0:0:0:
256,192,53306,1,0,0:0:0:0:
256,192,53391,1,8,0:0:0:0:
256,192,53560,1,0,0:0:0:0:
256,192,53730,1,8,0:0:0:0:
256,192,53899,1,0,0:0:0:0:
256,192,53984,1,0,0:0:0:0:
256,192,54069,1,8,0:0:0:0:
256,192,54238,1,0,0:0:0:0:
256,192,54408,1,8,0:0:0:0:
256,192,54492,1,0,0:0:0:0:
256,192,54577,1,0,0:0:0:0:
256,192,54747,1,8,0:0:0:0:
256,192,54916,1,0,0:0:0:0:
256,192,55085,1,8,0:0:0:0:
256,192,55170,1,8,0:0:0:0:
256,192,55255,1,0,0:0:0:0:
256,192,55424,1,8,0:0:0:0:
256,192,55594,1,8,0:0:0:0:
256,192,55679,1,0,0:0:0:0:
256,192,55763,1,8,0:0:0:0:
256,192,55933,1,0,0:0:0:0:
256,192,56018,1,8,0:0:0:0:
256,192,56102,1,8,0:0:0:0:
256,192,56272,1,0,0:0:0:0:
256,192,56441,1,8,0:0:0:0:
256,192,56526,1,8,0:0:0:0:
256,192,56611,1,0,0:0:0:0:
256,192,56696,1,0,0:0:0:0:
256,192,56780,1,8,0:0:0:0:
256,192,56950,1,8,0:0:0:0:
256,192,57119,1,0,0:0:0:0:
256,192,57204,1,8,0:0:0:0:
256,192,57289,1,0,0:0:0:0:
256,192,57374,1,0,0:0:0:0:
256,192,57458,1,8,0:0:0:0:
256,192,57543,1,0,0:0:0:0:
256,192,57628,1,8,0:0:0:0:
256,192,57797,1,8,0:0:0:0:
256,192,57967,1,0,0:0:0:0:
256,192,58052,1,0,0:0:0:0:
256,192,58136,1,8,0:0:0:0:
256,192,58306,1,8,0:0:0:0:
256,64,58475,1,0,0:0:0:0:
256,192,58560,1,8,0:0:0:0:
256,192,58645,1,8,0:0:0:0:
256,192,58730,1,0,0:0:0:0:
256,192,58814,1,8,0:0:0:0:
256,192,58899,1,8,0:0:0:0:
256,192,58984,1,8,0:0:0:0:
256,192,59153,1,8,0:0:0:0:
256,192,59238,1,8,0:0:0:0:
256,192,59323,1,0,0:0:0:0:
256,192,59408,1,0,0:0:0:0:
256,192,59492,1,0,0:0:0:0:
256,192,59662,1,8,0:0:0:0:
256,192,59831,1,8,0:0:0:0:
256,192,59916,1,8,0:0:0:0:
256,192,60001,1,0,0:0:0:0:
256,192,60085,1,0,0:0:0:0:
256,192,60170,1,8,0:0:0:0:
256,192,60340,1,8,0:0:0:0:
256,192,60424,1,8,0:0:0:0:
256,192,60509,1,8,0:0:0:0:
256,192,60594,1,8,0:0:0:0:
256,192,60679,1,0,0:0:0:0:
256,192,60763,1,0,0:0:0:0:
256,192,60848,1,0,0:0:0:0:
256,192,60933,1,0,0:0:0:0:
256,192,61018,1,8,0:0:0:0:
256,192,61102,1,8,0:0:0:0:
256,192,61187,1,8,0:0:0:0:
256,192,61272,1,8,0:0:0:0:
256,192,61357,1,0,0:0:0:0:
256,192,61441,1,0,0:0:0:0:
256,192,61526,1,0,0:0:0:0:
256,192,61611,1,0,0:0:0:0:
256,192,61696,1,8,0:0:0:0:
256,192,62035,1,0,0:0:0:0:
256,192,62204,1,12,0:0:0:0:
256,192,62543,1,0,0:0:0:0:
256,192,62713,1,12,0:0:0:0:
256,192,63052,1,0,0:0:0:0:
256,192,63221,1,8,0:0:0:0:
256,192,63391,1,0,0:0:0:0:
256,192,63560,1,0,0:0:0:0:
256,192,63730,1,8,0:0:0:0:
256,192,63899,1,0,0:0:0:0:
256,192,64069,1,8,0:0:0:0:
256,192,64153,1,8,0:0:0:0:
256,192,64238,1,8,0:0:0:0:
256,192,64323,1,8,0:0:0:0:
256,192,64408,1,0,0:0:0:0:
256,192,64577,1,8,0:0:0:0:
256,192,64747,1,0,0:0:0:0:
256,192,64831,1,0,0:0:0:0:
256,192,64916,1,8,0:0:0:0:
256,192,65085,1,0,0:0:0:0:
256,192,65255,1,8,0:0:0:0:
256,192,65424,1,0,0:0:0:0:
256,192,65509,1,0,0:0:0:0:
256,192,65594,1,8,0:0:0:0:
256,192,65763,1,0,0:0:0:0:
256,192,65933,1,8,0:0:0:0:
256,192,66102,1,0,0:0:0:0:
256,192,66187,1,0,0:0:0:0:
256,192,66272,1,8,0:0:0:0:
256,192,66441,1,8,0:0:0:0:
256,192,66526,1,8,0:0:0:0:
256,192,66611,1,8,0:0:0:0:
256,192,66696,1,0,0:0:0:0:
256,192,66780,1,8,0:0:0:0:
256,192,66865,1,8,0:0:0:0:
256,192,66950,1,8,0:0:0:0:
256,192,67035,1,0,0:0:0:0:
256,192,67119,1,8,0:0:0:0:
256,192,67458,1,0,0:0:0:0:
256,192,67628,1,12,0:0:0:0:
256,192,67967,1,0,0:0:0:0:
256,192,68136,1,12,0:0:0:0:
256,192,68475,1,0,0:0:0:0:
256,192,68645,1,8,0:0:0:0:
256,192,68814,1,0,0:0:0:0:
256,192,68984,1,0,0:0:0:0:
256,192,69153,1,8,0:0:0:0:
256,192,69323,1,0,0:0:0:0:
256,192,69492,1,8,0:0:0:0:
256,192,69577,1,8,0:0:0:0:
256,192,69662,1,0,0:0:0:0:
256,192,69747,1,0,0:0:0:0:
256,192,69831,1,8,0:0:0:0:
256,192,70001,1,0,0:0:0:0:
256,192,70170,1,8,0:0:0:0:
256,192,70255,1,8,0:0:0:0:
256,192,70340,1,0,0:0:0:0:
256,192,70424,1,8,0:0:0:0:
256,192,70509,1,8,0:0:0:0:
256,192,70594,1,8,0:0:0:0:
256,192,70679,1,0,0:0:0:0:
256,192,70848,1,12,0:0:0:0:
256,192,71018,1,12,0:0:0:0:
256,192,71187,1,12,0:0:0:0:
256,192,71357,1,0,0:0:0:0:
256,192,71526,1,12,0:0:0:0:
256,192,71696,1,0,0:0:0:0:
256,192,71865,1,12,0:0:0:0:
256,192,72035,1,8,0:0:0:0:
256,192,72119,1,8,0:0:0:0:
256,192,72204,1,8,0:0:0:0:
256,192,72289,1,8,0:0:0:0:
256,192,72374,1,8,0:0:0:0:
256,192,72543,1,4,0:0:0:0:
256,192,72713,1,8,0:0:0:0:
256,192,72882,1,8,0:0:0:0:
256,192,73052,1,8,0:0:0:0:
256,192,73221,1,0,0:0:0:0:
256,192,73391,1,8,0:0:0:0:
256,192,73560,1,8,0:0:0:0:
256,192,73730,1,0,0:0:0:0:
256,192,73899,1,4,0:0:0:0:
256,192,74069,1,8,0:0:0:0:
256,192,74238,1,8,0:0:0:0:
256,192,74408,1,8,0:0:0:0:
256,192,74577,1,0,0:0:0:0:
256,192,74747,1,8,0:0:0:0:
256,192,74916,1,0,0:0:0:0:
256,192,75085,1,8,0:0:0:0:
256,192,75255,1,12,0:0:0:0:
256,192,75424,1,8,0:0:0:0:
256,192,75594,1,0,0:0:0:0:
256,192,75763,1,8,0:0:0:0:
256,192,75933,1,8,0:0:0:0:
256,192,76102,1,0,0:0:0:0:
256,192,76272,1,8,0:0:0:0:
256,192,76441,1,0,0:0:0:0:
256,192,76611,1,12,0:0:0:0:
256,192,76780,1,0,0:0:0:0:
256,192,76950,1,0,0:0:0:0:
256,192,77119,1,0,0:0:0:0:
256,192,77289,1,0,0:0:0:0:
256,192,77458,1,8,0:0:0:0:
256,192,77628,1,8,0:0:0:0:
256,192,77797,1,8,0:0:0:0:
256,192,77967,1,12,0:0:0:0:
256,192,78136,1,0,0:0:0:0:
256,192,78306,1,0,0:0:0:0:
256,192,78475,1,0,0:0:0:0:
256,192,78645,1,8,0:0:0:0:
256,192,78814,1,0,0:0:0:0:
256,192,78984,1,8,0:0:0:0:
256,192,79153,1,8,0:0:0:0:
256,192,79323,1,12,0:0:0:0:
256,192,79492,1,0,0:0:0:0:
256,192,79662,1,0,0:0:0:0:
256,192,79831,1,0,0:0:0:0:
256,192,80001,1,8,0:0:0:0:
256,192,80170,1,0,0:0:0:0:
256,192,80340,1,8,0:0:0:0:
256,192,80509,1,8,0:0:0:0:
256,192,80679,1,4,0:0:0:0:
256,192,81188,1,8,0:0:0:0:
256,192,81357,1,8,0:0:0:0:
256,192,81527,1,0,0:0:0:0:
256,192,81696,1,8,0:0:0:0:
256,192,81866,1,0,0:0:0:0:
256,192,82035,1,4,0:0:0:0:
256,192,82543,1,8,0:0:0:0:
256,192,82713,1,8,0:0:0:0:
256,192,82882,1,0,0:0:0:0:
256,192,83052,1,8,0:0:0:0:
256,192,83221,1,0,0:0:0:0:
256,192,83391,1,12,0:0:0:0:
256,192,83730,1,8,0:0:0:0:
256,192,84069,1,8,0:0:0:0:
256,192,84238,1,0,0:0:0:0:
256,192,84408,1,8,0:0:0:0:
256,192,84577,1,0,0:0:0:0:
256,192,84747,1,0,0:0:0:0:
256,192,85085,1,0,0:0:0:0:
256,192,85424,1,8,0:0:0:0:
256,192,85679,1,0,0:0:0:0:
256,192,85763,1,8,0:0:0:0:
256,192,85933,1,8,0:0:0:0:
256,192,86102,1,0,0:0:0:0:
256,192,86611,1,8,0:0:0:0:
256,192,86780,1,8,0:0:0:0:
256,192,86950,1,8,0:0:0:0:
256,192,87119,1,8,0:0:0:0:
256,192,87289,1,0,0:0:0:0:
256,192,87458,1,8,0:0:0:0:
256,192,88136,1,8,0:0:0:0:
256,192,88391,1,8,0:0:0:0:
256,192,88475,1,8,0:0:0:0:
256,192,88645,1,8,0:0:0:0:
256,192,88814,1,0,0:0:0:0:
256,192,89323,1,0,0:0:0:0:
256,192,89492,1,8,0:0:0:0:
256,192,89662,1,8,0:0:0:0:
256,192,89831,1,0,0:0:0:0:
256,192,90001,1,8,0:0:0:0:
256,192,90170,1,0,0:0:0:0:
256,192,90848,1,8,0:0:0:0:
256,192,91102,1,8,0:0:0:0:
256,192,91357,1,8,0:0:0:0:
256,192,91526,1,0,0:0:0:0:
256,192,91865,1,0,0:0:0:0:
256,192,92204,1,8,0:0:0:0:
256,192,92458,1,8,0:0:0:0:
256,192,92543,1,0,0:0:0:0:
256,192,92713,1,8,0:0:0:0:
256,192,92882,1,0,0:0:0:0:
256,192,93221,1,0,0:0:0:0:
256,192,93560,1,8,0:0:0:0:
256,192,93730,1,0,0:0:0:0:
256,192,93814,1,8,0:0:0:0:
256,192,93899,1,0,0:0:0:0:
256,192,94069,1,8,0:0:0:0:
256,192,94238,1,8,0:0:0:0:
256,192,94492,1,0,0:0:0:0:
256,192,94747,1,0,0:0:0:0:
256,192,94916,1,8,0:0:0:0:
256,192,95170,1,0,0:0:0:0:
256,192,95424,1,0,0:0:0:0:
256,192,95594,1,8,0:0:0:0:
256,192,95763,1,0,0:0:0:0:
256,192,95848,1,0,0:0:0:0:
256,192,95933,1,8,0:0:0:0:
256,192,96018,1,0,0:0:0:0:
256,192,96102,1,0,0:0:0:0:
256,192,96187,1,0,0:0:0:0:
256,192,96272,1,8,0:0:0:0:
256,192,96526,1,8,0:0:0:0:
256,192,96780,1,8,0:0:0:0:
256,192,96950,1,4,0:0:0:0:
256,192,97119,1,8,0:0:0:0:
256,192,97289,1,0,0:0:0:0:
256,192,97374,1,0,0:0:0:0:
256,192,97458,1,8,0:0:0:0:
256,192,97628,1,0,0:0:0:0:
256,192,97797,1,8,0:0:0:0:
256,192,97967,1,0,0:0:0:0:
256,192,98052,1,0,0:0:0:0:
256,192,98136,1,8,0:0:0:0:
256,192,98306,1,0,0:0:0:0:
256,192,98475,1,8,0:0:0:0:
256,192,98560,1,8,0:0:0:0:
256,192,98645,1,0,0:0:0:0:
256,192,98814,1,8,0:0:0:0:
256,192,98984,1,0,0:0:0:0:
256,192,99069,1,0,0:0:0:0:
256,192,99153,1,8,0:0:0:0:
256,192,99238,1,8,0:0:0:0:
256,192,99323,1,0,0:0:0:0:
256,192,99408,1,0,0:0:0:0:
256,192,99492,1,8,0:0:0:0:
256,192,99662,1,0,0:0:0:0:
256,192,99831,1,8,0:0:0:0:
256,192,100001,1,0,0:0:0:0:
256,192,100085,1,0,0:0:0:0:
256,192,100170,1,8,0:0:0:0:
256,192,100340,1,0,0:0:0:0:
256,192,100509,1,8,0:0:0:0:
256,192,100679,1,0,0:0:0:0:
256,192,100763,1,0,0:0:0:0:
256,192,100848,1,8,0:0:0:0:
256,192,101018,1,0,0:0:0:0:
256,192,101187,1,8,0:0:0:0:
256,192,101272,1,0,0:0:0:0:
256,192,101357,1,0,0:0:0:0:
256,192,101526,1,8,0:0:0:0:
256,192,101696,1,0,0:0:0:0:
256,192,101780,1,0,0:0:0:0:
256,192,101865,1,8,0:0:0:0:
256,192,101950,1,8,0:0:0:0:
256,192,102035,1,0,0:0:0:0:
256,192,102119,1,8,0:0:0:0:
256,192,102204,1,8,0:0:0:0:
256,192,102289,1,8,0:0:0:0:
256,192,102374,1,0,0:0:0:0:
256,192,102543,1,8,0:0:0:0:
256,192,102713,1,0,0:0:0:0:
256,192,102797,1,0,0:0:0:0:
256,192,102882,1,8,0:0:0:0:
256,192,103051,1,8,0:0:0:0:
256,192,103136,1,0,0:0:0:0:
256,192,103221,1,0,0:0:0:0:
256,192,103306,1,8,0:0:0:0:
256,192,103391,1,0,0:0:0:0:
256,192,103475,1,8,0:0:0:0:
256,192,103560,1,8,0:0:0:0:
256,192,103730,1,0,0:0:0:0:
256,192,103899,1,8,0:0:0:0:
256,192,104069,1,0,0:0:0:0:
256,192,104153,1,0,0:0:0:0:
256,192,104238,1,8,0:0:0:0:
256,192,104408,1,0,0:0:0:0:
256,192,104492,1,8,0:0:0:0:
256,192,104577,1,8,0:0:0:0:
256,192,104662,1,8,0:0:0:0:
256,192,104747,1,0,0:0:0:0:
256,192,104831,1,8,0:0:0:0:
256,192,104916,1,8,0:0:0:0:
256,192,105001,1,8,0:0:0:0:
256,192,105085,1,0,0:0:0:0:
256,192,105255,1,0,0:0:0:0:
256,192,105424,1,8,0:0:0:0:
256,192,105509,1,0,0:0:0:0:
256,192,105594,1,0,0:0:0:0:
256,192,105763,1,8,0:0:0:0:
256,192,105933,1,0,0:0:0:0:
256,192,106102,1,8,0:0:0:0:
256,192,106187,1,0,0:0:0:0:
256,192,106272,1,8,0:0:0:0:
256,192,106441,1,8,0:0:0:0:
256,192,106611,1,0,0:0:0:0:
256,192,106696,1,0,0:0:0:0:
256,192,106780,1,8,0:0:0:0:
256,192,106950,1,0,0:0:0:0:
256,192,107119,1,8,0:0:0:0:
256,192,107204,1,0,0:0:0:0:
256,192,107289,1,0,0:0:0:0:
256,192,107374,1,8,0:0:0:0:
256,192,107457,1,0,0:0:0:0:
256,192,107543,1,0,0:0:0:0:
256,192,107628,1,8,0:0:0:0:
256,192,107713,1,0,0:0:0:0:
256,192,107797,1,8,0:0:0:0:
256,192,108475,1,8,0:0:0:0:
256,192,108814,1,8,0:0:0:0:
256,192,108984,1,8,0:0:0:0:
256,192,109153,1,0,0:0:0:0:
256,192,109492,1,0,0:0:0:0:
256,192,109831,1,0,0:0:0:0:
256,192,110085,1,0,0:0:0:0:
256,192,110170,1,8,0:0:0:0:
256,192,110255,1,0,0:0:0:0:
256,192,110340,1,0,0:0:0:0:
256,192,110424,1,0,0:0:0:0:
256,192,110509,1,8,0:0:0:0:
256,192,110679,1,0,0:0:0:0:
256,192,110848,1,8,0:0:0:0:
256,192,110933,1,8,0:0:0:0:
256,192,111018,1,0,0:0:0:0:
256,192,111187,1,8,0:0:0:0:
256,192,111357,1,0,0:0:0:0:
256,192,111526,1,8,0:0:0:0:
256,192,111611,1,0,0:0:0:0:
256,192,111696,1,0,0:0:0:0:
256,192,111865,1,8,0:0:0:0:
256,192,111950,1,8,0:0:0:0:
256,192,112034,1,0,0:0:0:0:
256,192,112119,1,0,0:0:0:0:
256,192,112204,1,8,0:0:0:0:
256,192,112289,1,8,0:0:0:0:
256,192,112374,1,0,0:0:0:0:
256,192,112458,1,0,0:0:0:0:
256,192,112543,1,8,0:0:0:0:
256,192,112628,1,8,0:0:0:0:
256,192,112713,1,8,0:0:0:0:
256,192,112797,1,8,0:0:0:0:
256,192,112882,1,0,0:0:0:0:
256,192,112967,1,0,0:0:0:0:
256,192,113052,1,0,0:0:0:0:
256,192,113136,1,0,0:0:0:0:
256,192,113221,1,8,0:0:0:0:
256,192,113560,1,0,0:0:0:0:
256,192,113730,1,12,0:0:0:0:
256,192,114069,1,0,0:0:0:0:
256,192,114238,1,12,0:0:0:0:
256,192,114577,1,0,0:0:0:0:
256,192,114747,1,8,0:0:0:0:
256,192,114916,1,0,0:0:0:0:
256,192,115085,1,0,0:0:0:0:
256,192,115255,1,8,0:0:0:0:
256,192,115424,1,0,0:0:0:0:
256,192,115594,1,8,0:0:0:0:
256,192,115679,1,0,0:0:0:0:
256,192,115763,1,0,0:0:0:0:
256,192,115848,1,0,0:0:0:0:
256,192,115933,1,8,0:0:0:0:
256,192,116102,1,0,0:0:0:0:
256,192,116272,1,8,0:0:0:0:
256,192,116357,1,0,0:0:0:0:
256,192,116441,1,0,0:0:0:0:
256,192,116611,1,8,0:0:0:0:
256,192,116780,1,0,0:0:0:0:
256,192,116950,1,8,0:0:0:0:
256,192,117035,1,8,0:0:0:0:
256,192,117119,1,0,0:0:0:0:
256,192,117289,1,8,0:0:0:0:
256,192,117458,1,0,0:0:0:0:
256,192,117628,1,8,0:0:0:0:
256,192,117713,1,0,0:0:0:0:
256,192,117797,1,0,0:0:0:0:
256,192,117967,1,8,0:0:0:0:
256,192,118052,1,8,0:0:0:0:
256,192,118136,1,8,0:0:0:0:
256,192,118221,1,0,0:0:0:0:
256,192,118306,1,8,0:0:0:0:
256,192,118391,1,8,0:0:0:0:
256,192,118475,1,0,0:0:0:0:
256,192,118560,1,0,0:0:0:0:
256,192,118645,1,8,0:0:0:0:
256,192,118984,1,0,0:0:0:0:
256,192,119153,1,12,0:0:0:0:
256,192,119492,1,0,0:0:0:0:
256,192,119662,1,12,0:0:0:0:
256,192,120001,1,0,0:0:0:0:
256,192,120170,1,8,0:0:0:0:
256,192,120340,1,8,0:0:0:0:
256,192,120509,1,0,0:0:0:0:
256,192,120679,1,8,0:0:0:0:
256,192,120848,1,0,0:0:0:0:
256,192,121018,1,8,0:0:0:0:
256,192,121102,1,8,0:0:0:0:
256,192,121187,1,0,0:0:0:0:
256,192,121272,1,0,0:0:0:0:
256,192,121357,1,8,0:0:0:0:
256,192,121526,1,0,0:0:0:0:
256,192,121696,1,8,0:0:0:0:
256,192,121780,1,8,0:0:0:0:
256,192,121865,1,0,0:0:0:0:
256,192,121950,1,8,0:0:0:0:
256,192,122035,1,8,0:0:0:0:
256,192,122119,1,0,0:0:0:0:
256,192,122204,1,8,0:0:0:0:
256,192,122374,1,12,0:0:0:0:
256,192,122543,1,12,0:0:0:0:
256,192,122713,1,12,0:0:0:0:
256,192,122882,1,0,0:0:0:0:
256,192,123052,1,12,0:0:0:0:
256,192,123221,1,0,0:0:0:0:
256,192,123391,1,12,0:0:0:0:
256,192,123560,1,8,0:0:0:0:
256,192,123645,1,8,0:0:0:0:
256,192,123730,1,8,0:0:0:0:
256,192,123814,1,8,0:0:0:0:
256,192,123899,1,8,0:0:0:0:
256,192,124069,1,12,0:0:0:0:
256,192,124238,1,0,0:0:0:0:
256,192,124323,1,0,0:0:0:0:
256,192,124408,1,0,0:0:0:0:
256,192,124577,1,12,0:0:0:0:
256,192,124916,1,12,0:0:0:0:
256,192,125255,1,12,0:0:0:0:
