osu file format v14

[General]
AudioFilename: Kuusou rumba.mp3
AudioLeadIn: 0
PreviewTime: 123453
Countdown: 0
SampleSet: None
StackLeniency: 0.7
Mode: 0
LetterboxInBreaks: 1
SkinPreference:boom -Sons WWW - 100
WidescreenStoryboard: 1

[Editor]
DistanceSpacing: 1
BeatDivisor: 2
GridSize: 4
TimelineZoom: 1.1

[Metadata]
Title:Kuusou Rumba
TitleUnicode:Kuusou Rumba
Artist:Ootsuki Kenji & Zetsubou Shoujo Tachi
ArtistUnicode:Ootsuki Kenji & Zetsubou Shoujo Tachi
Creator:azunyanthethird
Version:Normal
Source:Zoku Sayonara Zetsubou Sensei (OP)
Tags:Nonaka Ai Inoue Marina Kobayashi Yuu Sawashiro Miyuki Shintani Ryoko anime opening
BeatmapID:1144832
BeatmapSetID:358900

[Difficulty]
HPDrainRate:4
CircleSize:2.7
OverallDifficulty:4
ApproachRate:5
SliderMultiplier:1.00000000596046
SliderTickRate:2

[Events]
//Background and Video events
0,0,"rumba.jpg",0,0
//Break Periods
2,7063,10877
2,91608,100877
2,145130,146217
2,150602,154401
//Storyboard Layer 0 (Background)
//Storyboard Layer 1 (Fail)
//Storyboard Layer 2 (Pass)
//Storyboard Layer 3 (Foreground)
//Storyboard Sound Samples

[TimingPoints]
387,340.909090909091,7,3,1,70,1,0
2773,340.909090909091,6,3,1,70,1,0
6863,340.909090909091,4,3,1,70,1,0
66863,-100,4,3,1,40,0,1
91408,-100,4,3,1,40,0,0
123453,340.909090909091,3,3,1,70,1,0
134362,340.909090909091,3,3,1,70,1,0
145271,340.909090909091,7,3,1,70,1,0
147657,340.909090909091,4,3,1,70,1,0
149539,340.909090909091,4,3,1,66,1,0
150402,340.909090909091,4,3,1,70,1,0
155841,340.909090909091,4,3,1,40,1,0
204931,-100,4,3,1,40,0,1
228797,352.941176470588,4,3,1,70,1,1
229506,351.341176470588,4,3,1,70,1,0

[HitObjects]
256,192,2773,12,0,6863,0:0:0:0:
96,192,12317,5,0,0:0:0:0:
160,116,12658,1,0,0:0:0:0:
220,196,12999,1,0,0:0:0:0:
312,156,13340,1,0,0:0:0:0:
356,68,13681,1,0,0:0:0:0:
448,104,14022,1,0,0:0:0:0:
448,204,14363,2,0,P|432:256|396:288,1,100.000000596046
312,336,15044,1,0,0:0:0:0:
260,252,15385,1,0,0:0:0:0:
204,336,15726,1,0,0:0:0:0:
116,292,16067,1,0,0:0:0:0:
92,196,16408,1,0,0:0:0:0:
132,104,16749,1,0,0:0:0:0:
188,188,17090,2,0,P|204:232|260:252,1,100.000000596046
352,248,17772,1,0,0:0:0:0:
432,188,18113,1,0,0:0:0:0:
420,88,18453,1,0,0:0:0:0:
332,44,18794,1,0,0:0:0:0:
240,84,19135,1,0,0:0:0:0:
152,128,19476,1,0,0:0:0:0:
52,132,19817,2,0,P|20:188|36:224,1,100.000000596046
92,296,20499,1,0,0:0:0:0:
188,268,20840,1,0,0:0:0:0:
244,352,21181,1,0,0:0:0:0:
292,264,21522,1,0,0:0:0:0:
372,204,21863,1,0,0:0:0:0:
468,224,22203,1,0,0:0:0:0:
464,324,22544,1,0,0:0:0:0:
368,348,22885,1,0,0:0:0:0:
292,284,23226,2,0,P|256:244|208:228,1,100.000000596046
120,268,23908,2,0,P|96:208|120:168,1,100.000000596046
204,148,24590,2,0,P|199:88|155:60,1,100.000000596046
76,92,25272,2,0,P|68:36|108:20,1,100.000000596046
200,12,25953,1,0,0:0:0:0:
200,12,26294,1,0,0:0:0:0:
292,48,26635,1,0,0:0:0:0:
292,48,26976,1,0,0:0:0:0:
380,100,27317,1,0,0:0:0:0:
380,100,27658,1,0,0:0:0:0:
436,184,27999,2,0,P|436:256|416:280,1,100.000000596046
320,284,28681,2,0,L|272:192,1,100.000000596046
236,288,29363,2,0,L|280:184,1,100.000000596046
177,223,30044,2,0,L|284:192,1,100.000000596046
372,172,30726,2,0,P|432:192|432:244,1,100.000000596046
424,320,31408,1,0,0:0:0:0:
332,280,31749,1,0,0:0:0:0:
280,368,32090,1,0,0:0:0:0:
192,324,32431,1,0,0:0:0:0:
136,240,32772,1,0,0:0:0:0:
108,144,33113,1,0,0:0:0:0:
140,52,33453,2,0,P|200:24|248:28,1,100.000000596046
332,40,34135,2,0,P|360:48|376:64,1,50.000000298023
408,100,34476,2,0,P|428:136|424:160,1,50.000000298023
428,192,34817,2,0,P|400:240|348:252,1,100.000000596046
260,252,35499,1,0,0:0:0:0:
172,208,35840,1,0,0:0:0:0:
148,112,36181,2,0,P|160:56|200:40,1,100.000000596046
296,40,36863,2,0,P|315:52|329:85,1,50.000000298023
340,124,37203,2,0,P|340:159|325:181,1,50.000000298023
308,216,37544,2,0,P|253:249|211:239,1,100.000000596046
132,196,38226,1,0,0:0:0:0:
212,136,38567,1,0,0:0:0:0:
120,96,38908,1,0,0:0:0:0:
204,40,39249,1,0,0:0:0:0:
304,44,39590,2,0,P|348:72|348:120,1,100.000000596046
276,184,40272,2,0,P|296:244|332:260,1,100.000000596046
424,280,40953,1,0,0:0:0:0:
376,368,41294,1,0,0:0:0:0:
276,348,41635,2,0,P|220:324|200:284,1,100.000000596046
168,196,42317,1,0,0:0:0:0:
268,204,42658,1,0,0:0:0:0:
220,116,42999,1,0,0:0:0:0:
320,124,43340,1,0,0:0:0:0:
268,40,43681,1,0,0:0:0:0:
368,28,44022,1,0,0:0:0:0:
460,68,44363,1,0,0:0:0:0:
476,168,44703,1,0,0:0:0:0:
432,256,45044,2,0,B|344:328|236:320|144:244,1,300.000001788138
128,156,46408,2,0,B|216:84|324:92|416:168,1,300.000001788138
480,224,47772,2,0,P|392:288|296:256,1,200.000001192092
228,212,48794,1,0,0:0:0:0:
164,136,49135,2,0,P|136:96|164:44,3,100.000000596046
248,20,50499,1,0,0:0:0:0:
348,24,50840,1,0,0:0:0:0:
248,20,51181,1,0,0:0:0:0:
300,104,51522,1,0,0:0:0:0:
248,20,51863,1,0,0:0:0:0:
208,112,52203,1,0,0:0:0:0:
248,20,52544,1,0,0:0:0:0:
152,40,52885,1,0,0:0:0:0:
116,132,53226,1,0,0:0:0:0:
148,228,53567,1,0,0:0:0:0:
228,292,53908,1,0,0:0:0:0:
328,292,54249,1,0,0:0:0:0:
408,232,54590,1,0,0:0:0:0:
456,144,54931,1,0,0:0:0:0:
428,48,55272,2,0,P|388:20|336:20,1,100.000000596046
240,24,55953,2,0,P|184:48|168:92,1,100.000000596046
156,132,56465,2,0,P|168:212|224:252,1,150.000000894069
268,164,57317,2,0,P|304:108|348:100,1,100.000000596046
384,96,57829,2,0,P|451:141|464:209,1,150.000000894069
452,252,58510,1,0,0:0:0:0:
428,296,58681,2,0,P|380:316|336:300,1,100.000000596046
260,240,59363,2,0,P|236:188|256:140,1,100.000000596046
316,76,60044,2,0,P|379:56|418:78,1,100.000000596046
448,98,60556,2,0,P|470:175|436:235,1,150.000000894069
360,296,61408,1,0,0:0:0:0:
212,300,61919,1,0,0:0:0:0:
280,164,62431,1,0,0:0:0:0:
373,199,62772,1,0,0:0:0:0:
225,223,63283,1,0,0:0:0:0:
272,80,63794,1,0,0:0:0:0:
176,76,64135,2,0,P|92:144|100:244,2,200.000001192092
176,76,66863,1,0,0:0:0:0:
272,44,67203,1,0,0:0:0:0:
352,104,67544,1,0,0:0:0:0:
340,204,67885,1,0,0:0:0:0:
240,200,68226,6,0,P|269:152|228:116,1,100.000000596046
160,72,68908,6,0,P|100:60|64:80,1,100.000000596046
16,164,69590,1,0,0:0:0:0:
32,264,69931,1,0,0:0:0:0:
112,320,70272,1,0,0:0:0:0:
212,328,70613,1,0,0:0:0:0:
256,192,70953,12,0,71976,0:0:0:0:
364,196,72317,5,0,0:0:0:0:
304,116,72658,1,0,0:0:0:0:
252,204,72999,1,0,0:0:0:0:
192,124,73340,1,0,0:0:0:0:
136,208,73681,1,0,0:0:0:0:
196,288,74022,1,0,0:0:0:0:
252,204,74363,1,0,0:0:0:0:
352,196,74703,1,0,0:0:0:0:
320,100,75044,1,0,0:0:0:0:
236,48,75385,2,0,P|180:36|132:76,2,100.000000596046
256,192,76408,12,0,77260,0:0:0:0:
160,128,77772,6,0,P|112:156|112:196,1,100.000000596046
208,216,78453,6,0,P|201:271|233:295,1,100.000000596046
332,312,79135,1,0,0:0:0:0:
428,284,79476,1,0,0:0:0:0:
380,196,79817,1,0,0:0:0:0:
280,196,80158,1,0,0:0:0:0:
180,192,80499,2,0,B|127:162|15:241|254:442|356:238|374:95|180:-32|59:111,1,600.000003576276
56,304,83226,2,0,P|83:357|120:363,1,100.000000596046
220,368,83908,2,0,P|267:354|301:297,1,100.000000596046
340,224,84590,1,0,0:0:0:0:
245,203,84931,1,0,0:0:0:0:
148,171,85272,1,0,0:0:0:0:
236,120,85613,1,0,0:0:0:0:
329,82,85953,2,0,P|356:158|335:230,2,150.000000894069
236,120,87317,2,0,P|150:153|52:106,2,200.000001192092
256,192,89022,12,0,91408,0:0:0:0:
51,229,102317,6,0,B|56:215|56:215|77:209|77:209|79:187|79:187|100:181|100:181|104:153|104:153|119:145|119:145|128:128|128:128|144:123,1,150.000000894069
272,72,103340,6,0,B|286:74|286:74|295:94|295:94|317:93|317:93|327:112|327:112|355:112|355:112|365:126|365:126|383:132|383:132|391:147,1,150.000000894069
440,276,104363,2,0,P|404:312|340:324,1,100.000000596046
256,328,105044,1,0,0:0:0:0:
116,268,105556,1,0,0:0:0:0:
112,120,106067,1,0,0:0:0:0:
248,56,106578,1,0,0:0:0:0:
348,168,107090,2,0,P|308:256|208:272,1,200.000001192092
80,208,108283,2,0,P|64:132|104:76,2,150.000000894069
204,296,109817,2,0,P|316:292|376:232,1,200.000001192092
428,92,111010,1,0,0:0:0:0:
308,184,111522,1,0,0:0:0:0:
184,268,112033,1,0,0:0:0:0:
84,155,112544,2,0,B|86:144|86:144|85:135|85:135|88:127|88:127|88:119|88:119|91:112|91:112|92:102|92:102|97:93|97:93|100:83|106:76|106:76|110:68|110:68|117:64|117:64|122:58|122:58|129:55|129:55|134:50|134:50|143:46|143:46|150:43|150:43|156:40|162:39,1,150.000000894069
208,28,113226,2,0,B|256:26|288:47|300:87,1,100.000000596046
292,120,113738,2,0,P|297:172|336:190,1,100.000000596046
388,192,114249,2,0,P|437:229|440:275,1,100.000000596046
424,312,114760,2,0,P|363:334|323:321,1,100.000000596046
284,304,115272,2,0,L|239:281,2,50.000000298023
208,372,115953,2,0,B|160:376|127:357|113:317,1,100.000000596046
104,288,116465,2,0,P|113:237|154:221,1,100.000000596046
204,208,116976,2,0,P|227:150|206:109,1,100.000000596046
180,84,117487,2,0,P|123:54|82:62,1,100.000000596046
44,84,117999,2,0,P|29:109|34:139,2,50.000000298023
128,136,118681,1,0,0:0:0:0:
204,264,119192,1,0,0:0:0:0:
240,120,119703,1,0,0:0:0:0:
128,220,120215,1,0,0:0:0:0:
76,80,120726,2,0,P|106:33|151:29,1,100.000000596046
248,32,121408,1,0,0:0:0:0:
384,92,121919,1,0,0:0:0:0:
288,208,122431,2,0,P|268:228|240:240,1,50.000000298023
200,252,122772,2,0,P|172:256|140:252,1,50.000000298023
100,244,123113,2,0,P|72:228|48:200,1,50.000000298023
28,176,123453,2,0,P|32:108|104:68,3,150.000000894069
196,52,125328,1,0,0:0:0:0:
244,48,125498,2,0,P|324:68|356:140,3,150.000000894069
376,220,127373,1,0,0:0:0:0:
364,268,127543,2,0,P|332:312|284:316,1,100.000000596046
240,308,128055,2,0,P|188:284|184:236,1,100.000000596046
184,196,128566,2,0,P|200:144|240:124,1,100.000000596046
288,116,129078,2,0,P|344:120|392:144,1,100.000000596046
424,168,129589,2,0,P|460:232|464:268,1,100.000000596046
464,308,130100,2,0,P|416:356|368:368,1,100.000000596046
340,380,130612,2,0,P|264:384|228:368,1,100.000000596046
196,356,131123,2,0,P|143:334|113:286,1,100.000000596046
96,256,131634,2,0,P|76:199|80:140,1,100.000000596046
80,108,132146,2,0,P|115:47|154:33,1,100.000000596046
188,24,132657,2,0,P|251:21|292:36,1,100.000000596046
328,60,133168,2,0,P|363:118|351:148,1,100.000000596046
328,184,133680,2,0,P|264:192|240:156,1,100.000000596046
216,72,134362,1,0,0:0:0:0:
296,12,134702,2,0,P|324:17|346:36,1,50.000000298023
404,108,135214,1,0,0:0:0:0:
424,152,135384,1,0,0:0:0:0:
416,252,135725,2,0,P|404:284|384:300,1,50.000000298023
300,336,136237,1,0,0:0:0:0:
252,336,136407,1,0,0:0:0:0:
156,312,136748,2,0,P|124:296|112:264,1,50.000000298023
80,192,137259,1,0,0:0:0:0:
85,140,137430,1,0,0:0:0:0:
128,52,137771,2,0,P|152:32|188:32,1,50.000000298023
268,40,138282,1,0,0:0:0:0:
302,76,138452,1,0,0:0:0:0:
296,176,138793,1,0,0:0:0:0:
252,198,138964,1,0,0:0:0:0:
152,180,139305,1,0,0:0:0:0:
129,137,139475,1,0,0:0:0:0:
168,44,139816,2,0,L|228:44,1,50.000000298023
312,76,140327,2,0,L|312:148,1,50.000000298023
412,132,140839,2,0,L|381:197,1,50.000000298023
316,240,141350,2,0,L|272:188,1,50.000000298023
212,128,141862,2,0,L|164:172,1,50.000000298023
88,208,142373,2,0,L|135:256,1,50.000000298023
184,320,142884,2,0,L|252:320,1,50.000000298023
308,252,143396,2,0,L|308:180,1,50.000000298023
244,124,143907,2,0,L|176:124,1,50.000000298023
100,92,144418,2,0,L|100:156,1,50.000000298023
194,124,144930,1,0,0:0:0:0:
256,192,147657,12,0,150402,0:0:0:0:
96,204,155841,6,0,P|195:31|269:53,1,300.000001788138
276,144,157204,6,0,P|161:101|188:224,1,300.000001788138
272,268,158568,2,0,B|368:320|424:240|424:240|392:112,1,300.000001788138
324,44,159931,2,0,P|260:68|250:127,1,100.000000596046
224,188,160613,1,0,0:0:0:0:
124,204,160954,1,0,0:0:0:0:
64,124,161295,2,0,P|72:68|112:48,1,100.000000596046
204,32,161977,1,0,0:0:0:0:
244,124,162318,1,0,0:0:0:0:
340,92,162659,1,0,0:0:0:0:
244,124,163000,1,0,0:0:0:0:
268,220,163341,1,0,0:0:0:0:
244,124,163681,1,0,0:0:0:0:
152,160,164022,2,0,P|120:200|136:264,1,100.000000596046
144,292,164534,2,0,P|216:336|304:324,1,150.000000894069
376,308,165386,1,0,0:0:0:0:
436,228,165727,1,0,0:0:0:0:
436,124,166068,1,0,0:0:0:0:
424,76,166238,1,0,0:0:0:0:
392,36,166409,1,0,0:0:0:0:
300,16,166750,2,0,L|184:16,1,100.000000596046
152,20,167261,2,0,P|84:40|112:128,1,150.000000894069
184,112,168113,2,0,L|275:183,1,100.000000596046
300,208,168624,2,0,P|311:285|250:316,1,150.000000894069
156,304,169477,2,0,B|140:310|140:310|132:325|132:325|116:329|116:329|107:343|107:343|92:350|92:350|76:360,2,100.000000596046
80,240,170500,2,0,L|180:172,2,100.000000596046
44,144,171522,1,0,0:0:0:0:
104,64,171863,1,0,0:0:0:0:
200,44,172204,1,0,0:0:0:0:
344,80,172716,1,0,0:0:0:0:
248,196,173227,1,0,0:0:0:0:
268,96,173568,1,0,0:0:0:0:
372,204,174080,1,0,0:0:0:0:
268,312,174591,1,0,0:0:0:0:
192,248,174931,2,0,L|80:136,2,150.000000894069
272,188,176295,2,0,L|384:76,2,150.000000894069
172,180,177659,2,0,B|128:164|116:100|204:60,1,150.000000894069
328,12,178681,1,0,0:0:0:0:
404,76,179022,2,0,B|452:120|444:160|376:204,1,150.000000894069
252,264,180045,1,0,0:0:0:0:
180,192,180386,1,0,0:0:0:0:
256,192,180727,12,0,182431,0:0:0:0:
28,172,183113,5,0,0:0:0:0:
80,88,183454,1,0,0:0:0:0:
168,40,183795,1,0,0:0:0:0:
268,32,184136,1,0,0:0:0:0:
360,68,184477,1,0,0:0:0:0:
404,156,184818,1,0,0:0:0:0:
392,256,185159,1,0,0:0:0:0:
312,316,185500,1,0,0:0:0:0:
212,324,185841,1,0,0:0:0:0:
128,272,186181,1,0,0:0:0:0:
88,180,186522,1,0,0:0:0:0:
96,80,186863,2,0,B|120:24|216:-8|324:28|368:172|244:252|224:248,1,400.000002384184
176,164,188568,1,0,0:0:0:0:
244,88,188909,1,0,0:0:0:0:
340,112,189250,1,0,0:0:0:0:
272,184,189591,1,0,0:0:0:0:
204,256,189931,1,0,0:0:0:0:
300,280,190272,1,0,0:0:0:0:
400,284,190613,2,0,P|456:260|456:224,1,100.000000596046
432,132,191295,1,0,0:0:0:0:
360,64,191636,2,0,B|338:45|338:45|304:74|270:40|270:40|235:62|202:48|202:48|164:70,1,200.000001192092
104,120,192659,1,0,0:0:0:0:
96,220,193000,1,0,0:0:0:0:
164,296,193341,2,0,L|240:296,1,50.000000298023
132,172,194022,2,0,L|132:64,1,100.000000596046
208,140,194704,2,0,L|272:48,1,100.000000596046
288,160,195386,2,0,L|384:120,1,100.000000596046
396,216,196068,1,0,0:0:0:0:
312,272,196409,1,0,0:0:0:0:
220,232,196750,1,0,0:0:0:0:
288,160,197091,1,0,0:0:0:0:
220,232,197431,1,0,0:0:0:0:
152,160,197772,1,0,0:0:0:0:
53,162,198113,2,0,B|57:90|157:38|217:86|233:138|309:170,1,300.000001788138
368,220,199477,1,0,0:0:0:0:
287,159,199818,1,0,0:0:0:0:
240,248,200159,1,0,0:0:0:0:
192,160,200500,1,0,0:0:0:0:
136,244,200841,1,0,0:0:0:0:
192,160,201181,1,0,0:0:0:0:
240,248,201522,1,0,0:0:0:0:
287,159,201863,1,0,0:0:0:0:
360,228,202204,2,0,B|440:120|328:-12|188:76,1,300.000001788138,0|0,0:3|0:0,0:0:0:0:
140,96,203568,2,0,P|85:189|104:284,1,200.000001192092
156,352,204591,1,0,0:0:0:0:
156,352,204931,2,0,L|276:352,1,100.000000596046
356,348,205613,2,0,P|408:320|424:252,1,100.000000596046
448,188,206295,1,0,0:0:0:0:
348,188,206636,1,0,0:0:0:0:
248,188,206977,1,0,0:0:0:0:
148,188,207318,1,0,0:0:0:0:
148,188,207659,2,0,L|280:188,1,100.000000596046
348,188,208341,2,0,L|460:188,1,100.000000596046
496,276,209022,2,0,L|404:364,1,100.000000596046
328,380,209704,2,0,L|276:380,1,50.000000298023
232,380,210045,1,0,0:0:0:0:
144,336,210386,2,0,P|120:280|152:244,1,100.000000596046
228,296,211068,2,0,P|252:240|216:192,1,100.000000596046
148,164,211750,2,0,P|168:108|216:96,1,100.000000596046
304,100,212431,1,0,0:0:0:0:
384,160,212772,1,0,0:0:0:0:
364,256,213113,1,0,0:0:0:0:
284,312,213454,2,0,P|232:316|176:284,1,100.000000596046
124,220,214136,1,0,0:0:0:0:
176,136,214477,1,0,0:0:0:0:
268,176,214818,1,0,0:0:0:0:
352,228,215159,2,0,L|400:260,1,50.000000298023
492,140,215841,2,0,P|450:91|380:80,1,100.000000596046
320,64,216522,1,0,0:0:0:0:
220,72,216863,1,0,0:0:0:0:
132,120,217204,2,0,P|107:167|140:212,1,100.000000596046
220,168,217886,2,0,P|268:192|260:248,1,100.000000596046
176,272,218568,2,0,P|194:322|240:308,1,100.000000596046
320,268,219250,1,0,0:0:0:0:
308,368,219591,1,0,0:0:0:0:
400,328,219931,2,0,B|444:224|444:172|428:124|380:88|380:88|340:128,1,300.000001788138
292,192,221295,2,0,P|252:220|184:188,1,100.000000596046
132,140,221977,2,0,P|185:111|236:136,1,100.000000596046
292,192,222659,1,0,0:0:0:0:
228,268,223000,1,0,0:0:0:0:
132,240,223341,1,0,0:0:0:0:
132,140,223681,1,0,0:0:0:0:
44,184,224022,2,0,B|44:212|44:212|16:236|44:264|44:264|44:296,1,100.000000596046
112,348,224704,2,0,B|140:348|140:348|164:380|192:348|192:348|224:348,1,100.000000596046
300,324,225386,2,0,P|374:239|352:158,2,200.000001192092
203,351,227091,1,0,0:0:0:0:
116,300,227431,1,0,0:0:0:0:
111,200,227772,1,0,0:0:0:0:
180,128,228113,1,0,0:0:0:0:
318,272,228795,1,0,0:0:0:0:
256,192,229506,12,0,232294,0:0:0:0:
