osu file format v14

[General]
AudioFilename: audio.mp3
AudioLeadIn: 0
PreviewTime: 38291
Countdown: 1
SampleSet: None
StackLeniency: 0.7
Mode: 1
LetterboxInBreaks: 0
WidescreenStoryboard: 1

[Editor]
DistanceSpacing: 0.5
BeatDivisor: 4
GridSize: 32
TimelineZoom: 1.9

[Metadata]
Title:Main Theme
TitleUnicode:メインテーマ
Artist:Oonogi Nobuyuki
ArtistUnicode:大野木宣幸
Creator:ARGENTINE DREAM
Version:Futsuu
Source:マッピー
Tags:1983 mappy ost bgm arcade game namco retro oldschool nes
BeatmapID:1807777
BeatmapSetID:864376

[Difficulty]
HPDrainRate:5
CircleSize:2
OverallDifficulty:4
ApproachRate:5
SliderMultiplier:1.4
SliderTickRate:1

[Events]
//Background and Video events
0,0,"mappygameplay.jpg",0,0
//Break Periods
//Storyboard Layer 0 (Background)
//Storyboard Layer 1 (Fail)
//Storyboard Layer 2 (Pass)
//Storyboard Layer 3 (Foreground)
//Storyboard Sound Samples

[TimingPoints]
285.602919949283,528.63436123348,4,1,0,50,1,0
10858,526.315789473684,4,1,0,50,1,0
12962,528.63436123348,4,1,0,50,1,0
25640,526.315789473684,4,1,0,50,1,1
34065,528.63436123348,4,1,0,50,1,0
38300,526.315789473684,4,1,0,50,1,0
46716,524.017467248908,4,1,0,50,1,0
50914,524.017467248908,4,1,0,50,1,1
58250,-100,4,1,0,50,0,0
59298,526.315789473684,4,1,0,50,1,1
67061,-100,4,1,0,50,0,0

[HitObjects]
224,224,285,5,0,0:0:0:0:
224,160,549,1,8,0:0:0:0:
224,160,814,1,8,0:0:0:0:
256,128,1342,2,4,L|256:96,6,17.5
256,160,1805,2,4,L|256:128,6,17.5
224,224,2400,1,0,0:0:0:0:
224,160,2664,1,8,0:0:0:0:
224,224,2928,1,0,0:0:0:0:
256,192,3391,2,0,L|256:160,15,17.5
224,224,4514,1,0,0:0:0:0:
224,160,4778,1,8,0:0:0:0:
224,160,5043,1,8,0:0:0:0:
256,128,5571,2,4,L|256:96,6,17.5
256,160,6034,2,4,L|256:128,6,17.5
224,224,6629,1,0,0:0:0:0:
224,160,6893,1,8,0:0:0:0:
224,224,7157,1,0,0:0:0:0:
256,192,7620,2,0,L|256:160,15,17.5
224,224,8743,1,0,0:0:0:0:
224,160,9536,1,8,0:0:0:0:
224,160,9801,1,8,0:0:0:0:
224,224,10329,1,0,0:0:0:0:
224,160,10593,1,8,0:0:0:0:
224,224,11121,1,0,0:0:0:0:
224,224,11384,1,0,0:0:0:0:
224,160,11647,1,8,0:0:0:0:
224,160,11822,1,8,0:0:0:0:
224,160,12173,1,8,0:0:0:0:
224,160,12436,1,8,0:0:0:0:
224,224,12700,1,0,0:0:0:0:
224,224,12963,5,0,0:0:0:0:
224,160,13226,1,8,0:0:0:0:
224,160,13490,1,8,0:0:0:0:
256,160,14019,2,4,L|256:128,6,17.5
256,160,14481,2,4,L|256:128,6,17.5
224,224,15076,1,0,0:0:0:0:
224,160,15340,1,8,0:0:0:0:
224,224,15605,1,0,0:0:0:0:
256,192,16067,2,0,L|256:160,15,17.5
224,224,17191,1,0,0:0:0:0:
224,160,17455,1,8,0:0:0:0:
224,160,17719,1,8,0:0:0:0:
256,160,18248,2,4,L|256:128,6,17.5
256,160,18710,2,4,L|256:128,6,17.5
224,224,19305,1,0,0:0:0:0:
224,160,19569,1,8,0:0:0:0:
224,224,19834,1,0,0:0:0:0:
256,192,20296,2,0,L|256:160,15,17.5
224,224,21420,1,0,0:0:0:0:
224,160,22213,1,8,0:0:0:0:
224,160,22477,1,8,0:0:0:0:
224,224,23006,1,0,0:0:0:0:
224,160,23270,1,8,0:0:0:0:
224,224,23799,1,0,0:0:0:0:
224,224,24063,1,0,0:0:0:0:
224,160,24327,1,8,0:0:0:0:
224,160,24503,1,8,0:0:0:0:
224,160,24856,1,8,0:0:0:0:
224,160,25120,1,8,0:0:0:0:
224,224,25384,1,0,0:0:0:0:
224,224,25640,1,0,0:0:0:0:
224,160,26166,1,8,0:0:0:0:
224,224,26429,1,0,0:0:0:0:
224,224,26692,1,0,0:0:0:0:
224,160,26955,1,8,0:0:0:0:
224,224,27218,1,0,0:0:0:0:
224,160,27745,1,8,0:0:0:0:
224,224,28008,1,0,0:0:0:0:
224,224,28271,1,0,0:0:0:0:
224,160,28534,1,8,0:0:0:0:
224,224,28797,1,0,0:0:0:0:
224,224,29061,1,0,0:0:0:0:
224,160,29324,1,8,0:0:0:0:
224,224,29850,1,0,0:0:0:0:
224,160,30376,1,8,0:0:0:0:
224,224,30640,1,0,0:0:0:0:
224,224,30903,1,0,0:0:0:0:
224,160,31166,1,8,0:0:0:0:
224,224,31429,1,0,0:0:0:0:
224,160,31955,1,8,0:0:0:0:
224,224,32218,1,0,0:0:0:0:
224,224,32482,1,0,0:0:0:0:
224,160,32745,1,8,0:0:0:0:
224,224,33008,1,0,0:0:0:0:
224,224,33271,1,0,0:0:0:0:
224,160,33534,1,8,0:0:0:0:
224,224,34061,1,0,0:0:0:0:
224,224,34329,1,0,0:0:0:0:
224,160,34593,1,8,0:0:0:0:
224,160,34857,1,8,0:0:0:0:
224,224,35122,1,0,0:0:0:0:
224,224,35386,1,0,0:0:0:0:
224,160,35650,1,8,0:0:0:0:
224,224,36179,1,0,0:0:0:0:
224,224,36443,1,0,0:0:0:0:
224,160,36708,1,8,0:0:0:0:
224,160,36972,1,8,0:0:0:0:
224,224,37236,1,0,0:0:0:0:
224,224,37765,1,0,0:0:0:0:
224,224,38029,1,0,0:0:0:0:
224,224,38294,5,0,0:0:0:0:
224,160,38563,1,8,0:0:0:0:
224,160,38826,1,8,0:0:0:0:
256,160,39352,2,4,L|256:128,6,17.5
256,160,39813,2,4,L|256:128,6,17.5
224,224,40405,1,0,0:0:0:0:
224,160,40668,1,8,0:0:0:0:
224,224,40931,1,0,0:0:0:0:
256,192,41392,2,0,L|256:160,15,17.5
224,224,42510,1,0,0:0:0:0:
224,160,42773,1,8,0:0:0:0:
224,160,43036,1,8,0:0:0:0:
256,160,43563,2,4,L|256:128,6,17.5
256,160,44023,2,4,L|256:128,6,17.5
224,224,44615,1,0,0:0:0:0:
224,160,44878,1,8,0:0:0:0:
224,224,45142,1,0,0:0:0:0:
256,192,45602,2,0,L|256:160,15,17.5
224,224,46716,1,0,0:0:0:0:
224,160,47502,1,8,0:0:0:0:
224,160,47764,1,8,0:0:0:0:
224,224,48288,1,0,0:0:0:0:
224,160,48550,1,8,0:0:0:0:
224,224,49074,1,0,0:0:0:0:
224,224,49336,1,0,0:0:0:0:
224,224,49598,1,0,0:0:0:0:
224,224,49772,1,0,0:0:0:0:
224,160,50122,1,8,0:0:0:0:
224,160,50384,1,8,0:0:0:0:
224,224,50646,1,0,0:0:0:0:
224,224,50914,5,0,0:0:0:0:
224,160,51176,1,8,0:0:0:0:
224,224,51438,1,0,0:0:0:0:
224,160,51962,1,8,0:0:0:0:
224,224,52224,1,0,0:0:0:0:
224,224,52486,1,0,0:0:0:0:
224,160,52748,1,8,0:0:0:0:
224,160,53272,1,8,0:0:0:0:
224,224,53534,1,0,0:0:0:0:
224,160,53796,1,8,0:0:0:0:
224,224,54058,1,0,0:0:0:0:
224,160,54582,1,8,0:0:0:0:
224,224,55106,1,0,0:0:0:0:
224,160,55368,1,8,0:0:0:0:
224,224,55630,1,0,0:0:0:0:
224,160,56154,1,8,0:0:0:0:
224,224,56416,1,0,0:0:0:0:
224,160,56678,1,8,0:0:0:0:
224,160,56940,1,8,0:0:0:0:
224,160,57464,1,8,0:0:0:0:
224,160,57726,1,8,0:0:0:0:
224,224,57988,1,0,0:0:0:0:
288,224,58250,1,4,0:0:0:0:
288,160,58774,1,12,0:0:0:0:
224,224,59298,5,0,0:0:0:0:
224,160,59561,1,8,0:0:0:0:
224,224,59824,1,0,0:0:0:0:
224,160,60350,1,8,0:0:0:0:
224,224,60613,1,0,0:0:0:0:
224,224,60876,1,0,0:0:0:0:
224,160,61140,1,8,0:0:0:0:
224,160,61666,1,8,0:0:0:0:
224,224,61929,1,0,0:0:0:0:
224,224,62192,1,0,0:0:0:0:
224,160,62455,1,8,0:0:0:0:
224,160,62719,1,8,0:0:0:0:
224,160,62894,1,8,0:0:0:0:
224,224,63245,1,0,0:0:0:0:
224,160,63771,1,8,0:0:0:0:
224,160,64298,1,8,0:0:0:0:
224,160,64561,1,8,0:0:0:0:
224,224,64824,1,0,0:0:0:0:
224,224,65087,1,0,0:0:0:0:
224,160,65350,1,8,0:0:0:0:
224,160,65526,1,8,0:0:0:0:
224,160,65876,1,8,0:0:0:0:
224,224,66140,1,0,0:0:0:0:
224,224,66403,1,0,0:0:0:0:
288,160,66666,5,12,0:0:0:0:
288,160,67061,5,12,0:0:0:0:
