osu file format v14

[General]
AudioFilename: audio.mp3
AudioLeadIn: 0
PreviewTime: -1
Countdown: 1
SampleSet: Soft
StackLeniency: 0.2
Mode: 0
LetterboxInBreaks: 0
WidescreenStoryboard: 0

[Editor]
DistanceSpacing: 1
BeatDivisor: 4
GridSize: 32
TimelineZoom: 5.700002

[Metadata]
Title:Kiraippai x Sukiippai
TitleUnicode:Kiraippai x Sukiippai
Artist:Oomuro Sakurako
ArtistUnicode:Oomuro Sakurako
Creator:blueloniess
Version:sukiyiiipai
Source:
Tags:
BeatmapID:1459046
BeatmapSetID:689212

[Difficulty]
HPDrainRate:0
CircleSize:4
OverallDifficulty:8
ApproachRate:9.7
SliderMultiplier:1.4
SliderTickRate:1

[Events]
//Background and Video events
//Break Periods
//Storyboard Layer 0 (Background)
//Storyboard Layer 1 (Fail)
//Storyboard Layer 2 (Pass)
//Storyboard Layer 3 (Foreground)
//Storyboard Sound Samples

[TimingPoints]
986,307.692307692308,4,2,0,60,1,0
986,-166.666666666667,4,2,0,60,0,0
8370,-1,4,2,0,60,0,0
9447,-125,4,2,0,60,0,0
10832,-100,4,2,0,60,0,0
20370,-2,4,2,0,60,0,0
20678,-100,4,2,0,60,0,0
40370,-125,4,2,0,60,0,0
49601,-100,4,2,0,60,0,0
60062,-50,4,2,0,60,0,1
74832,-100,4,2,0,60,0,1
79755,-100,4,2,0,60,0,0
89293,-333,4,2,0,60,0,0
89601,-100,4,2,0,60,0,0
109293,-125,4,2,0,60,0,0
118524,-100,4,2,0,60,0,0
128986,-90.9090909090909,4,2,0,60,0,1
143755,-71.4285714285714,4,2,0,60,0,1
145601,-100,4,2,0,60,0,1
148678,-125,4,2,0,60,0,0
168370,-100,4,2,0,60,0,0
199755,-71.4285714285714,4,2,0,60,0,0
200370,-50,4,2,0,60,0,1
216986,-71.4285714285714,4,2,0,60,0,1
217293,-90.9090909090909,4,2,0,60,0,1
219293,-76.9230769230769,4,2,0,60,0,1
219755,-90.9090909090909,4,2,0,60,0,1
220062,-100,4,2,0,60,0,0
228524,-83.3333333333333,4,2,0,60,0,0

[HitObjects]
96,64,524,5,0,0:0:0:0:
96,64,678,1,0,0:0:0:0:
96,64,832,1,0,0:0:0:0:
336,48,986,5,4,0:0:0:0:
208,203,1139,1,0,0:0:0:0:
208,203,1293,1,0,0:0:0:0:
253,27,1447,1,0,0:0:0:0:
253,27,1601,5,4,0:0:0:0:
208,203,1754,1,0,0:0:0:0:
208,203,1908,1,0,0:0:0:0:
167,67,2062,1,0,0:0:0:0:
409,152,2216,5,4,0:0:0:0:
132,178,2370,1,0,0:0:0:0:
132,178,2524,1,4,0:0:0:0:
377,37,2678,5,0,0:0:0:0:
301,310,2832,1,4,0:0:0:0:
86,115,2986,5,0,0:0:0:0:
434,105,3139,1,0,0:0:0:0:
147,304,3293,5,0,0:0:0:0:
388,222,3447,5,4,0:0:0:0:
173,92,3601,1,0,0:0:0:0:
173,92,3755,1,0,0:0:0:0:
422,147,3909,5,0,0:0:0:0:
86,161,4062,1,4,0:0:0:0:
86,161,4216,1,0,0:0:0:0:
420,53,4370,5,0,0:0:0:0:
102,321,4524,1,0,0:0:0:0:
102,321,4678,1,4,0:0:0:0:
361,246,4832,5,0,0:0:0:0:
97,137,4986,1,4,0:0:0:0:
97,137,5139,1,0,0:0:0:0:
339,212,5293,5,4,0:0:0:0:
121,348,5447,5,0,0:0:0:0:
43,43,5601,1,0,0:0:0:0:
486,194,5755,1,0,0:0:0:0:
375,373,5909,5,4,0:0:0:0:
255,39,6062,1,0,0:0:0:0:
255,39,6216,1,0,0:0:0:0:
259,34,6370,1,0,0:0:0:0:
168,365,6524,5,4,0:0:0:0:
382,81,6678,1,0,0:0:0:0:
75,122,6832,1,0,0:0:0:0:
468,41,6986,1,0,0:0:0:0:
337,322,7139,1,4,0:0:0:0:
100,308,7293,5,0,0:0:0:0:
70,48,7447,1,4,0:0:0:0:
70,48,7601,1,4,0:0:0:0:
299,162,7755,1,4,0:0:0:0:
108,278,7909,5,0,0:0:0:0:
181,27,8062,1,0,0:0:0:0:
288,285,8216,1,0,0:0:0:0:
79,137,8370,6,4,L|197:154,1,87.5
433,137,8986,6,4,L|336:158,1,87.5
256,326,9447,6,4,L|247:268,1,56
248,28,9755,5,0,0:0:0:0:
54,248,9909,5,0,0:0:0:0:
443,76,10062,1,0,0:0:0:0:
475,251,10216,5,0,0:0:0:0:
438,286,10293,1,0,0:0:0:0:
380,305,10370,1,0,0:0:0:0:
311,269,10447,1,0,0:0:0:0:
251,209,10524,1,0,0:0:0:0:
174,197,10601,1,0,0:0:0:0:
102,228,10678,1,0,0:0:0:0:
51,286,10755,1,0,0:0:0:0:
22,360,10832,6,0,L|11:201,1,140
142,17,11293,1,0,0:0:0:0:
276,102,11447,2,0,P|196:118|181:113,1,70
393,16,11755,2,0,P|408:67|408:103,1,70
259,329,12062,2,0,L|87:318,2,140
437,301,12832,1,0,0:0:0:0:
333,159,12986,2,0,P|336:221|341:241,1,70
424,373,13293,5,0,0:0:0:0:
477,22,13447,1,0,0:0:0:0:
372,72,13601,2,0,P|294:72|274:63,1,70
161,38,13909,2,0,P|210:73|180:146,1,140
58,211,14370,1,0,0:0:0:0:
51,212,14447,1,0,0:0:0:0:
31,203,14524,1,0,0:0:0:0:
260,27,14678,1,0,0:0:0:0:
376,174,14832,2,0,L|364:256,1,70
107,361,15139,5,0,0:0:0:0:
221,131,15293,1,0,0:0:0:0:
234,172,15370,1,0,0:0:0:0:
252,213,15447,1,0,0:0:0:0:
105,7,15601,1,0,0:0:0:0:
332,56,15755,6,0,B|386:39|423:66|423:66|385:110,2,140,4|0|0,0:0|0:0|0:0,0:0:0:0:
319,348,16524,1,0,0:0:0:0:
432,295,16678,2,0,P|446:232|447:193,1,70
393,99,16909,1,0,0:0:0:0:
385,98,16986,6,0,P|380:147|391:190,1,70
125,242,17293,2,0,P|235:257|263:238,1,140
293,133,17755,1,0,0:0:0:0:
193,40,17909,1,0,0:0:0:0:
36,84,18062,1,0,0:0:0:0:
10,250,18216,5,0,0:0:0:0:
292,347,18370,1,0,0:0:0:0:
166,25,18524,1,0,0:0:0:0:
163,27,18601,1,0,0:0:0:0:
160,29,18678,1,0,0:0:0:0:
136,341,18832,5,0,0:0:0:0:
476,103,18986,1,0,0:0:0:0:
40,101,19139,1,0,0:0:0:0:
40,104,19216,1,0,0:0:0:0:
40,107,19293,1,0,0:0:0:0:
396,343,19601,5,0,0:0:0:0:
133,51,19755,5,0,0:0:0:0:
473,70,19909,5,0,0:0:0:0:
44,254,20062,6,0,L|144:272,1,70
14,207,20370,6,0,B|357:278|357:278|11:207,1,700
389,50,20678,5,0,0:0:0:0:
277,336,20832,1,0,0:0:0:0:
149,59,20986,2,0,P|153:125|147:148,1,70
29,344,21293,1,0,0:0:0:0:
309,156,21447,1,0,0:0:0:0:
181,263,21601,2,0,P|110:257|93:246,1,70
350,35,21909,6,0,P|413:85|400:159,1,140
274,339,22370,1,0,0:0:0:0:
186,121,22524,1,0,0:0:0:0:
448,238,22678,1,0,0:0:0:0:
161,341,22832,2,0,L|62:353,1,70
225,45,23139,5,0,0:0:0:0:
311,157,23293,1,0,0:0:0:0:
187,243,23447,2,0,L|85:232,1,70
341,47,23755,5,0,0:0:0:0:
407,188,23909,1,0,0:0:0:0:
384,298,24062,2,0,L|365:378,1,70
47,109,24370,5,0,0:0:0:0:
347,17,24524,1,0,0:0:0:0:
155,305,24678,5,0,0:0:0:0:
155,43,24832,1,0,0:0:0:0:
446,158,24986,5,0,0:0:0:0:
238,354,25139,5,0,0:0:0:0:
35,228,25293,6,0,B|75:232|75:232|100:201,1,70
453,59,25601,5,0,0:0:0:0:
271,337,25909,5,0,0:0:0:0:
252,337,26062,1,0,0:0:0:0:
241,338,26216,1,0,0:0:0:0:
227,341,26370,1,0,0:0:0:0:
209,342,26524,1,0,0:0:0:0:
182,342,26678,1,0,0:0:0:0:
88,330,26832,1,0,0:0:0:0:
286,347,26986,5,0,0:0:0:0:
202,345,27139,1,0,0:0:0:0:
339,321,27293,5,0,0:0:0:0:
151,354,27447,1,0,0:0:0:0:
94,347,27601,1,0,0:0:0:0:
48,334,27755,1,0,0:0:0:0:
246,346,27909,5,0,0:0:0:0:
162,356,28062,1,0,0:0:0:0:
119,346,28216,1,0,0:0:0:0:
198,348,28370,1,0,0:0:0:0:
78,328,28524,5,0,0:0:0:0:
256,332,28678,1,0,0:0:0:0:
44,304,28832,5,0,0:0:0:0:
206,351,28986,1,0,0:0:0:0:
145,348,29139,5,0,0:0:0:0:
56,348,29293,5,0,0:0:0:0:
226,274,29447,1,0,0:0:0:0:
226,292,29601,1,0,0:0:0:0:
225,301,29755,1,0,0:0:0:0:
27,348,29909,5,0,0:0:0:0:
202,260,30062,1,0,0:0:0:0:
207,290,30216,1,0,0:0:0:0:
209,320,30370,1,0,0:0:0:0:
446,112,30524,5,0,0:0:0:0:
296,197,30678,1,0,0:0:0:0:
269,193,30832,1,0,0:0:0:0:
238,186,30986,1,0,0:0:0:0:
345,205,31139,1,0,0:0:0:0:
201,174,31293,1,0,0:0:0:0:
441,102,31447,5,0,0:0:0:0:
271,212,31601,1,0,0:0:0:0:
197,187,31755,1,0,0:0:0:0:
465,97,31909,5,0,0:0:0:0:
337,192,32062,1,0,0:0:0:0:
265,190,32216,1,0,0:0:0:0:
197,184,32370,1,0,0:0:0:0:
458,89,32524,5,0,0:0:0:0:
279,202,32678,1,0,0:0:0:0:
218,194,32832,1,0,0:0:0:0:
315,177,32986,1,0,0:0:0:0:
176,176,33139,1,0,0:0:0:0:
235,207,33293,1,0,0:0:0:0:
290,218,33447,1,0,0:0:0:0:
455,99,33601,5,0,0:0:0:0:
423,165,33755,1,0,0:0:0:0:
339,202,33909,1,0,0:0:0:0:
201,208,34062,5,0,0:0:0:0:
367,160,34216,1,0,0:0:0:0:
327,193,34370,1,0,0:0:0:0:
254,225,34524,1,0,0:0:0:0:
409,96,34678,1,0,0:0:0:0:
406,159,34832,1,0,0:0:0:0:
357,216,34986,1,0,0:0:0:0:
249,214,35139,5,0,0:0:0:0:
428,131,35293,5,0,0:0:0:0:
206,177,35447,1,0,0:0:0:0:
434,161,35601,1,0,0:0:0:0:
296,212,35755,1,0,0:0:0:0:
397,111,35909,1,0,0:0:0:0:
364,224,36062,1,0,0:0:0:0:
205,148,36216,5,0,0:0:0:0:
421,130,36370,1,0,0:0:0:0:
347,187,36524,1,0,0:0:0:0:
261,190,36678,1,0,0:0:0:0:
411,123,36832,5,0,0:0:0:0:
372,171,36986,1,0,0:0:0:0:
312,189,37139,1,0,0:0:0:0:
244,187,37293,1,0,0:0:0:0:
431,96,37447,5,0,0:0:0:0:
304,181,37601,1,0,0:0:0:0:
236,174,37755,1,0,0:0:0:0:
349,163,37909,1,0,0:0:0:0:
188,127,38062,1,0,0:0:0:0:
307,184,38216,5,0,0:0:0:0:
396,131,38370,1,0,0:0:0:0:
232,158,38524,5,0,0:0:0:0:
444,94,38678,1,0,0:0:0:0:
322,192,38832,5,0,0:0:0:0:
195,157,38986,1,0,0:0:0:0:
347,133,39139,1,0,0:0:0:0:
243,193,39293,1,0,0:0:0:0:
431,98,39447,1,0,0:0:0:0:
302,183,39601,1,0,0:0:0:0:
215,160,39755,1,0,0:0:0:0:
399,25,40062,5,0,0:0:0:0:
429,42,40139,1,0,0:0:0:0:
453,66,40216,1,0,0:0:0:0:
466,98,40293,1,0,0:0:0:0:
468,125,40370,2,0,L|444:250,1,112
346,259,40832,1,0,0:0:0:0:
417,314,40986,2,0,P|380:344|300:333,1,112
250,297,41447,1,0,0:0:0:0:
161,283,41601,2,0,P|108:280|36:322,1,112
88,214,42062,1,0,0:0:0:0:
134,157,42216,2,0,P|154:102|131:39,1,112
225,142,42832,6,0,P|286:160|341:145,1,112
448,31,43293,1,0,0:0:0:0:
399,95,43447,2,0,P|397:129|402:217,1,112
500,326,43909,1,0,0:0:0:0:
435,281,44062,2,0,P|384:281|317:293,1,112
257,337,44524,1,0,0:0:0:0:
163,331,44678,2,0,P|137:308|140:220,1,112
418,25,45293,5,0,0:0:0:0:
338,123,45447,1,0,0:0:0:0:
418,25,45601,1,0,0:0:0:0:
236,67,45755,1,0,0:0:0:0:
338,123,45909,1,0,0:0:0:0:
236,67,46062,1,0,0:0:0:0:
418,25,46216,1,0,0:0:0:0:
338,123,46370,1,0,0:0:0:0:
338,123,46524,1,0,0:0:0:0:
418,25,46678,1,0,0:0:0:0:
236,67,46832,1,0,0:0:0:0:
236,67,46986,1,0,0:0:0:0:
418,25,47139,1,0,0:0:0:0:
338,123,47293,1,0,0:0:0:0:
236,67,47447,1,0,0:0:0:0:
236,67,47601,1,0,0:0:0:0:
338,123,47755,1,0,0:0:0:0:
418,25,47909,1,0,0:0:0:0:
338,123,48062,1,0,0:0:0:0:
236,67,48216,1,0,0:0:0:0:
338,123,48370,1,0,0:0:0:0:
236,67,48524,1,0,0:0:0:0:
418,25,48678,1,0,0:0:0:0:
338,123,48832,1,0,0:0:0:0:
236,67,48986,5,0,0:0:0:0:
338,123,49139,1,0,0:0:0:0:
418,25,49293,1,0,0:0:0:0:
338,123,49447,1,0,0:0:0:0:
236,67,49601,1,0,0:0:0:0:
270,73,49678,1,0,0:0:0:0:
302,85,49755,1,0,0:0:0:0:
330,105,49832,1,0,0:0:0:0:
354,130,49909,1,0,0:0:0:0:
365,163,49986,1,0,0:0:0:0:
363,197,50062,1,0,0:0:0:0:
358,231,50139,1,0,0:0:0:0:
346,264,50216,6,0,L|259:270,1,70
29,92,50524,2,0,L|128:104,1,70
298,92,50832,1,0,0:0:0:0:
90,328,50986,1,0,0:0:0:0:
266,338,51139,2,0,L|278:250,1,70
78,31,51447,5,0,0:0:0:0:
27,272,51601,1,0,0:0:0:0:
261,133,51755,2,0,L|172:126,1,70
75,337,52062,5,0,0:0:0:0:
384,312,52216,1,0,0:0:0:0:
191,127,52370,2,0,L|198:212,1,70
346,364,52678,5,0,0:0:0:0:
442,35,52832,1,0,0:0:0:0:
121,118,52986,2,0,L|211:129,1,70
457,294,53293,5,0,0:0:0:0:
434,267,53370,1,0,0:0:0:0:
404,248,53447,1,0,0:0:0:0:
371,235,53524,1,0,0:0:0:0:
336,230,53601,1,0,0:0:0:0:
59,371,53755,1,0,0:0:0:0:
215,370,53909,6,0,P|256:362|293:340,1,70
352,33,54216,1,0,0:0:0:0:
94,185,54370,1,0,0:0:0:0:
293,314,54524,1,0,0:0:0:0:
236,47,54678,5,0,0:0:0:0:
15,184,54832,1,0,0:0:0:0:
131,329,54986,1,0,0:0:0:0:
256,222,55139,6,0,P|280:167|258:67,1,140
110,181,55601,1,0,0:0:0:0:
206,317,55755,2,0,P|266:326|378:318,1,140
431,99,56216,2,0,P|463:158|437:245,1,140
252,254,56678,1,0,0:0:0:0:
187,122,56832,2,0,P|124:115|48:177,1,140
135,336,57293,1,0,0:0:0:0:
173,26,57447,1,0,0:0:0:0:
339,162,57601,2,0,L|315:234,1,70
21,362,58216,2,0,L|19:263,1,70
467,37,58832,5,0,0:0:0:0:
432,233,58986,1,0,0:0:0:0:
377,20,59139,5,0,0:0:0:0:
215,274,59293,1,0,0:0:0:0:
291,33,59447,5,0,0:0:0:0:
49,177,59601,1,0,0:0:0:0:
482,306,59755,5,0,0:0:0:0:
425,340,59832,1,0,0:0:0:0:
373,360,59909,1,0,0:0:0:0:
306,360,59986,1,0,0:0:0:0:
225,304,60062,2,0,B|175:291|56:319|56:319|68:187,1,280
262,22,60524,1,0,0:0:0:0:
418,129,60678,2,0,L|396:280,1,140
98,362,60986,1,0,0:0:0:0:
35,30,61139,1,0,0:0:0:0:
83,80,61216,1,0,0:0:0:0:
151,93,61293,1,0,0:0:0:0:
465,26,61447,1,0,0:0:0:0:
323,256,61601,2,0,P|251:274|154:266,1,140
242,21,61909,5,0,0:0:0:0:
285,75,61986,1,0,0:0:0:0:
302,142,62062,1,0,0:0:0:0:
11,358,62216,1,0,0:0:0:0:
484,16,62370,1,0,0:0:0:0:
443,305,62524,5,0,0:0:0:0:
62,134,62678,1,0,0:0:0:0:
380,14,62832,1,0,0:0:0:0:
301,276,62986,2,0,P|226:307|20:276,1,280
380,14,63447,2,0,P|411:137|396:178,1,140
59,368,63755,5,0,0:0:0:0:
492,142,63909,1,0,0:0:0:0:
17,14,64062,5,0,0:0:0:0:
501,360,64216,1,0,0:0:0:0:
4,307,64370,5,0,0:0:0:0:
494,38,64524,1,0,0:0:0:0:
322,351,64678,5,0,0:0:0:0:
51,163,64832,1,0,0:0:0:0:
90,105,64909,1,0,0:0:0:0:
156,82,64986,2,0,B|243:85|232:168|326:151,1,140
470,354,65293,1,0,0:0:0:0:
426,26,65447,1,0,0:0:0:0:
130,246,65601,1,0,0:0:0:0:
316,372,65755,1,0,0:0:0:0:
418,105,65909,1,0,0:0:0:0:
5,332,66062,2,0,P|105:347|288:303,1,280
450,107,66524,2,0,P|309:59|149:72,1,280
26,215,66986,1,0,0:0:0:0:
379,264,67139,1,0,0:0:0:0:
69,5,67293,1,0,0:0:0:0:
173,158,67447,6,0,P|173:241|184:314,1,140
259,362,67755,1,0,0:0:0:0:
462,20,67909,1,0,0:0:0:0:
481,108,68062,2,0,P|494:179|470:267,1,140
75,22,68370,1,0,0:0:0:0:
24,304,68524,2,0,P|102:315|146:126,1,280
14,53,68986,2,0,P|39:133|70:193,1,140
288,350,69293,1,0,0:0:0:0:
353,324,69370,1,0,0:0:0:0:
422,318,69447,1,0,0:0:0:0:
489,335,69524,1,0,0:0:0:0:
505,266,69601,2,0,P|508:173|511:75,1,140
248,17,69909,5,0,0:0:0:0:
31,290,70062,1,0,0:0:0:0:
390,304,70216,1,0,0:0:0:0:
235,177,70370,2,0,P|164:132|-49:169,1,280
250,370,70832,1,0,0:0:0:0:
431,43,70986,1,0,0:0:0:0:
209,26,71139,5,0,0:0:0:0:
328,357,71293,1,0,0:0:0:0:
462,109,71447,2,0,P|505:210|366:286,1,280
315,268,71832,1,0,0:0:0:0:
263,220,71909,1,0,0:0:0:0:
502,10,72062,5,0,0:0:0:0:
10,372,72216,1,0,0:0:0:0:
119,0,72370,5,0,0:0:0:0:
242,368,72524,1,0,0:0:0:0:
316,15,72678,1,0,0:0:0:0:
126,151,72832,2,0,P|208:149|281:149,1,140
424,28,73139,1,0,0:0:0:0:
15,121,73293,1,0,0:0:0:0:
110,360,73447,5,0,0:0:0:0:
143,20,73601,1,0,0:0:0:0:
217,364,73755,5,0,0:0:0:0:
226,16,73909,1,0,0:0:0:0:
346,369,74062,5,0,0:0:0:0:
409,12,74216,1,0,0:0:0:0:
13,290,74370,1,0,0:0:0:0:
66,334,74447,1,0,0:0:0:0:
135,342,74524,1,0,0:0:0:0:
193,303,74601,1,0,0:0:0:0:
259,280,74678,1,0,0:0:0:0:
328,291,74755,1,0,0:0:0:0:
356,311,74832,6,0,L|436:288,1,70
480,37,75139,1,0,0:0:0:0:
140,90,75293,2,0,L|124:186,1,70
231,358,75601,1,0,0:0:0:0:
272,25,75755,1,0,0:0:0:0:
57,258,75909,2,0,P|142:269|218:249,1,140
403,330,76370,2,0,P|442:263|437:175,1,140
221,9,76832,5,0,0:0:0:0:
261,357,76986,1,0,0:0:0:0:
384,35,77139,1,0,0:0:0:0:
92,123,77293,1,0,0:0:0:0:
92,123,77755,1,0,0:0:0:0:
346,351,78370,5,0,0:0:0:0:
419,20,78524,1,0,0:0:0:0:
117,293,78678,1,0,0:0:0:0:
481,100,78832,1,0,0:0:0:0:
46,54,78986,1,0,0:0:0:0:
248,367,79139,1,0,0:0:0:0:
270,340,79216,1,0,0:0:0:0:
281,306,79293,1,0,0:0:0:0:
270,272,79370,1,0,0:0:0:0:
250,243,79447,1,0,0:0:0:0:
227,216,79524,1,0,0:0:0:0:
214,183,79601,1,0,0:0:0:0:
225,150,79678,1,0,0:0:0:0:
250,126,79755,6,0,P|318:106|405:133,1,140
511,330,80216,1,0,0:0:0:0:
160,349,80370,2,0,P|110:348|91:338,1,70
163,49,80678,2,0,L|169:155,1,105
141,185,80986,2,0,L|-12:221,1,140
411,3,81447,1,0,0:0:0:0:
465,102,81601,2,0,P|476:167|463:265,1,140
390,366,82062,1,0,0:0:0:0:
215,288,82216,6,0,P|168:284|102:340,1,105
67,384,82524,2,0,L|57:220,1,140
186,35,82986,1,0,0:0:0:0:
325,113,83139,1,0,0:0:0:0:
276,318,83293,2,0,P|240:249|262:168,1,140
325,113,83755,2,0,L|416:98,1,70
409,362,84062,2,0,L|317:381,1,70
356,0,84370,2,0,P|408:35|373:115,1,140
105,337,84832,1,0,0:0:0:0:
109,241,84986,2,0,L|117:144,1,70
393,102,85293,2,0,L|390:260,1,140
387,337,85755,2,0,P|291:321|250:360,1,140
150,371,86216,2,0,P|97:355|71:272,1,140
148,42,86678,1,0,0:0:0:0:
182,40,86755,1,0,0:0:0:0:
216,44,86832,1,0,0:0:0:0:
250,46,86909,1,0,0:0:0:0:
284,47,86986,1,0,0:0:0:0:
466,294,87139,5,0,0:0:0:0:
476,15,87293,1,0,0:0:0:0:
216,297,87370,2,0,P|275:314|316:318,1,70
166,240,87447,5,0,0:0:0:0:
422,354,87755,5,0,0:0:0:0:
234,9,87909,1,0,0:0:0:0:
49,363,88062,1,0,0:0:0:0:
397,188,88216,2,0,L|244:214,1,140
62,266,88678,1,0,0:0:0:0:
441,15,88832,1,0,0:0:0:0:
252,357,88986,1,0,0:0:0:0:
138,97,89293,6,0,L|141:123,1,21.021021021021
369,294,89601,6,0,L|277:304,1,70
217,111,89909,2,0,L|226:276,1,140
160,367,90370,1,0,0:0:0:0:
70,367,90524,2,0,L|-6:366,1,70
394,51,90832,5,0,0:0:0:0:
412,283,90986,1,0,0:0:0:0:
266,115,91139,1,0,0:0:0:0:
494,166,91293,1,0,0:0:0:0:
286,245,91447,1,0,0:0:0:0:
151,21,91601,5,0,0:0:0:0:
234,337,91755,2,0,P|273:329|348:306,1,105
401,180,92062,2,0,P|392:236|391:275,1,70
461,365,92370,1,0,0:0:0:0:
506,215,92524,1,0,0:0:0:0:
241,236,92678,1,0,0:0:0:0:
368,384,92832,1,0,0:0:0:0:
471,109,92986,2,0,L|476:6,1,70
90,20,93293,5,0,0:0:0:0:
133,371,93447,1,0,0:0:0:0:
308,56,93601,1,0,0:0:0:0:
0,214,93755,1,0,0:0:0:0:
342,281,93909,1,0,0:0:0:0:
426,52,94062,5,0,0:0:0:0:
34,122,94216,1,0,0:0:0:0:
474,39,94370,1,0,0:0:0:0:
34,122,94524,1,0,0:0:0:0:
336,221,94832,5,0,0:0:0:0:
150,338,94986,1,0,0:0:0:0:
172,337,95139,1,0,0:0:0:0:
190,338,95293,1,0,0:0:0:0:
28,237,95447,5,0,0:0:0:0:
347,351,95601,1,0,0:0:0:0:
414,335,95755,1,0,0:0:0:0:
461,316,95909,1,0,0:0:0:0:
482,190,96062,5,0,0:0:0:0:
190,338,96216,1,0,0:0:0:0:
172,337,96370,1,0,0:0:0:0:
150,338,96523,1,0,0:0:0:0:
28,237,96678,5,0,0:0:0:0:
150,338,96832,1,0,0:0:0:0:
172,337,96985,1,0,0:0:0:0:
190,338,97139,1,0,0:0:0:0:
461,316,97293,1,0,0:0:0:0:
414,335,97447,1,0,0:0:0:0:
347,351,97601,1,0,0:0:0:0:
150,338,97755,1,0,0:0:0:0:
172,337,97908,1,0,0:0:0:0:
190,338,98062,1,0,0:0:0:0:
482,190,98216,5,0,0:0:0:0:
150,338,98370,1,0,0:0:0:0:
461,316,98524,1,0,0:0:0:0:
28,237,98678,1,0,0:0:0:0:
482,190,98832,5,0,0:0:0:0:
150,338,98986,1,0,0:0:0:0:
461,316,99140,1,0,0:0:0:0:
28,237,99294,1,0,0:0:0:0:
326,50,99447,5,0,0:0:0:0:
43,123,99601,1,0,0:0:0:0:
225,249,99755,2,0,L|210:162,1,70
190,20,100062,1,0,0:0:0:0:
113,356,100216,1,0,0:0:0:0:
236,351,100370,2,0,L|320:338,1,70
431,38,100678,5,0,0:0:0:0:
36,206,100832,1,0,0:0:0:0:
493,201,100986,1,0,0:0:0:0:
84,9,101139,1,0,0:0:0:0:
305,340,101293,1,0,0:0:0:0:
288,74,101447,5,0,0:0:0:0:
159,132,101601,2,0,L|166:233,1,70
258,322,101909,5,0,0:0:0:0:
360,66,102062,1,0,0:0:0:0:
72,271,102216,2,0,L|167:273,1,70
398,131,102524,1,0,0:0:0:0:
68,186,102678,5,0,0:0:0:0:
208,34,102832,2,0,L|206:127,1,70
316,345,103139,5,0,0:0:0:0:
372,32,103293,1,0,0:0:0:0:
25,275,103447,1,0,0:0:0:0:
490,169,103601,1,0,0:0:0:0:
8,40,103755,1,0,0:0:0:0:
176,236,103909,5,0,0:0:0:0:
293,326,104062,2,0,L|384:327,1,70
132,162,104370,5,0,0:0:0:0:
285,242,104524,2,0,L|369:241,1,70
448,49,104832,1,0,0:0:0:0:
265,83,104986,2,0,L|170:81,1,70
103,320,105293,1,0,0:0:0:0:
388,161,105447,1,0,0:0:0:0:
67,120,105601,6,0,L|52:217,1,70
429,358,105909,5,0,0:0:0:0:
441,325,105986,1,0,0:0:0:0:
449,291,106062,1,0,0:0:0:0:
446,256,106139,1,0,0:0:0:0:
437,222,106216,1,0,0:0:0:0:
353,149,106293,5,0,0:0:0:0:
323,167,106370,1,0,0:0:0:0:
288,173,106447,1,0,0:0:0:0:
253,165,106524,1,0,0:0:0:0:
222,148,106601,1,0,0:0:0:0:
105,82,106678,1,0,0:0:0:0:
78,105,106755,1,0,0:0:0:0:
66,138,106832,6,0,L|71:294,1,140
306,356,107293,1,0,0:0:0:0:
446,246,107447,6,0,L|441:90,1,140
206,28,107908,1,0,0:0:0:0:
206,28,107909,2,0,P|153:40|126:133,1,140
406,342,108370,1,0,0:0:0:0:
434,37,108524,5,0,0:0:0:0:
62,277,108678,1,0,0:0:0:0:
239,338,108832,5,0,0:0:0:0:
268,319,108909,1,0,0:0:0:0:
303,317,108986,1,0,0:0:0:0:
372,367,109062,5,0,0:0:0:0:
406,364,109139,1,0,0:0:0:0:
433,342,109216,1,0,0:0:0:0:
486,281,109293,6,0,P|462:234|465:156,1,112
496,41,109755,1,0,0:0:0:0:
428,106,109909,2,0,P|379:117|296:111,1,112
227,29,110370,2,0,P|237:75|230:158,1,112
146,215,110832,2,0,L|69:208,1,56
211,313,111139,2,0,L|340:308,1,112
146,215,111601,1,0,0:0:0:0:
80,290,111755,2,0,P|72:339|84:368,1,56
227,178,112062,2,0,P|264:137|265:61,1,112
220,17,112524,1,0,0:0:0:0:
347,133,112678,2,0,P|395:138|473:120,1,112
460,209,113139,2,0,P|461:257|473:343,1,112
321,303,113601,2,0,P|285:298|250:312,1,56
113,225,113909,2,0,P|141:230|169:227,1,56
347,103,114216,6,0,P|305:86|240:125,1,112
284,274,114678,1,0,0:0:0:0:
394,182,114832,1,0,0:0:0:0:
228,185,114986,1,0,0:0:0:0:
401,299,115139,1,0,0:0:0:0:
444,49,115293,1,0,0:0:0:0:
328,172,115447,1,0,0:0:0:0:
459,145,115601,1,0,0:0:0:0:
301,57,115755,1,0,0:0:0:0:
313,314,115909,1,0,0:0:0:0:
406,151,116062,1,0,0:0:0:0:
187,239,116216,1,0,0:0:0:0:
403,301,116370,1,0,0:0:0:0:
161,48,116524,1,0,0:0:0:0:
83,132,116678,6,0,P|60:201|58:254,1,112
148,329,117139,1,0,0:0:0:0:
450,364,117293,2,0,P|472:310|471:244,1,112
376,7,117755,1,0,0:0:0:0:
69,194,117909,6,0,L|170:192,1,84
313,255,118216,2,0,L|210:257,1,84
366,42,118524,5,0,0:0:0:0:
456,71,118601,1,0,0:0:0:0:
470,102,118678,1,0,0:0:0:0:
473,136,118755,1,0,0:0:0:0:
429,227,118832,1,0,0:0:0:0:
421,261,118909,1,0,0:0:0:0:
409,359,118986,1,0,0:0:0:0:
375,350,119062,1,0,0:0:0:0:
271,335,119139,6,0,L|189:338,1,70
87,92,119447,2,0,L|91:251,1,140
127,356,119909,1,0,0:0:0:0:
260,127,120062,2,0,L|173:140,1,70
464,286,120370,5,0,0:0:0:0:
411,34,120524,1,0,0:0:0:0:
329,175,120678,6,0,L|330:257,1,70
470,381,120986,2,0,L|467:216,1,140
469,36,121447,1,0,0:0:0:0:
144,175,121601,1,0,0:0:0:0:
285,29,121755,6,0,L|288:114,1,70
140,312,122062,5,0,0:0:0:0:
128,57,122216,1,0,0:0:0:0:
376,143,122370,6,0,L|374:217,1,70
196,356,122678,5,0,0:0:0:0:
56,166,122832,1,0,0:0:0:0:
403,33,122986,1,0,0:0:0:0:
229,332,123139,1,0,0:0:0:0:
226,70,123293,5,0,0:0:0:0:
449,293,123447,1,0,0:0:0:0:
439,32,123601,5,0,0:0:0:0:
229,332,123755,1,0,0:0:0:0:
52,97,123909,1,0,0:0:0:0:
229,332,124062,6,0,P|139:339|65:338,1,140
29,238,124524,1,0,0:0:0:0:
276,264,124678,2,0,P|304:301|310:342,1,70
86,170,124986,2,0,P|87:125|100:97,1,70
331,125,125293,2,0,L|177:158,1,140
347,23,125755,1,0,0:0:0:0:
428,102,125909,2,0,L|414:175,1,70
332,309,126216,2,0,L|321:232,1,70
101,30,126524,5,0,0:0:0:0:
491,301,127139,5,0,0:0:0:0:
423,25,127755,5,0,0:0:0:0:
63,288,128062,5,0,0:0:0:0:
270,149,128370,5,0,0:0:0:0:
399,338,128678,5,0,0:0:0:0:
366,324,128755,1,0,0:0:0:0:
258,301,128832,1,0,0:0:0:0:
225,313,128909,1,0,0:0:0:0:
126,358,128986,6,0,L|41:336,1,77.0000023498536
476,46,129293,1,0,0:0:0:0:
475,245,129447,2,0,P|374:252|296:242,1,154.000004699707
75,47,129909,1,0,0:0:0:0:
24,188,130062,2,0,P|40:312|57:351,1,154.000004699707
201,256,130524,2,0,P|261:246|360:278,1,154.000004699707
430,328,130986,1,0,0:0:0:0:
454,298,131062,1,0,0:0:0:0:
474,265,131139,1,0,0:0:0:0:
21,8,131293,1,0,0:0:0:0:
251,342,131447,5,0,0:0:0:0:
486,47,131601,1,0,0:0:0:0:
20,174,131755,1,0,0:0:0:0:
425,325,131909,2,0,L|416:134,1,154.000004699707
106,15,132370,1,0,0:0:0:0:
46,134,132524,2,0,L|47:304,1,154.000004699707
323,363,132986,1,0,0:0:0:0:
478,82,133139,1,0,0:0:0:0:
42,83,133293,5,0,0:0:0:0:
433,190,133447,1,0,0:0:0:0:
29,255,133601,1,0,0:0:0:0:
359,328,133755,1,0,0:0:0:0:
201,35,133909,2,0,P|198:131|209:206,1,154.000004699707
359,328,134370,2,0,P|366:265|367:155,1,154.000004699707
76,31,134832,1,0,0:0:0:0:
224,342,134986,1,0,0:0:0:0:
389,30,135139,1,0,0:0:0:0:
9,197,135293,1,0,0:0:0:0:
469,198,135447,2,0,B|483:150|455:82|455:82|439:134,1,154.000004699707
369,338,135909,1,0,0:0:0:0:
330,332,135986,1,0,0:0:0:0:
292,326,136062,1,0,0:0:0:0:
253,322,136139,1,0,0:0:0:0:
214,315,136216,1,0,0:0:0:0:
109,28,136370,5,0,0:0:0:0:
457,150,136524,1,0,0:0:0:0:
21,264,136678,1,0,0:0:0:0:
260,38,136832,1,0,0:0:0:0:
322,348,136986,1,0,0:0:0:0:
30,126,137139,5,0,0:0:0:0:
407,194,137293,1,0,0:0:0:0:
151,319,137447,1,0,0:0:0:0:
213,51,137601,2,0,P|220:125|215:163,1,77.0000023498536
442,296,137909,2,0,P|371:290|340:281,1,77.0000023498536
46,239,138216,2,0,P|95:241|144:248,1,77.0000023498536
424,368,138524,5,0,0:0:0:0:
458,277,138601,1,0,0:0:0:0:
469,179,138678,1,0,0:0:0:0:
445,121,138755,1,0,0:0:0:0:
366,59,138832,6,0,P|357:117|363:240,1,154.000004699707
499,338,139293,1,0,0:0:0:0:
150,90,139447,1,0,0:0:0:0:
68,283,139601,1,0,0:0:0:0:
297,338,139755,1,0,0:0:0:0:
306,52,139909,2,0,P|366:43|460:105,1,154.000004699707
240,200,140370,2,0,P|157:182|146:178,1,77.0000023498536
470,97,140678,1,0,0:0:0:0:
458,181,140755,1,0,0:0:0:0:
436,258,140832,1,0,0:0:0:0:
9,321,140986,1,0,0:0:0:0:
494,29,141139,1,0,0:0:0:0:
5,0,141293,5,0,0:0:0:0:
467,368,141447,1,0,0:0:0:0:
450,23,141601,1,0,0:0:0:0:
4,359,141755,2,0,P|131:358|190:348,1,154.000004699707
432,228,142216,1,0,0:0:0:0:
24,112,142370,5,0,0:0:0:0:
496,23,142524,1,0,0:0:0:0:
0,268,142678,5,0,0:0:0:0:
507,364,142832,1,0,0:0:0:0:
4,3,142986,5,0,0:0:0:0:
256,384,143139,1,0,0:0:0:0:
512,0,143293,1,0,0:0:0:0:
5,185,143447,5,0,0:0:0:0:
127,121,143524,1,0,0:0:0:0:
258,105,143601,1,0,0:0:0:0:
381,125,143678,1,0,0:0:0:0:
473,185,143755,1,0,0:0:0:0:
132,342,144216,5,0,0:0:0:0:
219,43,144678,1,0,0:0:0:0:
395,297,144832,1,0,0:0:0:0:
91,244,144986,2,0,P|64:184|67:30,1,195.999994018555
393,73,145447,1,0,0:0:0:0:
403,264,145601,2,0,P|304:264|251:254,1,140
122,113,146062,1,0,0:0:0:0:
153,97,146139,1,0,0:0:0:0:
188,98,146216,1,0,0:0:0:0:
429,359,146370,5,0,0:0:0:0:
26,232,146524,1,0,0:0:0:0:
428,55,146678,1,0,0:0:0:0:
189,331,146832,1,0,0:0:0:0:
244,9,146986,1,0,0:0:0:0:
346,352,147139,1,0,0:0:0:0:
109,118,147293,1,0,0:0:0:0:
440,105,147447,5,0,0:0:0:0:
424,136,147524,1,0,0:0:0:0:
400,161,147601,1,0,0:0:0:0:
370,179,147678,1,0,0:0:0:0:
334,179,147755,1,0,0:0:0:0:
221,157,147832,1,0,0:0:0:0:
165,142,147909,1,0,0:0:0:0:
96,148,147986,1,0,0:0:0:0:
51,178,148062,1,0,0:0:0:0:
63,307,148139,1,0,0:0:0:0:
145,336,148216,1,0,0:0:0:0:
251,331,148293,1,0,0:0:0:0:
343,283,148370,1,0,0:0:0:0:
440,292,148447,1,0,0:0:0:0:
464,143,148524,1,0,0:0:0:0:
238,22,148601,1,0,0:0:0:0:
37,193,148678,1,0,0:0:0:0:
