osu file format v14

[General]
AudioFilename: audio.mp3
AudioLeadIn: 0
PreviewTime: 51907
Countdown: 0
SampleSet: Soft
StackLeniency: 0.4
Mode: 0
LetterboxInBreaks: 0
WidescreenStoryboard: 1

[Editor]
Bookmarks: 12699,31701,70909,72097
DistanceSpacing: 1
BeatDivisor: 4
GridSize: 8
TimelineZoom: 2.7

[Metadata]
Title:Sacchan no Sexy Curry (TV Size)
TitleUnicode:さっちゃんのセクシーカレー (TV Size)
Artist:Oomori Seiko
ArtistUnicode:大森靖子
Creator:agai132
Version:Normal
Source:食戟のソーマ
Tags:shokugeki no soma ed 2 nao sadatsuka
BeatmapID:2125017
BeatmapSetID:1015382

[Difficulty]
HPDrainRate:4
CircleSize:3
OverallDifficulty:4
ApproachRate:4
SliderMultiplier:0.95
SliderTickRate:1

[Events]
//Background and Video events
0,0,"nao.jpg",0,0
//Break Periods
//Storyboard Layer 0 (Background)
//Storyboard Layer 1 (Fail)
//Storyboard Layer 2 (Pass)
//Storyboard Layer 3 (Foreground)
//Storyboard Layer 4 (Overlay)
//Storyboard Sound Samples

[TimingPoints]
215,594.059405940594,4,2,1,50,1,0
810,594.059405940594,4,2,1,50,1,0
810,-71.4285714285714,4,2,1,50,0,0
5562,-66.6666666666667,4,2,1,50,0,0
12691,-80,4,2,1,40,0,0
31701,-76.9230769230769,4,2,1,50,0,0
47740,-100,4,2,1,50,0,0
49819,-100,4,2,1,20,0,0
50710,-100,4,2,1,50,0,0
53087,-58.8235294117647,4,2,2,55,0,1
62295,-58.8235294117647,4,2,1,55,0,1
62592,-58.8235294117647,4,2,2,55,0,1
70909,-58.8235294117647,4,2,2,55,0,0
71503,-58.8235294117647,4,2,1,55,0,0
72097,-58.8235294117647,4,2,1,55,0,1
72542,-58.8235294117647,4,2,3,55,0,1
87542,-181.818181818181,4,2,2,35,0,0
88136,-181.818181818181,4,2,2,20,0,0

[Colours]
Combo1 : 177,0,0
Combo2 : 255,229,138
Combo3 : 0,64,128

[HitObjects]
0,214,810,6,0,L|166:195,1,132.999995941162,4|0,3:2|3:0,0:0:0:0:
212,229,1701,2,0,L|300:238,1,66.4999979705811,0|0,0:0|3:0,0:0:0:0:
313,351,2592,1,0,3:0:0:0:
433,325,3186,6,0,P|480:264|449:189,1,132.999995941162,0|0,3:0|3:0,0:0:0:0:
407,130,4077,2,0,L|420:-8,1,132.999995941162,0|2,0:0|0:0,0:0:0:0:
329,58,4968,2,0,L|324:26,2,33.2499989852906,8|4|2,0:0|3:0|3:0,0:0:0:0:
234,122,5562,6,0,P|162:133|91:96,1,142.500005435944,4|8,3:2|0:0,0:0:0:0:
0,143,6453,2,0,L|20:298,1,142.500005435944,4|0,3:2|3:0,0:0:0:0:
99,240,7344,1,8,0:0:0:0:
104,339,7641,2,0,B|161:355|161:355|277:315,1,142.500005435944,4|0,3:2|3:0,0:0:0:0:
333,263,8532,6,0,L|497:277,1,142.500005435944,12|8,0:0|0:0,0:0:0:0:
256,192,10314,12,0,12394,0:0:0:0:
128,74,12691,6,0,L|57:90,2,59.375,4|0|0,3:2|0:0|3:0,0:0:0:0:
289,59,13879,2,0,P|320:77|367:72,1,59.375,0|0,0:0|0:0,0:0:0:0:
424,38,14473,2,0,P|455:20|502:25,1,59.375,0|0,3:0|0:0,0:0:0:0:
474,105,15067,6,0,L|469:170,2,59.375,0|0|0,3:0|0:0|0:0,0:0:0:0:
375,252,16255,2,0,P|346:257|318:252,1,59.375,0|0,0:0|0:0,0:0:0:0:
260,309,16849,2,0,P|239:287|230:260,1,59.375,0|0,3:0|0:0,0:0:0:0:
200,165,17443,6,0,B|258:154,2,59.375,0|0|0,3:0|0:0|0:0,0:0:0:0:
46,196,18631,2,0,L|52:277,1,59.375,0|0,0:0|0:0,0:0:0:0:
140,286,19225,2,0,L|135:345,1,59.375,0|0,3:0|0:0,0:0:0:0:
261,357,19819,6,0,P|322:361|364:322,1,118.75,0|0,3:0|0:0,0:0:0:0:
314,152,21008,2,0,P|253:148|211:187,1,118.75,0|0,0:0|3:0,0:0:0:0:
411,193,22196,6,0,L|500:202,2,59.375,0|0|0,3:0|0:0|0:0,0:0:0:0:
373,272,23087,1,0,0:0:0:0:
337,354,23384,2,0,L|204:334,1,118.75,0|0,0:0|3:0,0:0:0:0:
131,298,24275,1,0,0:0:0:0:
131,298,24572,6,0,P|123:330|126:360,2,59.375,0|0|0,3:0|0:0|0:0,0:0:0:0:
208,247,25463,1,0,0:0:0:0:
208,247,25760,2,0,P|216:215|213:185,1,59.375,0|0,0:0|0:0,0:0:0:0:
121,207,26354,2,0,P|119:177|126:148,1,59.375,0|0,3:0|0:0,0:0:0:0:
125,34,26948,6,0,L|255:48,1,118.75,0|0,3:0|3:0,0:0:0:0:
313,118,27839,2,0,L|443:104,1,118.75,0|0,0:0|0:0,0:0:0:0:
484,32,28730,1,0,3:0:0:0:
473,203,29324,6,0,L|484:297,2,89.0625,4|8|0,3:2|0:0|3:0,0:0:0:0:
376,167,30661,1,8,0:0:0:0:
287,137,31107,1,8,0:0:0:0:
217,254,31701,6,0,P|156:266|99:235,1,123.499994346619,4|8,3:2|0:0,0:0:0:0:
21,187,32592,2,0,L|41:56,1,123.499994346619,0|0,3:0|3:2,0:0:0:0:
139,113,33483,2,0,P|145:140|118:141,1,61.7499971733095,8|0,0:0|0:0,0:0:0:0:
183,27,34077,2,0,L|121:19,2,61.7499971733095,0|0|8,3:0|0:0|0:0,0:0:0:0:
266,81,34968,1,0,3:0:0:0:
356,38,35265,2,0,P|411:31|454:54,1,61.7499971733095,0|0,0:0|3:0,0:0:0:0:
470,117,35859,2,0,P|415:124|372:101,1,61.7499971733095,8|0,0:0|0:0,0:0:0:0:
303,180,36453,6,0,B|317:212|317:212|302:312,1,123.499994346619,0|8,3:0|0:0,0:0:0:0:
177,356,37344,2,0,B|163:324|163:324|178:224,1,123.499994346619,0|0,3:0|3:0,0:0:0:0:
132,151,38235,1,8,0:0:0:0:
192,75,38532,2,0,L|327:63,1,123.499994346619,0|0,3:0|3:0,0:0:0:0:
392,124,39423,1,8,0:0:0:0:
392,124,40017,6,0,B|437:113|437:113|469:126,1,61.7499971733095,0|0,3:0|3:0,0:0:0:0:
512,211,40611,2,0,P|478:221|434:207,1,61.7499971733095,8|0,0:0|0:0,0:0:0:0:
368,185,41206,6,0,L|317:191,2,30.8749985866547,0|0|0,3:0|0:0|0:0,0:0:0:0:
325,283,41800,2,0,P|284:301|247:298,1,61.7499971733095,8|0,0:0|3:0,0:0:0:0:
228,384,42394,2,0,P|192:356|176:322,1,61.7499971733095,0|0,0:0|3:0,0:0:0:0:
95,353,42988,2,0,P|100:308|122:277,1,61.7499971733095,8|0,0:0|0:0,0:0:0:0:
209,214,43582,6,0,B|232:172|232:172|226:88,1,123.499994346619,0|8,3:0|0:0,0:0:0:0:
136,11,44473,2,0,B|113:53|113:53|118:128,1,123.499994346619,0|0,3:0|3:0,0:0:0:0:
226,96,45364,1,8,0:0:0:0:
459,143,45958,6,0,P|428:175|448:266,1,123.499994346619,0|8,3:0|0:0,0:0:0:0:
374,352,46849,2,0,L|305:340,1,61.7499971733095,0|0,3:0|0:0,0:0:0:0:
218,370,47443,1,0,3:0:0:0:
209,259,47740,2,0,P|230:221|229:159,1,95,8|4,0:0|3:2,0:0:0:0:
159,54,49819,5,8,3:2:0:0:
205,58,50116,1,8,3:2:0:0:
250,62,50413,1,8,3:2:0:0:
348,132,50710,5,8,3:2:0:0:
445,107,51008,1,8,3:2:0:0:
354,154,51899,5,8,3:2:0:0:
257,179,52197,1,8,3:2:0:0:
184,106,52493,1,12,0:0:0:0:
88,296,53087,6,0,L|205:282,1,80.750001540184,4|0,3:2|0:0,0:0:0:0:
255,227,53681,2,0,L|335:236,1,80.750001540184,8|0,0:0|0:0,0:0:0:0:
434,314,54275,2,0,P|465:261|424:170,1,161.500003080368,0|8,3:2|0:0,0:0:0:0:
443,15,55463,6,0,P|387:38|342:20,1,80.750001540184,0|0,3:0|0:0,0:0:0:0:
281,94,56057,2,0,P|225:71|180:89,1,80.750001540184,8|0,0:0|0:0,0:0:0:0:
100,118,56651,2,0,B|134:154|134:154|115:272,1,161.500003080368,0|8,3:0|0:0,0:0:0:0:
91,374,57542,6,0,L|151:362,1,40.375000770092,0|0,0:0|0:0,0:0:0:0:
162,371,57839,1,0,3:0:0:0:
227,278,58136,6,0,L|287:290,1,40.375000770092,0|0,0:0|0:0,0:0:0:0:
291,268,58433,1,8,0:0:0:0:
327,352,58730,1,0,0:0:0:0:
438,337,59027,1,0,3:0:0:0:
438,337,59324,2,0,P|463:288|456:245,1,80.750001540184,0|8,3:0|0:0,0:0:0:0:
392,187,59918,2,0,L|401:136,1,40.375000770092,0|0,0:0|0:0,0:0:0:0:
427,132,60215,6,0,P|436:90|418:45,1,80.750001540184,0|0,3:0|0:0,0:0:0:0:
328,32,60810,2,0,L|230:45,1,80.750001540184,8|0,0:0|0:0,0:0:0:0:
186,120,61404,2,0,P|126:126|90:97,1,80.750001540184,0|0,3:0|3:0,0:0:0:0:
66,37,61998,2,0,P|103:24|142:34,1,80.750001540184,8|4,0:0|3:0,0:0:0:0:
242,64,62592,6,0,B|265:109|265:109|260:138,2,80.750001540184,4|0|12,3:2|0:0|0:0,0:0:0:0:
174,122,63483,1,0,0:0:0:0:
275,160,63780,2,0,L|380:149,1,80.750001540184,0|0,3:0|0:0,0:0:0:0:
416,222,64374,2,0,P|458:190|499:186,1,80.750001540184,8|0,0:0|0:0,0:0:0:0:
454,324,64968,5,0,3:0:0:0:
405,317,65265,1,0,0:0:0:0:
356,310,65562,1,8,0:0:0:0:
307,303,65859,1,0,0:0:0:0:
205,340,66156,6,0,B|166:351|166:351|111:309,1,80.750001540184,0|0,3:0|0:0,0:0:0:0:
135,221,66750,2,0,B|96:210|96:210|41:252,1,80.750001540184,8|0,0:0|0:0,0:0:0:0:
2,159,67344,6,0,P|24:115|9:59,1,80.750001540184,0|0,3:0|0:0,0:0:0:0:
124,50,67938,2,0,P|127:89|147:124,1,80.750001540184
238,65,68532,5,0,3:0:0:0:
238,65,68829,5,0,3:0:0:0:
238,65,69126,6,0,L|329:75,1,80.750001540184,12|0,0:0|0:0,0:0:0:0:
417,140,69720,2,0,P|433:110|399:109,1,80.750001540184,0|0,3:0|3:0,0:0:0:0:
325,165,70314,1,12,0:0:0:0:
429,321,70909,6,0,L|310:334,1,80.750001540184,0|0,0:0|3:0,0:0:0:0:
255,379,71503,2,0,L|207:369,2,40.375000770092,8|4|2,0:0|3:0|3:0,0:0:0:0:
202,266,72097,6,0,L|75:294,1,121.125002310276,4|0,3:2|0:0,0:0:0:0:
72,279,72691,1,10,0:0:0:0:
114,45,73285,2,0,P|166:67|219:52,3,80.750001540184,2|0|10|0,3:2|3:0|0:0|0:0,0:0:0:0:
291,26,74473,6,0,L|283:143,1,80.750001540184,2|0,3:2|0:0,0:0:0:0:
380,156,75067,2,0,L|374:236,1,80.750001540184,10|0,0:0|0:0,0:0:0:0:
351,327,75661,2,0,P|315:310|293:277,1,80.750001540184,2|0,3:2|3:0,0:0:0:0:
201,293,76255,2,0,P|198:253|216:218,1,80.750001540184,12|0,0:0|0:0,0:0:0:0:
311,132,76849,6,0,B|327:105|327:105|316:14,1,121.125002310276,4|0,3:2|0:0,0:0:0:0:
335,6,77443,1,10,0:2:0:0:
134,107,78037,2,0,P|78:101|47:72,3,80.750001540184,2|0|10|0,3:2|3:0|0:0|0:0,0:0:0:0:
168,27,79225,6,0,L|256:52,1,80.750001540184,2|0,3:2|0:0,0:0:0:0:
207,137,79819,2,0,L|229:225,1,80.750001540184,10|0,0:0|0:0,0:0:0:0:
165,278,80413,2,0,P|196:301|236:306,1,80.750001540184,2|0,3:2|3:0,0:0:0:0:
260,384,81008,2,0,P|298:366|325:320,1,80.750001540184,12|0,0:0|0:0,0:0:0:0:
307,208,81602,6,0,L|455:229,1,121.125002310276,4|0,3:2|0:0,0:0:0:0:
438,208,82196,1,10,0:0:0:0:
248,83,82790,2,0,P|206:78|168:96,3,80.750001540184,2|0|10|0,3:2|3:0|0:0|0:0,0:0:0:0:
71,161,83978,6,0,B|52:141|52:141|63:70,1,80.750001540184,2|0,3:2|0:0,0:0:0:0:
161,20,84572,2,0,B|180:40|180:40|168:114,1,80.750001540184,10|0,0:0|0:0,0:0:0:0:
262,160,85166,2,0,L|278:62,1,80.750001540184,2|0,3:2|3:0,0:0:0:0:
388,53,85760,2,0,L|375:133,1,80.750001540184,12|0,0:0|0:0,0:0:0:0:
250,165,86354,6,0,B|235:201|235:201|255:292,1,121.125002310276,4|0,3:2|0:0,0:0:0:0:
237,292,86948,1,8,0:0:0:0:
426,274,87542,6,0,P|434:271|452:270,1,26.1250007972718,0|0,0:0|0:0,0:0:0:0:
490,321,88136,2,0,P|476:320|464:316,1,26.1250007972718,0|0,0:0|0:0,0:0:0:0:
