osu file format v14

[General]
AudioFilename: audio.mp3
AudioLeadIn: 0
PreviewTime: 51907
Countdown: 0
SampleSet: Soft
StackLeniency: 0.4
Mode: 0
LetterboxInBreaks: 0
WidescreenStoryboard: 0

[Editor]
Bookmarks: 12699,31701,70909,72097
DistanceSpacing: 0.3
BeatDivisor: 4
GridSize: 8
TimelineZoom: 2.7

[Metadata]
Title:Sacchan no Sexy Curry (TV Size)
TitleUnicode:さっちゃんのセクシーカレー (TV Size)
Artist:Oomori Seiko
ArtistUnicode:大森靖子
Creator:agai132
Version:Hard
Source:食戟のソーマ
Tags:shokugeki no soma ed 2 nao sadatsuka
BeatmapID:2125015
BeatmapSetID:1015382

[Difficulty]
HPDrainRate:4.5
CircleSize:4
OverallDifficulty:6
ApproachRate:7
SliderMultiplier:1.4
SliderTickRate:1

[Events]
//Background and Video events
0,0,"nao.jpg",0,0
//Break Periods
//Storyboard Layer 0 (Background)
//Storyboard Layer 1 (Fail)
//Storyboard Layer 2 (Pass)
//Storyboard Layer 3 (Foreground)
//Storyboard Layer 4 (Overlay)
//Storyboard Sound Samples

[TimingPoints]
215,594.059405940594,4,2,1,50,1,0
810,594.059405940594,4,2,1,50,1,0
810,-71.4285714285714,4,2,1,50,0,0
5562,-66.6666666666667,4,2,1,50,0,0
12691,-80,4,2,1,50,0,0
13136,-80,4,2,1,40,0,0
29324,-153.846153846153,4,2,1,50,0,0
31701,-76.9230769230769,4,2,1,50,0,0
47740,-100,4,2,1,50,0,0
48334,-333.333333333333,4,2,1,50,0,0
49819,-333.333333333333,4,2,1,20,0,0
50710,-333.333333333333,4,2,1,50,0,0
52493,-333.333333333333,4,2,2,50,0,0
53087,-58.8235294117647,4,2,2,55,0,1
62146,-58.8235294117647,4,2,1,55,0,1
62592,-58.8235294117647,4,2,1,55,0,1
63186,-58.8235294117647,4,2,2,55,0,1
70760,-58.8235294117647,4,2,1,50,0,1
71206,-58.8235294117647,4,2,1,50,0,0
72097,-43.4782608695652,4,2,1,55,0,1
72691,-43.4782608695652,4,2,3,55,0,1
73285,-55.5555555555555,4,2,3,55,0,1
74473,-52.6315789473684,4,2,3,55,0,1
75067,-55.5555555555555,4,2,3,55,0,1
76255,-55.5555555555555,4,2,2,55,0,1
76849,-43.4782608695652,4,2,1,55,0,1
77443,-43.4782608695652,4,2,3,55,0,1
78037,-55.5555555555555,4,2,3,55,0,1
79225,-52.6315789473684,4,2,3,55,0,1
79819,-55.5555555555555,4,2,3,55,0,1
81602,-43.4782608695652,4,2,1,55,0,1
82196,-43.4782608695652,4,2,3,55,0,1
82790,-55.5555555555555,4,2,3,55,0,1
83978,-52.6315789473684,4,2,3,55,0,1
84572,-55.5555555555555,4,2,3,55,0,1
86354,-43.4782608695652,4,2,1,55,0,1
87542,-43.4782608695652,4,2,1,50,0,0
87839,-43.4782608695652,4,2,1,40,0,0
88136,-43.4782608695652,4,2,1,30,0,0
88433,-43.4782608695652,4,2,1,20,0,0

[Colours]
Combo1 : 177,0,0
Combo2 : 255,229,138
Combo3 : 0,64,128

[HitObjects]
136,144,215,6,0,P|118:168|114:194,2,35,0|0|0,0:0|0:0|0:0,0:0:0:0:
50,266,810,2,0,P|92:288|140:283,1,97.9999970092774,4|0,3:2|0:0,0:0:0:0:
217,237,1404,1,0,3:0:0:0:
116,172,1701,2,0,B|68:95|129:25|129:25|193:19|219:74|206:123,1,293.999991027832,0|0,0:0|3:0,0:0:0:0:
208,107,2889,1,0,0:0:0:0:
378,63,3186,6,0,P|423:87|476:80,1,97.9999970092774,0|0,3:0|0:0,0:0:0:0:
235,111,3780,1,0,3:0:0:0:
370,192,4077,2,0,B|400:240|400:240|371:383,1,195.999994018555,0|2,0:0|0:0,0:0:0:0:
307,254,4968,1,8,0:0:0:0:
307,254,5116,1,4,3:0:0:0:
307,254,5265,1,2,3:0:0:0:
109,308,5562,6,0,P|47:302|38:173,1,210.000008010865,4|8,3:2|0:0,0:0:0:0:
77,8,6453,2,0,B|133:45|133:45|280:16,1,210.000008010865,4|0,3:2|3:0,0:0:0:0:
415,43,7344,1,8,0:0:0:0:
200,127,7641,2,0,L|326:99,1,105.000004005432,4|0,3:2|0:0,0:0:0:0:
190,152,8235,1,0,3:0:0:0:
403,143,8532,6,0,B|372:181|372:181|398:345,1,210.000008010865,12|8,0:0|0:0,0:0:0:0:
272,269,9423,1,8,3:0:0:0:
272,269,9572,1,4,3:0:0:0:
139,305,9869,1,2,3:0:0:0:
139,305,10018,1,2,3:0:0:0:
5,341,10314,5,0,0:0:0:0:
8,320,10909,1,0,0:0:0:0:
11,299,11503,1,0,3:0:0:0:
14,278,12097,5,8,0:0:0:0:
16,276,12245,1,4,3:0:0:0:
16,276,12394,1,0,3:0:0:0:
200,220,12691,6,0,B|183:186|183:186|190:137,1,87.5,4|0,3:2|0:0,0:0:0:0:
241,105,13136,2,0,B|246:72|246:72|232:7,1,87.5
355,210,13730,2,0,L|458:186,1,87.5
463,154,14176,2,0,P|475:114|458:59,1,87.5
427,256,14770,1,0,0:0:0:0:
425,268,14918,1,0,0:0:0:0:
422,281,15067,6,0,L|305:265,1,87.5,0|0,3:0|0:0,0:0:0:0:
280,183,15512,2,0,L|163:199,1,87.5
44,318,16107,2,0,B|23:284|23:284|51:185,1,131.25,0|0,0:0|0:0,0:0:0:0:
27,27,16849,2,0,P|51:78|145:72,1,131.25,0|0,3:0|0:0,0:0:0:0:
245,37,17443,6,0,B|280:29|280:29|359:56,1,87.5,0|0,3:0|0:0,0:0:0:0:
393,128,17889,2,0,B|428:136|428:136|507:109,1,87.5,0|0,0:0|0:0,0:0:0:0:
295,205,18483,2,0,P|260:223|181:168,1,131.25,0|0,0:0|0:0,0:0:0:0:
404,255,19225,2,0,P|424:283|408:364,1,87.5,0|0,3:0|0:0,0:0:0:0:
241,174,19819,6,0,B|222:203|222:203|236:282,1,87.5,0|0,3:0|0:0,0:0:0:0:
305,338,20265,2,0,B|324:309|324:309|310:230,1,87.5,0|0,0:0|0:0,0:0:0:0:
140,283,20859,2,0,P|92:285|35:216,1,131.25,0|0,0:0|0:0,0:0:0:0:
37,228,21602,2,0,P|37:249|31:270,1,43.75,0|0,3:0|0:0,0:0:0:0:
128,48,22196,6,0,B|173:65|173:65|238:52,1,87.5,0|0,3:0|0:0,0:0:0:0:
237,141,22641,2,0,B|282:124|282:124|347:137,1,87.5,0|0,0:0|0:0,0:0:0:0:
450,295,23235,2,0,P|403:271|395:190,1,131.25,0|0,0:0|0:0,0:0:0:0:
311,341,23978,1,0,3:0:0:0:
199,361,24275,1,0,0:0:0:0:
97,312,24572,6,0,L|106:193,1,87.5,0|0,3:0|0:0,0:0:0:0:
205,140,25017,2,0,L|198:52,1,87.5,0|0,0:0|0:0,0:0:0:0:
223,156,25611,1,0,0:0:0:0:
291,8,26057,1,0,0:0:0:0:
400,10,26354,1,0,3:0:0:0:
511,13,26651,1,0,0:0:0:0:
414,135,26948,5,0,3:0:0:0:
410,152,27097,1,0,0:0:0:0:
405,170,27245,2,0,L|422:262,1,87.5,0|0,0:0|3:0,0:0:0:0:
265,179,27839,2,0,P|292:219|284:294,1,87.5,0|0,0:0|3:0,0:0:0:0:
149,334,28433,2,0,P|155:291|180:256,1,87.5,0|0,0:0|3:0,0:0:0:0:
180,255,29027,1,0,0:0:0:0:
347,356,29324,6,0,L|435:345,1,68.2499968757631,4|8,3:2|0:0,0:0:0:0:
340,339,30215,1,0,3:0:0:0:
509,314,30661,1,8,0:0:0:0:
391,205,30958,1,0,3:0:0:0:
395,182,31107,1,8,0:0:0:0:
398,158,31255,1,8,0:0:0:0:
194,257,31701,6,0,P|140:263|90:215,1,90.9999958343508,4|0,3:2|0:0,0:0:0:0:
50,177,32146,1,0,0:0:0:0:
50,177,32295,1,8,0:0:0:0:
50,177,32443,2,0,L|57:124,1,45.4999979171754,0|0,0:0|3:0,0:0:0:0:
137,102,32740,2,0,P|101:128|45:128,1,90.9999958343508,0|0,0:0|0:0,0:0:0:0:
72,42,33186,1,0,3:0:0:0:
257,105,33483,2,0,P|311:87|357:106,1,90.9999958343508,8|0,0:0|0:0,0:0:0:0:
378,276,34077,6,0,L|266:257,1,90.9999958343508,0|0,3:0|0:0,0:0:0:0:
199,314,34522,2,0,P|147:314|111:280,1,90.9999958343508,0|0,3:0|0:0,0:0:0:0:
173,107,35116,2,0,B|190:152|190:152|173:254,1,136.499993751526,0|0,3:0|3:0,0:0:0:0:
128,27,35859,2,0,P|191:17|255:74,1,136.499993751526,8|0,0:0|0:0,0:0:0:0:
320,157,36453,6,0,L|422:144,1,90.9999958343508,0|0,3:0|0:0,0:0:0:0:
488,279,36899,2,0,L|403:268,1,45.4999979171754,0|8,0:0|0:0,0:0:0:0:
349,301,37196,2,0,L|264:290,1,45.4999979171754,0|0,0:0|3:0,0:0:0:0:
163,266,37493,2,0,B|185:266|210:258|210:258|230:290|204:351,1,136.499993751526,0|0,0:0|3:0,0:0:0:0:
68,225,38235,1,8,0:0:0:0:
190,111,38532,1,0,3:0:0:0:
188,128,38681,1,0,0:0:0:0:
186,145,38829,6,0,P|137:147|103:124,1,90.9999958343508,0|0,0:0|3:0,0:0:0:0:
188,31,39275,2,0,L|261:45,1,45.4999979171754,0|8,0:0|0:0,0:0:0:0:
318,114,39572,2,0,L|391:100,1,45.4999979171754,0|0,0:0|3:0,0:0:0:0:
433,23,39869,2,0,P|475:62|465:123,1,90.9999958343508,0|0,0:0|0:0,0:0:0:0:
444,190,40314,2,0,L|387:182,1,45.4999979171754,0|0,3:0|0:0,0:0:0:0:
512,277,40611,1,8,0:0:0:0:
498,294,41206,6,0,L|452:288,3,45.4999979171754,0|0|0|0,3:0|0:0|0:0|0:0,0:0:0:0:
304,234,41948,2,0,P|335:263|341:287,1,45.4999979171754,0|0,0:0|3:0,0:0:0:0:
303,358,42245,2,0,L|197:354,1,90.9999958343508,0|0,0:0|0:0,0:0:0:0:
149,281,42691,2,0,P|124:300|114:337,1,45.4999979171754,0|0,3:0|0:0,0:0:0:0:
4,237,42988,2,0,P|29:256|39:293,1,45.4999979171754,8|0,0:0|0:0,0:0:0:0:
77,144,43285,2,0,P|86:179|83:211,1,45.4999979171754,0|0,0:0|0:0,0:0:0:0:
44,66,43582,6,0,L|160:76,1,90.9999958343508,0|0,3:0|0:0,0:0:0:0:
133,56,44027,1,0,0:0:0:0:
242,214,44324,2,0,P|276:197|292:151,1,45.4999979171754,0|0,0:0|3:0,0:0:0:0:
365,218,44621,2,0,P|367:180|330:125,1,90.9999958343508,0|0,0:0|0:0,0:0:0:0:
254,96,45067,2,0,L|170:108,1,45.4999979171754,0|0,3:0|0:0,0:0:0:0:
369,52,45364,2,0,L|414:45,1,45.4999979171754,8|0,0:0|0:0,0:0:0:0:
468,127,45661,2,0,P|489:128|513:120,1,45.4999979171754
473,220,45958,5,0,3:0:0:0:
473,220,46107,2,0,B|495:261|495:261|481:312,1,90.9999958343508,0|0,0:0|0:0,0:0:0:0:
392,267,46552,1,8,0:0:0:0:
260,319,46849,1,0,3:0:0:0:
260,319,46998,2,0,B|214:329|214:329|169:302,1,90.9999958343508,0|0,0:0|0:0,0:0:0:0:
227,230,47443,1,0,3:0:0:0:
238,126,47740,2,0,L|228:230,1,105,8|0,0:0|0:0,0:0:0:0:
276,154,48334,6,0,P|301:146|355:161,1,83.9999974365235,4|0,3:2|0:0,0:0:0:0:
306,231,49819,1,8,3:2:0:0:
230,301,50116,1,8,3:2:0:0:
113,203,50413,1,8,3:2:0:0:
49,351,50710,5,8,3:2:0:0:
306,231,51008,1,8,3:2:0:0:
113,203,51899,5,8,3:2:0:0:
365,288,52197,1,8,3:2:0:0:
184,156,52493,2,0,P|184:139|193:117,1,31.4999990386963,12|0,0:0|0:0,0:0:0:0:
93,201,53087,6,0,P|62:210|10:200,1,59.5000011348725,4|0,3:2|0:0,0:0:0:0:
178,258,53384,2,0,P|170:289|135:329,1,59.5000011348725,0|0,0:0|0:0,0:0:0:0:
275,219,53681,2,0,P|298:241|315:291,1,59.5000011348725,8|0,0:0|0:0,0:0:0:0:
322,119,53978,2,0,B|352:109|352:109|405:120,1,59.5000011348725,0|0,0:0|0:0,0:0:0:0:
275,219,54275,2,0,P|204:245|156:161,1,178.500003404617,0|0,3:2|0:0,0:0:0:0:
322,119,54869,2,0,L|455:132,1,119.000002269745,8|0,0:0|0:0,0:0:0:0:
449,263,55314,1,0,0:0:0:0:
449,263,55463,6,0,P|479:257|507:247,1,59.5000011348725,0|0,3:0|0:0,0:0:0:0:
362,314,55760,2,0,P|380:338|404:356,1,59.5000011348725,0|0,0:0|0:0,0:0:0:0:
265,279,56057,2,0,P|252:305|250:334,1,59.5000011348725,8|0,0:0|0:0,0:0:0:0:
247,183,56354,2,0,B|213:186|213:186|192:201,1,59.5000011348725,0|0,0:0|0:0,0:0:0:0:
355,216,56651,2,0,P|416:202|420:95,1,178.500003404617,0|0,3:0|0:0,0:0:0:0:
358,4,57245,2,0,L|288:14,1,59.5000011348725,8|0,0:0|0:0,0:0:0:0:
153,74,57542,5,0,0:0:0:0:
154,91,57691,1,0,0:0:0:0:
154,108,57839,2,0,L|231:97,1,59.5000011348725,0|0,3:0|0:0,0:0:0:0:
312,154,58136,5,0,0:0:0:0:
311,171,58285,1,0,0:0:0:0:
311,188,58433,2,0,L|234:177,1,59.5000011348725,8|0,0:0|0:0,0:0:0:0:
152,253,58730,2,0,P|123:256|95:247,1,59.5000011348725,0|0,0:0|0:0,0:0:0:0:
274,327,59027,6,0,L|351:308,1,59.5000011348725,0|0,3:0|0:0,0:0:0:0:
419,228,59324,2,0,L|496:247,1,59.5000011348725,0|0,3:0|0:0,0:0:0:0:
331,312,59621,1,8,0:0:0:0:
327,291,59770,1,0,0:0:0:0:
323,266,59918,2,0,L|332:200,1,59.5000011348725,0|0,0:0|0:0,0:0:0:0:
384,128,60215,6,0,L|373:61,1,59.5000011348725,0|0,3:0|0:0,0:0:0:0:
435,0,60512,1,0,0:0:0:0:
244,96,60810,5,8,0:0:0:0:
244,96,60958,2,0,P|172:95|138:141,1,119.000002269745,0|0,0:0|0:0,0:0:0:0:
192,224,61404,2,0,L|57:206,1,119.000002269745,0|0,3:0|3:0,0:0:0:0:
35,311,61849,1,0,3:0:0:0:
35,311,61998,2,0,L|105:298,1,59.5000011348725,8|8,0:0|3:0,0:0:0:0:
188,353,62295,1,4,3:0:0:0:
188,353,62443,1,2,3:0:0:0:
188,353,62592,6,0,B|218:355|218:355|258:340,1,59.5000011348725,4|0,3:2|0:0,0:0:0:0:
309,244,62889,2,0,P|339:242|379:257,1,59.5000011348725,0|0,0:0|0:0,0:0:0:0:
454,303,63186,2,0,P|484:305|524:290,1,59.5000011348725,12|0,0:0|0:0,0:0:0:0:
479,180,63483,2,0,P|458:202|484:204,1,59.5000011348725,0|0,0:0|0:0,0:0:0:0:
506,49,63780,2,0,L|316:65,1,178.500003404617,0|0,3:0|0:0,0:0:0:0:
251,171,64374,2,0,P|192:199|94:136,1,178.500003404617,8|0,0:0|0:0,0:0:0:0:
192,50,64968,6,0,L|177:135,1,59.5000011348725,0|0,3:0|0:0,0:0:0:0:
241,229,65265,2,0,L|251:170,1,59.5000011348725,0|0,0:0|0:0,0:0:0:0:
352,74,65562,2,0,L|341:132,1,59.5000011348725,8|0,0:0|0:0,0:0:0:0:
417,259,65859,2,0,B|431:230|431:230|428:201,1,59.5000011348725,0|0,0:0|0:0,0:0:0:0:
486,333,66156,6,0,B|396:348|396:348|299:277,1,178.500003404617,0|0,3:0|0:0,0:0:0:0:
240,229,66750,2,0,L|154:250,1,59.5000011348725,8|0,0:0|0:0,0:0:0:0:
93,330,67047,1,0,0:0:0:0:
110,332,67196,1,0,0:0:0:0:
129,334,67344,2,0,P|159:332|130:344,1,59.5000011348725,0|0,3:0|0:0,0:0:0:0:
39,231,67641,2,0,P|9:229|38:241,1,59.5000011348725,0|0,0:0|0:0,0:0:0:0:
152,180,67938,2,0,P|142:129|133:175,1,119.000002269745,8|0,0:0|0:0,0:0:0:0:
90,10,68532,6,0,L|177:25,1,59.5000011348725,0|0,3:0|0:0,0:0:0:0:
226,75,68829,2,0,L|313:60,1,59.5000011348725,0|0,3:0|0:0,0:0:0:0:
318,185,69126,2,0,L|376:174,1,59.5000011348725,12|0,0:0|0:0,0:0:0:0:
454,120,69423,2,0,L|541:135,1,59.5000011348725,0|0,0:0|0:0,0:0:0:0:
437,294,69720,6,0,P|420:304|437:283,1,59.5000011348725,0|0,3:0|0:0,0:0:0:0:
318,185,70017,2,0,P|335:175|324:201,1,59.5000011348725,0|0,3:0|0:0,0:0:0:0:
233,148,70314,1,12,0:0:0:0:
233,148,70463,2,0,L|99:173,1,119.000002269745,0|0,0:0|0:0,0:0:0:0:
40,253,70909,2,0,P|84:280|156:274,1,119.000002269745,0|0,0:0|3:0,0:0:0:0:
118,176,71354,1,0,3:0:0:0:
118,176,71503,6,0,L|122:107,1,59.5000011348725,8|4,0:0|3:0,0:0:0:0:
221,63,71800,2,0,L|217:-6,1,59.5000011348725,2|0,3:0|0:0,0:0:0:0:
317,168,72097,6,0,P|389:173|403:32,1,241.500004606247,4|0,3:2|0:0,0:0:0:0:
278,117,72691,6,0,P|389:173|403:32,1,241.500004606247,10|0,0:0|0:0,0:0:0:0:
278,116,73285,6,0,P|253:135|240:164,1,62.9999980773926,2|0,3:2|0:0,0:0:0:0:
171,197,73582,2,0,P|175:228|194:253,1,62.9999980773926,0|0,3:0|0:0,0:0:0:0:
191,333,73879,2,0,P|220:343|252:341,1,62.9999980773926,10|0,0:0|0:0,0:0:0:0:
328,271,74176,2,0,P|371:257|407:267,1,62.9999980773926,0|0,0:0|0:0,0:0:0:0:
512,358,74473,6,0,P|462:299|499:216,1,132.999996448517,2|0,3:2|0:0,0:0:0:0:
504,128,74918,1,0,0:0:0:0:
504,128,75067,2,0,L|378:148,1,125.999996154785,10|0,0:0|0:0,0:0:0:0:
300,58,75512,1,0,0:0:0:0:
300,58,75661,2,0,L|191:74,1,62.9999980773926,2|0,3:2|0:0,0:0:0:0:
155,162,75958,2,0,L|217:152,1,62.9999980773926,0|0,3:0|0:0,0:0:0:0:
131,72,76255,2,0,B|69:59|69:59|-28:109,1,125.999996154785,12|0,0:0|0:0,0:0:0:0:
25,325,76849,6,0,B|102:380|148:339|127:338|195:286|276:362,1,241.500004606247,4|0,3:2|0:0,0:0:0:0:
24,347,77443,6,0,B|101:292|147:333|126:334|194:386|275:310,1,241.500004606247,10|0,0:2|0:0,0:0:0:0:
315,214,78037,2,0,L|418:230,1,62.9999980773926,2|0,3:2|0:0,0:0:0:0:
504,134,78334,2,0,L|402:154,1,62.9999980773926,0|0,3:0|0:0,0:0:0:0:
318,57,78631,2,0,L|417:76,1,62.9999980773926,10|0,0:0|0:0,0:0:0:0:
263,132,78928,2,0,P|207:132|177:112,1,62.9999980773926,0|0,0:0|0:0,0:0:0:0:
66,35,79225,6,0,B|84:65|84:65|65:189,1,132.999996448517,2|0,3:2|0:0,0:0:0:0:
22,293,79671,1,0,0:0:0:0:
22,293,79819,2,0,P|86:345|158:310,1,125.999996154785,10|0,0:0|0:0,0:0:0:0:
208,224,80265,1,0,0:0:0:0:
208,224,80413,2,0,L|304:242,1,62.9999980773926,2|0,3:2|0:0,0:0:0:0:
339,319,80710,2,0,L|436:299,1,62.9999980773926,0|0,3:0|0:0,0:0:0:0:
409,145,81008,2,0,P|391:180|392:213,1,62.9999980773926,12|0,0:0|0:0,0:0:0:0:
487,237,81305,2,0,P|504:201|504:169,1,62.9999980773926,0|0,0:0|0:0,0:0:0:0:
415,18,81602,6,0,B|311:68|311:68|154:26,1,241.500004606247,4|0,3:2|0:0,0:0:0:0:
417,35,82196,6,0,B|313:85|313:85|156:43,1,241.500004606247,10|0,0:0|0:0,0:0:0:0:
49,74,82790,6,0,B|42:95|42:95|59:177,1,62.9999980773926,2|0,3:2|0:0,0:0:0:0:
149,199,83087,2,0,B|156:178|156:178|139:96,1,62.9999980773926,0|0,3:0|0:0,0:0:0:0:
200,270,83384,2,0,P|247:291|278:285,1,62.9999980773926,10|0,0:0|0:0,0:0:0:0:
312,179,83681,2,0,P|280:181|255:199,1,62.9999980773926
387,295,83978,6,0,B|429:306|429:306|531:266,1,132.999996448517,2|0,3:2|0:0,0:0:0:0:
419,195,84423,1,0,0:0:0:0:
419,195,84572,2,0,P|381:130|420:56,1,125.999996154785,10|0,0:0|0:0,0:0:0:0:
248,66,85017,1,0,0:0:0:0:
248,66,85166,2,0,P|305:30|320:-11,1,62.9999980773926,2|0,3:2|0:0,0:0:0:0:
241,166,85463,2,0,P|278:180|303:221,1,62.9999980773926,0|0,3:0|0:0,0:0:0:0:
364,310,85760,2,0,B|402:327|402:327|495:295,1,125.999996154785,12|0,0:0|0:0,0:0:0:0:
229,384,86354,6,0,L|-11:306,1,241.500004606247,4|0,3:2|0:0,0:0:0:0:
242,370,86948,6,0,L|2:292,1,241.500004606247,8|0,0:0|0:0,0:0:0:0:
106,208,87542,1,0,0:0:0:0:
137,211,87839,1,0,0:0:0:0:
155,213,88136,1,0,0:0:0:0:
159,213,88433,1,0,0:0:0:0:
