osu file format v14

[General]
AudioFilename: audio.mp3
AudioLeadIn: 0
PreviewTime: -1
Countdown: 0
SampleSet: None
StackLeniency: 0.2
Mode: 0
LetterboxInBreaks: 0
WidescreenStoryboard: 0

[Editor]
Bookmarks: 730,11108,16297,18243,18892,20027,21486,31865,42243,52621,65594,75973
DistanceSpacing: 0.3
BeatDivisor: 4
GridSize: 8
TimelineZoom: 2.2

[Metadata]
Title:JUSTadICE (TV Size)
TitleUnicode:JUSTadICE (TV Size)
Artist:Oomori Seiko
ArtistUnicode:大森靖子
Creator:WillCookie
Version:five leaf clover
Source:
Tags:
BeatmapID:2135500
BeatmapSetID:1020605

[Difficulty]
HPDrainRate:6
CircleSize:5.5
OverallDifficulty:9
ApproachRate:9.6
SliderMultiplier:2.7
SliderTickRate:1

[Events]
//Background and Video events
0,0,"clover.jpg",0,0
//Break Periods
2,21524,31356
//Storyboard Layer 0 (Background)
//Storyboard Layer 1 (Fail)
//Storyboard Layer 2 (Pass)
//Storyboard Layer 3 (Foreground)
//Storyboard Layer 4 (Overlay)
//Storyboard Sound Samples

[TimingPoints]
730,324.324324324324,4,2,0,100,1,0
21486,-80,4,2,0,100,0,0
31865,-100,4,2,0,100,0,0
65594,-33.3333333333333,4,2,0,100,0,1
75973,-25,4,2,0,100,0,1

[HitObjects]
60,256,730,6,0,L|185:169,1,135
60,256,1054,6,0,L|185:169,1,135
60,256,1378,6,0,L|185:169,1,135
259,310,1702,1,0,0:0:0:0:
290,49,1865,2,0,P|410:81|506:204,1,270
306,249,2351,1,0,0:0:0:0:
465,17,2513,1,0,0:0:0:0:
163,194,2675,2,0,P|138:271|137:344,2,135
393,293,3324,6,0,L|374:131,1,135
393,293,3648,6,0,L|374:131,1,135
393,293,3973,6,0,L|374:131,1,135
236,280,4297,1,0,0:0:0:0:
415,44,4459,2,0,P|270:28|129:56,1,270
322,182,4946,1,0,0:0:0:0:
34,126,5108,1,0,0:0:0:0:
194,317,5270,1,0,0:0:0:0:
157,10,5432,1,0,0:0:0:0:
434,241,5594,2,0,P|347:277|299:280,1,135
387,55,5919,6,0,L|256:142,1,135
387,55,6243,6,0,L|256:142,1,135
387,55,6567,6,0,L|256:142,1,135
425,191,6892,1,0,0:0:0:0:
215,325,7054,2,0,P|183:251|14:153,1,270
239,32,7540,1,0,0:0:0:0:
100,303,7702,1,0,0:0:0:0:
302,285,7865,2,0,P|303:212|323:144,1,135
495,340,8189,1,0,0:0:0:0:
387,22,8351,1,0,0:0:0:0:
206,209,8513,6,0,L|255:372,1,135
206,209,8838,6,0,L|255:372,1,135
206,209,9162,6,0,L|255:372,1,135
334,120,9486,1,0,0:0:0:0:
83,271,9648,2,0,P|99:140|189:11,1,270
281,230,10135,1,0,0:0:0:0:
366,8,10297,1,0,0:0:0:0:
300,339,10459,1,0,0:0:0:0:
238,71,10621,1,0,0:0:0:0:
455,162,10784,2,0,P|399:221|330:249,1,135
115,227,11108,5,0,0:0:0:0:
365,329,11270,1,0,0:0:0:0:
115,227,11432,5,0,0:0:0:0:
330,200,11594,1,0,0:0:0:0:
115,227,11757,5,0,0:0:0:0:
276,70,11919,1,0,0:0:0:0:
172,310,12081,5,0,0:0:0:0:
170,57,12243,2,0,P|228:122|301:142,1,135
403,71,12567,1,0,0:0:0:0:
123,140,12729,1,0,0:0:0:0:
483,178,12892,1,0,0:0:0:0:
210,229,13054,2,0,P|297:258|368:265,2,135
414,110,13540,1,0,0:0:0:0:
343,342,13702,5,0,0:0:0:0:
357,151,13865,1,0,0:0:0:0:
343,342,14027,5,0,0:0:0:0:
292,80,14189,1,0,0:0:0:0:
343,342,14351,5,0,0:0:0:0:
201,23,14513,1,0,0:0:0:0:
214,269,14675,5,0,0:0:0:0:
475,203,14838,2,0,P|415:151|336:128,1,135
75,144,15162,2,0,P|153:169|240:176,1,135
211,22,15486,1,0,0:0:0:0:
366,278,15648,1,0,0:0:0:0:
111,254,15811,1,0,0:0:0:0:
406,78,15973,2,0,L|282:151,1,135
161,304,16297,6,0,L|332:328,1,135
72,200,16621,6,0,L|231:189,1,135
174,55,16946,6,0,L|328:65,1,135
327,211,17270,6,0,L|473:214,1,135
406,40,17594,6,0,L|572:31,1,135
266,336,17919,6,0,L|427:342,1,135
337,71,18243,5,0,0:0:0:0:
304,348,18405,1,0,0:0:0:0:
223,15,18567,5,0,0:0:0:0:
84,279,18729,1,0,0:0:0:0:
84,279,18811,1,0,0:0:0:0:
84,279,18892,5,0,0:0:0:0:
374,255,19054,1,0,0:0:0:0:
32,106,19216,1,0,0:0:0:0:
376,64,19378,5,0,0:0:0:0:
96,346,19540,1,0,0:0:0:0:
431,230,19702,1,0,0:0:0:0:
75,171,19865,5,0,0:0:0:0:
159,181,19946,1,0,0:0:0:0:
265,153,20027,1,0,0:0:0:0:
303,320,21000,5,0,0:0:0:0:
303,320,21081,1,0,0:0:0:0:
303,320,21162,2,0,L|279:160,1,135
356,209,31865,5,0,0:0:0:0:
71,153,32027,1,0,0:0:0:0:
260,147,32189,1,0,0:0:0:0:
162,245,32351,1,0,0:0:0:0:
162,245,32432,1,0,0:0:0:0:
162,245,32513,1,0,0:0:0:0:
203,62,32675,1,0,0:0:0:0:
283,351,32838,1,0,0:0:0:0:
386,62,33000,2,0,L|376:153,1,67.5
351,240,33162,5,0,0:0:0:0:
26,148,33324,1,0,0:0:0:0:
228,277,33486,5,0,0:0:0:0:
125,55,33648,1,0,0:0:0:0:
277,168,33811,1,0,0:0:0:0:
341,6,33973,1,0,0:0:0:0:
366,310,34135,2,0,P|402:247|408:175,1,135
444,29,34459,5,0,0:0:0:0:
326,215,34621,1,0,0:0:0:0:
143,328,34784,1,0,0:0:0:0:
228,74,34946,1,0,0:0:0:0:
228,74,35027,1,0,0:0:0:0:
228,74,35108,1,0,0:0:0:0:
257,253,35270,1,0,0:0:0:0:
65,68,35432,1,0,0:0:0:0:
452,186,35594,1,0,0:0:0:0:
168,213,35757,6,0,P|202:140|255:94,1,135
281,286,36081,5,0,0:0:0:0:
114,38,36243,1,0,0:0:0:0:
177,348,36405,5,0,0:0:0:0:
362,19,36567,1,0,0:0:0:0:
421,253,36729,2,0,L|346:377,1,135
290,32,37054,5,0,0:0:0:0:
322,316,37216,1,0,0:0:0:0:
41,193,37378,1,0,0:0:0:0:
293,226,37540,1,0,0:0:0:0:
121,61,37702,1,0,0:0:0:0:
153,315,37865,1,0,0:0:0:0:
214,142,38027,1,0,0:0:0:0:
361,204,38189,2,0,P|390:131|385:68,1,135
208,213,38513,5,0,0:0:0:0:
141,31,38675,2,0,P|223:16|295:29,1,135
234,322,39000,2,0,P|307:338|372:327,1,135
202,121,39324,6,0,L|433:149,1,202.5
466,201,39648,5,0,0:0:0:0:
313,353,39811,1,0,0:0:0:0:
277,80,39973,1,0,0:0:0:0:
105,285,40135,1,0,0:0:0:0:
86,13,40297,6,0,P|106:97|165:151,1,135
359,26,40621,1,0,0:0:0:0:
215,243,40784,1,0,0:0:0:0:
215,243,40865,1,0,0:0:0:0:
215,243,40946,1,0,0:0:0:0:
430,170,41108,1,0,0:0:0:0:
211,355,41270,5,0,0:0:0:0:
406,6,41432,2,0,P|337:80|170:131,1,270
339,179,41919,5,0,0:0:0:0:
305,216,42000,1,0,0:0:0:0:
264,246,42081,1,0,0:0:0:0:
218,266,42162,1,0,0:0:0:0:
168,274,42243,5,0,0:0:0:0:
225,136,42405,1,0,0:0:0:0:
333,355,42567,1,0,0:0:0:0:
287,36,42729,1,0,0:0:0:0:
287,36,42811,1,0,0:0:0:0:
287,36,42892,1,0,0:0:0:0:
413,211,43054,1,0,0:0:0:0:
89,64,43216,1,0,0:0:0:0:
275,206,43378,1,0,0:0:0:0:
72,320,43540,6,0,P|92:236|135:181,2,135
277,273,44027,1,0,0:0:0:0:
277,273,44108,1,0,0:0:0:0:
277,273,44189,1,0,0:0:0:0:
143,155,44351,1,0,0:0:0:0:
407,246,44513,2,0,P|408:172|380:104,1,135
243,219,44838,5,0,0:0:0:0:
356,66,45000,1,0,0:0:0:0:
463,298,45162,1,0,0:0:0:0:
345,166,45324,1,0,0:0:0:0:
345,166,45405,1,0,0:0:0:0:
345,166,45486,1,0,0:0:0:0:
249,324,45648,1,0,0:0:0:0:
140,87,45811,2,0,P|189:31|246:0,1,135
237,237,46135,5,0,0:0:0:0:
353,226,46297,1,0,0:0:0:0:
146,177,46459,5,0,0:0:0:0:
371,102,46621,1,0,0:0:0:0:
8,206,46784,5,0,0:0:0:0:
249,10,46946,1,0,0:0:0:0:
101,323,47108,5,0,0:0:0:0:
149,11,47270,1,0,0:0:0:0:
323,238,47432,5,0,0:0:0:0:
158,220,47594,1,0,0:0:0:0:
388,186,47757,1,0,0:0:0:0:
190,325,47919,1,0,0:0:0:0:
190,325,48000,1,0,0:0:0:0:
190,325,48081,1,0,0:0:0:0:
259,133,48243,1,0,0:0:0:0:
376,372,48405,2,0,P|400:297|394:238,1,135
230,294,48729,5,0,0:0:0:0:
191,37,48892,1,0,0:0:0:0:
269,216,49054,1,0,0:0:0:0:
317,1,49216,1,0,0:0:0:0:
317,1,49297,1,0,0:0:0:0:
317,1,49378,1,0,0:0:0:0:
463,76,49540,1,0,0:0:0:0:
208,104,49702,2,0,P|158:181|145:251,1,135
337,180,50027,5,0,0:0:0:0:
83,250,50189,1,0,0:0:0:0:
361,257,50351,5,0,0:0:0:0:
67,176,50513,1,0,0:0:0:0:
407,146,50675,5,0,0:0:0:0:
45,274,50838,1,0,0:0:0:0:
450,308,51000,5,0,0:0:0:0:
58,99,51162,1,0,0:0:0:0:
374,10,51324,5,0,0:0:0:0:
328,80,51405,1,0,0:0:0:0:
265,135,51486,1,0,0:0:0:0:
188,169,51567,1,0,0:0:0:0:
105,180,51648,5,0,0:0:0:0:
117,246,51729,1,0,0:0:0:0:
154,302,51810,1,0,0:0:0:0:
209,339,51891,1,0,0:0:0:0:
275,352,51973,6,0,L|288:282,3,67.5
361,324,52297,5,0,0:0:0:0:
413,233,52378,1,0,0:0:0:0:
378,93,52459,1,0,0:0:0:0:
232,20,52540,1,0,0:0:0:0:
48,35,52621,6,0,P|86:113|147:159,1,135
406,15,52946,1,0,0:0:0:0:
205,360,53270,6,0,P|137:311|104:260,1,135
503,89,53594,1,0,0:0:0:0:
316,334,53757,2,0,L|349:57,1,270
434,300,54243,5,0,0:0:0:0:
191,138,54405,1,0,0:0:0:0:
398,148,54567,5,0,0:0:0:0:
103,217,54729,1,0,0:0:0:0:
288,276,54892,5,0,0:0:0:0:
177,25,55054,1,0,0:0:0:0:
421,74,55216,5,0,0:0:0:0:
89,215,55378,2,0,P|85:136|103:64,1,135
465,16,55865,5,0,0:0:0:0:
141,357,56027,2,0,P|219:363|298:350,1,135
259,60,56351,6,0,P|311:204|429:288,1,270
382,57,56838,1,0,0:0:0:0:
309,345,57000,1,0,0:0:0:0:
144,21,57162,5,0,0:0:0:0:
154,104,57243,1,0,0:0:0:0:
164,188,57324,1,0,0:0:0:0:
174,272,57405,1,0,0:0:0:0:
185,355,57486,2,0,B|135:335|135:335|268:318,1,135
403,316,57811,5,0,0:0:0:0:
97,144,57973,1,0,0:0:0:0:
97,144,58135,1,0,0:0:0:0:
483,91,58459,5,0,0:0:0:0:
78,275,58621,1,0,0:0:0:0:
78,275,58784,1,0,0:0:0:0:
392,288,58946,6,0,P|342:152|245:81,1,270
476,162,59432,1,0,0:0:0:0:
134,190,59594,1,0,0:0:0:0:
370,326,59757,1,0,0:0:0:0:
128,29,59919,1,0,0:0:0:0:
212,362,60081,2,0,P|233:280|292:230,1,135
19,195,60405,5,0,0:0:0:0:
224,199,60648,5,0,0:0:0:0:
417,42,60892,5,0,0:0:0:0:
472,169,61054,2,0,L|446:320,1,135
330,237,61378,2,0,L|304:388,1,135
197,319,61702,5,0,0:0:0:0:
437,113,61946,5,0,0:0:0:0:
21,79,62189,5,0,0:0:0:0:
179,163,62351,2,0,L|195:15,1,135
254,253,62675,1,0,0:0:0:0:
8,315,62838,1,0,0:0:0:0:
68,338,62919,1,0,0:0:0:0:
149,334,63000,5,0,0:0:0:0:
120,184,63162,1,0,0:0:0:0:
367,344,63324,1,0,0:0:0:0:
33,256,63486,5,0,0:0:0:0:
200,22,63648,1,0,0:0:0:0:
508,355,63811,1,0,0:0:0:0:
425,53,63973,1,0,0:0:0:0:
43,66,64135,6,0,P|126:86|203:89,1,135
8,237,64459,5,0,0:0:0:0:
505,152,64621,6,0,B|490:218|490:218|466:95|466:95|442:169,2,270
74,271,65594,5,0,0:0:0:0:
403,113,65757,1,0,0:0:0:0:
72,158,65919,5,0,0:0:0:0:
439,220,66081,1,0,0:0:0:0:
16,329,66243,5,0,0:0:0:0:
447,31,66405,1,0,0:0:0:0:
301,306,66567,1,0,0:0:0:0:
122,17,66729,6,0,P|66:244|522:266,1,810.000030899049
422,86,67216,1,0,0:0:0:0:
71,333,67378,1,0,0:0:0:0:
365,10,67540,5,0,0:0:0:0:
193,355,67702,1,0,0:0:0:0:
161,74,67865,2,0,P|301:164|581:180,1,405.000015449524
79,224,68189,5,0,0:0:0:0:
411,43,68351,1,0,0:0:0:0:
47,175,68513,5,0,0:0:0:0:
467,135,68675,1,0,0:0:0:0:
28,97,68838,5,0,0:0:0:0:
478,255,69000,1,0,0:0:0:0:
316,21,69162,1,0,0:0:0:0:
157,355,69324,6,0,P|214:180|488:70,1,405.000015449524
393,366,69648,1,0,0:0:0:0:
52,58,69811,1,0,0:0:0:0:
483,148,69973,1,0,0:0:0:0:
52,206,70135,5,0,0:0:0:0:
397,4,70297,1,0,0:0:0:0:
334,363,70459,2,0,P|285:153|94:38,1,405.000015449524
497,66,70784,5,0,0:0:0:0:
230,322,70946,1,0,0:0:0:0:
484,35,71108,5,0,0:0:0:0:
115,275,71270,1,0,0:0:0:0:
463,7,71432,5,0,0:0:0:0:
6,153,71594,1,0,0:0:0:0:
422,191,71757,1,0,0:0:0:0:
200,14,71919,6,0,P|57:235|73:386,2,405.000015449524
220,317,72405,1,0,0:0:0:0:
341,9,72567,1,0,0:0:0:0:
410,373,72729,1,0,0:0:0:0:
482,102,72892,1,0,0:0:0:0:
26,259,73054,2,0,P|293:278|515:253,1,405.000015449524
145,11,73378,6,0,L|36:407,1,405.000015449524
288,349,73702,2,0,L|374:-61,1,405.000015449524
111,280,74027,1,0,0:0:0:0:
448,104,74189,1,0,0:0:0:0:
63,46,74351,1,0,0:0:0:0:
455,328,74513,1,0,0:0:0:0:
25,351,74675,5,0,0:0:0:0:
44,272,74756,1,0,0:0:0:0:
63,193,74837,1,0,0:0:0:0:
82,114,74918,1,0,0:0:0:0:
101,36,74999,5,0,0:0:0:0:
163,115,75081,1,0,0:0:0:0:
226,195,75162,1,0,0:0:0:0:
289,274,75243,1,0,0:0:0:0:
351,354,75324,5,0,0:0:0:0:
405,254,75405,1,0,0:0:0:0:
394,140,75486,1,0,0:0:0:0:
322,52,75567,1,0,0:0:0:0:
213,19,75648,1,0,0:0:0:0:
103,52,75729,1,0,0:0:0:0:
31,140,75810,1,0,0:0:0:0:
20,254,75891,1,0,0:0:0:0:
59,369,75973,5,0,0:0:0:0:
43,6,76135,1,0,0:0:0:0:
201,368,76297,5,0,0:0:0:0:
215,15,76459,1,0,0:0:0:0:
376,371,76621,5,0,0:0:0:0:
446,13,76784,1,0,0:0:0:0:
125,192,76946,1,0,0:0:0:0:
505,306,77108,6,0,P|444:-31|-99:200,1,1080
376,371,77594,1,0,0:0:0:0:
310,20,77757,1,0,0:0:0:0:
177,306,77919,2,0,B|82:188|82:188|563:304,1,540
29,98,78243,2,0,L|608:20,1,540
25,183,78567,5,0,0:0:0:0:
462,141,78729,1,0,0:0:0:0:
21,313,78892,5,0,0:0:0:0:
479,346,79054,1,0,0:0:0:0:
5,43,79216,5,0,0:0:0:0:
496,22,79378,1,0,0:0:0:0:
361,329,79540,1,0,0:0:0:0:
132,31,79702,2,0,B|-81:296|-81:296|641:44,1,1080
204,358,80189,1,0,0:0:0:0:
276,2,80351,1,0,0:0:0:0:
474,283,80513,1,0,0:0:0:0:
35,33,80675,1,0,0:0:0:0:
309,380,80838,2,0,L|584:-87,1,540
143,215,81162,6,0,L|696:249,1,540
143,215,81486,6,0,L|674:57,1,540
143,215,81811,6,0,L|588:-114,1,540
143,215,82135,6,0,L|448:-246,1,540
142,215,82459,6,0,L|272:-323,1,540
142,215,82783,6,0,L|80:-335,1,540
143,215,83108,6,0,L|-104:-280,1,540
143,215,83432,6,0,L|-258:-166,1,540
463,17,83757,5,0,0:0:0:0:
415,278,83919,1,0,0:0:0:0:
226,34,84081,1,0,0:0:0:0:
146,347,84243,2,0,B|83:289|83:289|543:387,1,540
361,138,84567,1,0,0:0:0:0:
42,358,84729,2,0,P|46:169|344:-1,1,540
499,328,85054,6,0,L|60:306,1,270
404,177,85216,2,0,L|-60:208,1,270
270,58,85378,2,0,L|-105:141,1,270
75,6,85540,2,0,L|-184:137,1,270
499,32,85702,5,0,0:0:0:0:
421,142,85783,1,0,0:0:0:0:
321,232,85864,1,0,0:0:0:0:
204,298,85945,1,0,0:0:0:0:
74,337,86026,5,0,0:0:0:0:
63,141,86108,1,0,0:0:0:0:
209,11,86189,1,0,0:0:0:0:
402,46,86270,1,0,0:0:0:0:
493,220,86351,6,0,B|256:361|256:361|353:-45,1,540
25,338,86675,1,0,0:0:0:0:
487,8,86838,2,0,L|-178:-23,1,540
486,364,87162,2,0,B|1:123|1:123|-73:277|-73:277|-78:48|70:-71|70:-71|275:95|623:121|623:121|32:368|32:368|154:93|154:93|696:355,1,3240
0,384,88297,5,0,0:0:0:0:
512,0,88459,1,0,0:0:0:0:
