osu file format v14

[General]
AudioFilename: audio.mp3
AudioLeadIn: 0
PreviewTime: 64540
Countdown: 0
SampleSet: Soft
StackLeniency: 0.7
Mode: 3
LetterboxInBreaks: 0
SpecialStyle: 0
WidescreenStoryboard: 1

[Editor]
DistanceSpacing: 0.8
BeatDivisor: 4
GridSize: 8
TimelineZoom: 1.1

[Metadata]
Title:JUSTadICE (TV Size)
TitleUnicode:JUSTadICE (TV Size)
Artist:Oomori Seiko
ArtistUnicode:大森靖子
Creator:Remu
Version:Normal
Source:ブラッククローバー
Tags:black clover anime opening 7 japanese pop rock jrock j-rock female vocalist makenzo makenzolol
BeatmapID:2116185
BeatmapSetID:1010916

[Difficulty]
HPDrainRate:7.5
CircleSize:4
OverallDifficulty:7.5
ApproachRate:5
SliderMultiplier:1.4
SliderTickRate:1

[Events]
//Background and Video events
0,0,"bg.jpg",0,0
//Break Periods
//Storyboard Layer 0 (Background)
//Storyboard Layer 1 (Fail)
//Storyboard Layer 2 (Pass)
//Storyboard Layer 3 (Foreground)
//Storyboard Layer 4 (Overlay)
//Storyboard Sound Samples

[TimingPoints]
730,324.324324324324,4,2,1,60,1,0
21486,-100,4,2,1,60,0,1
31865,-100,4,2,1,60,0,0
65594,-100,4,2,1,60,0,1
86351,-100,4,2,1,60,0,0

[HitObjects]
448,192,730,5,2,0:0:0:0:
448,192,1054,1,0,0:0:0:0:
448,192,1378,1,0,0:0:0:0:
192,192,1702,1,0,0:0:0:0:
64,192,1865,128,0,2189:0:0:0:0:
448,192,2189,1,0,0:0:0:0:
320,192,2351,1,0,0:0:0:0:
192,192,2513,1,0,0:0:0:0:
64,192,2675,1,0,0:0:0:0:
320,192,3000,1,0,0:0:0:0:
64,192,3324,1,0,0:0:0:0:
64,192,3648,1,0,0:0:0:0:
64,192,3973,1,0,0:0:0:0:
320,192,4297,1,0,0:0:0:0:
64,192,4459,128,0,4784:0:0:0:0:
448,192,4784,1,0,0:0:0:0:
192,192,4946,1,0,0:0:0:0:
320,192,5108,1,0,0:0:0:0:
192,192,5270,1,0,0:0:0:0:
448,192,5432,1,0,0:0:0:0:
64,192,5594,1,0,0:0:0:0:
192,192,5757,1,0,0:0:0:0:
320,192,5919,1,0,0:0:0:0:
320,192,6243,1,0,0:0:0:0:
320,192,6567,1,0,0:0:0:0:
192,192,6892,1,0,0:0:0:0:
448,192,7054,128,0,7378:0:0:0:0:
64,192,7378,1,0,0:0:0:0:
192,192,7540,1,0,0:0:0:0:
320,192,7702,1,0,0:0:0:0:
448,192,7865,1,0,0:0:0:0:
192,192,8189,1,0,0:0:0:0:
448,192,8513,1,0,0:0:0:0:
448,192,8838,1,0,0:0:0:0:
448,192,9162,1,0,0:0:0:0:
64,192,9486,1,0,0:0:0:0:
192,192,9648,128,0,9973:0:0:0:0:
448,192,9973,1,0,0:0:0:0:
320,192,10135,1,0,0:0:0:0:
192,192,10297,1,0,0:0:0:0:
448,192,10459,1,0,0:0:0:0:
64,192,10621,1,0,0:0:0:0:
320,192,10784,1,0,0:0:0:0:
64,192,10946,1,0,0:0:0:0:
320,192,11108,1,2,0:0:0:0:
448,192,11108,1,0,0:0:0:0:
320,192,11432,1,2,0:0:0:0:
448,192,11432,1,0,0:0:0:0:
320,192,11757,1,2,0:0:0:0:
448,192,11757,1,0,0:0:0:0:
192,192,12081,1,2,0:0:0:0:
64,192,12243,128,0,12567:0:0:0:0:
320,192,12405,1,2,0:0:0:0:
448,192,12567,1,0,0:0:0:0:
192,192,12729,1,2,0:0:0:0:
64,192,12892,1,0,0:0:0:0:
320,192,13054,1,2,0:0:0:0:
448,192,13054,1,0,0:0:0:0:
64,192,13378,1,2,0:0:0:0:
192,192,13702,1,2,0:0:0:0:
320,192,13702,1,0,0:0:0:0:
192,192,14027,1,2,0:0:0:0:
320,192,14027,1,0,0:0:0:0:
192,192,14351,1,2,0:0:0:0:
320,192,14351,1,0,0:0:0:0:
64,192,14675,1,2,0:0:0:0:
320,192,14838,128,0,15162:0:0:0:0:
192,192,15000,1,2,0:0:0:0:
448,192,15162,1,0,0:0:0:0:
64,192,15324,1,2,0:0:0:0:
320,192,15486,1,0,0:0:0:0:
192,192,15648,1,2,0:0:0:0:
448,192,15648,1,0,0:0:0:0:
320,192,15811,1,0,0:0:0:0:
64,192,15973,128,2,16297:0:0:0:0:
192,192,15973,1,0,0:0:0:0:
320,192,16297,1,2,0:0:0:0:
448,192,16297,1,0,0:0:0:0:
192,192,16459,1,0,0:0:0:0:
320,192,16621,1,2,0:0:0:0:
64,192,16784,1,0,0:0:0:0:
192,192,16946,1,2,0:0:0:0:
448,192,16946,1,0,0:0:0:0:
320,192,17108,1,0,0:0:0:0:
64,192,17270,1,2,0:0:0:0:
320,192,17432,1,0,0:0:0:0:
64,192,17594,1,2,0:0:0:0:
192,192,17594,1,0,0:0:0:0:
448,192,17757,1,0,0:0:0:0:
64,192,17919,1,2,0:0:0:0:
320,192,18081,1,0,0:0:0:0:
192,192,18243,1,4,0:0:0:0:
448,192,18243,1,0,0:0:0:0:
320,192,18567,1,4,0:0:0:0:
448,192,18567,1,0,0:0:0:0:
64,192,18729,1,0,0:0:0:0:
320,192,18892,1,8,0:0:0:0:
448,192,18892,1,4,0:0:0:0:
192,192,19054,1,2,0:0:0:0:
64,192,19216,1,2,0:0:0:0:
320,192,19378,1,8,0:0:0:0:
448,192,19378,1,4,0:0:0:0:
64,192,19540,1,2,0:0:0:0:
192,192,19702,1,2,0:0:0:0:
448,192,19865,1,8,0:0:0:0:
320,192,19946,1,8,0:0:0:0:
64,192,20027,1,4,0:0:0:0:
192,192,20027,1,2,0:0:0:0:
192,192,21000,128,2,21162:0:0:0:0:
320,192,21162,1,8,0:0:0:0:
448,192,21162,1,4,0:0:0:0:
64,192,21486,1,2,0:0:0:0:
448,192,21486,1,4,0:0:0:0:
320,192,21648,1,2,0:0:0:0:
64,192,21811,1,8,0:0:0:0:
192,192,21811,1,0,0:0:0:0:
448,192,21973,1,0,0:0:0:0:
320,192,22054,1,2,0:0:0:0:
192,192,22135,1,2,0:0:0:0:
64,192,22297,1,2,0:0:0:0:
320,192,22459,1,8,0:0:0:0:
448,192,22459,1,0,0:0:0:0:
64,192,22621,1,0,0:0:0:0:
192,192,22702,1,2,0:0:0:0:
448,192,22784,1,2,0:0:0:0:
192,192,22946,1,2,0:0:0:0:
64,192,23108,1,8,0:0:0:0:
320,192,23108,1,0,0:0:0:0:
448,192,23270,1,0,0:0:0:0:
320,192,23351,1,2,0:0:0:0:
192,192,23432,1,2,0:0:0:0:
64,192,23594,1,2,0:0:0:0:
320,192,23757,1,8,0:0:0:0:
448,192,23757,1,0,0:0:0:0:
192,192,23919,1,0,0:0:0:0:
320,192,24000,1,2,0:0:0:0:
64,192,24081,1,2,0:0:0:0:
448,192,24243,1,2,0:0:0:0:
192,192,24405,1,8,0:0:0:0:
320,192,24405,1,0,0:0:0:0:
64,192,24567,1,0,0:0:0:0:
320,192,24648,1,2,0:0:0:0:
448,192,24729,1,2,0:0:0:0:
64,192,24892,1,2,0:0:0:0:
320,192,25054,1,8,0:0:0:0:
448,192,25054,1,0,0:0:0:0:
64,192,25216,1,0,0:0:0:0:
192,192,25297,1,2,0:0:0:0:
448,192,25378,1,2,0:0:0:0:
192,192,25540,1,2,0:0:0:0:
64,192,25702,1,8,0:0:0:0:
448,192,25702,1,0,0:0:0:0:
320,192,25865,1,0,0:0:0:0:
192,192,25946,1,2,0:0:0:0:
64,192,26027,1,2,0:0:0:0:
320,192,26189,1,2,0:0:0:0:
64,192,26351,1,8,0:0:0:0:
192,192,26351,1,0,0:0:0:0:
320,192,26675,1,4,0:0:0:0:
448,192,26675,1,2,0:0:0:0:
192,192,26838,1,2,0:0:0:0:
64,192,27000,1,8,0:0:0:0:
448,192,27000,1,0,0:0:0:0:
320,192,27162,1,0,0:0:0:0:
192,192,27243,1,2,0:0:0:0:
64,192,27324,1,2,0:0:0:0:
448,192,27486,1,2,0:0:0:0:
192,192,27648,1,8,0:0:0:0:
320,192,27648,1,0,0:0:0:0:
64,192,27811,1,0,0:0:0:0:
320,192,27892,1,2,0:0:0:0:
448,192,27973,1,2,0:0:0:0:
192,192,28135,1,2,0:0:0:0:
320,192,28297,1,8,0:0:0:0:
448,192,28297,1,0,0:0:0:0:
64,192,28459,1,0,0:0:0:0:
192,192,28540,1,2,0:0:0:0:
448,192,28621,1,2,0:0:0:0:
192,192,28784,1,2,0:0:0:0:
64,192,28946,1,8,0:0:0:0:
320,192,28946,1,0,0:0:0:0:
192,192,29270,1,2,0:0:0:0:
320,192,29432,1,2,0:0:0:0:
64,192,29594,1,8,0:0:0:0:
448,192,29594,1,4,0:0:0:0:
320,192,29919,1,2,0:0:0:0:
192,192,30081,1,2,0:0:0:0:
64,192,30243,1,8,0:0:0:0:
448,192,30243,1,4,0:0:0:0:
320,192,30567,1,8,0:0:0:0:
448,192,30567,1,2,0:0:0:0:
64,192,30729,1,8,0:0:0:0:
192,192,30811,1,8,0:0:0:0:
320,192,30892,1,2,0:0:0:0:
448,192,31054,1,2,0:0:0:0:
64,192,31216,1,8,0:0:0:0:
192,192,31216,1,2,0:0:0:0:
448,192,31378,1,8,0:0:0:0:
320,192,31459,1,8,0:0:0:0:
192,192,31540,1,2,0:0:0:0:
448,192,31702,1,2,0:0:0:0:
64,192,31865,1,4,0:0:0:0:
192,192,31865,1,2,0:0:0:0:
320,192,32027,1,2,0:0:0:0:
64,192,32189,1,8,0:0:0:0:
448,192,32189,1,0,0:0:0:0:
320,192,32513,1,2,0:0:0:0:
192,192,32675,1,2,0:0:0:0:
64,192,32838,1,8,0:0:0:0:
448,192,32838,1,0,0:0:0:0:
192,192,33162,1,2,0:0:0:0:
64,192,33324,1,2,0:0:0:0:
320,192,33486,1,8,0:0:0:0:
448,192,33486,1,0,0:0:0:0:
192,192,33811,1,2,0:0:0:0:
320,192,33973,1,2,0:0:0:0:
64,192,34135,1,8,0:0:0:0:
448,192,34135,1,0,0:0:0:0:
320,192,34459,1,2,0:0:0:0:
448,192,34621,1,2,0:0:0:0:
64,192,34784,1,8,0:0:0:0:
192,192,34784,1,0,0:0:0:0:
320,192,35108,1,2,0:0:0:0:
192,192,35270,1,2,0:0:0:0:
64,192,35432,1,8,0:0:0:0:
448,192,35432,1,0,0:0:0:0:
192,192,35757,1,2,0:0:0:0:
320,192,35919,1,2,0:0:0:0:
192,192,36081,1,8,0:0:0:0:
448,192,36081,1,0,0:0:0:0:
64,192,36243,1,2,0:0:0:0:
320,192,36405,1,8,0:0:0:0:
448,192,36405,1,4,0:0:0:0:
192,192,36567,1,2,0:0:0:0:
320,192,36729,1,8,0:0:0:0:
448,192,36729,1,4,0:0:0:0:
64,192,37054,1,2,0:0:0:0:
192,192,37054,1,4,0:0:0:0:
320,192,37216,1,2,0:0:0:0:
64,192,37378,1,8,0:0:0:0:
448,192,37378,1,0,0:0:0:0:
64,192,37702,1,2,0:0:0:0:
192,192,37865,1,2,0:0:0:0:
320,192,38027,1,8,0:0:0:0:
448,192,38027,1,0,0:0:0:0:
64,192,38351,1,2,0:0:0:0:
320,192,38513,1,2,0:0:0:0:
192,192,38675,1,8,0:0:0:0:
448,192,38675,1,0,0:0:0:0:
448,192,39000,1,2,0:0:0:0:
192,192,39162,1,2,0:0:0:0:
64,192,39324,1,8,0:0:0:0:
320,192,39324,1,0,0:0:0:0:
320,192,39648,1,2,0:0:0:0:
64,192,39811,1,2,0:0:0:0:
192,192,39973,1,8,0:0:0:0:
448,192,39973,1,0,0:0:0:0:
320,192,40297,1,2,0:0:0:0:
192,192,40459,1,2,0:0:0:0:
64,192,40621,1,8,0:0:0:0:
448,192,40621,1,0,0:0:0:0:
64,192,40946,1,2,0:0:0:0:
320,192,41108,1,8,0:0:0:0:
448,192,41108,1,0,0:0:0:0:
64,192,41270,1,8,0:0:0:0:
192,192,41270,1,0,0:0:0:0:
320,192,41432,128,4,41757:0:0:0:0:
448,192,41432,128,2,41757:0:0:0:0:
64,192,41757,1,2,0:0:0:0:
448,192,41919,1,8,0:0:0:0:
320,192,42000,1,8,0:0:0:0:
192,192,42081,1,8,0:0:0:0:
64,192,42162,1,8,0:0:0:0:
320,192,42243,1,4,0:0:0:0:
448,192,42243,1,2,0:0:0:0:
64,192,42405,1,2,0:0:0:0:
192,192,42567,1,8,0:0:0:0:
448,192,42567,1,0,0:0:0:0:
320,192,42892,1,2,0:0:0:0:
192,192,43054,1,2,0:0:0:0:
64,192,43216,1,8,0:0:0:0:
448,192,43216,1,0,0:0:0:0:
192,192,43540,1,2,0:0:0:0:
64,192,43702,1,2,0:0:0:0:
320,192,43865,1,8,0:0:0:0:
448,192,43865,1,0,0:0:0:0:
64,192,44189,1,2,0:0:0:0:
192,192,44351,1,2,0:0:0:0:
320,192,44513,1,8,0:0:0:0:
448,192,44513,1,0,0:0:0:0:
320,192,44838,1,2,0:0:0:0:
64,192,45000,1,2,0:0:0:0:
192,192,45162,1,8,0:0:0:0:
448,192,45162,1,0,0:0:0:0:
192,192,45486,1,2,0:0:0:0:
320,192,45648,1,2,0:0:0:0:
64,192,45811,1,8,0:0:0:0:
448,192,45811,1,0,0:0:0:0:
320,192,46135,1,2,0:0:0:0:
192,192,46297,1,2,0:0:0:0:
64,192,46459,1,8,0:0:0:0:
448,192,46459,1,0,0:0:0:0:
320,192,46621,1,2,0:0:0:0:
64,192,46784,1,4,0:0:0:0:
192,192,46784,1,8,0:0:0:0:
320,192,46946,1,2,0:0:0:0:
64,192,47108,1,8,0:0:0:0:
192,192,47108,1,4,0:0:0:0:
192,192,47432,1,4,0:0:0:0:
448,192,47432,1,2,0:0:0:0:
320,192,47594,1,2,0:0:0:0:
64,192,47757,1,8,0:0:0:0:
192,192,47757,1,0,0:0:0:0:
64,192,48081,1,2,0:0:0:0:
192,192,48243,1,2,0:0:0:0:
320,192,48405,1,8,0:0:0:0:
448,192,48405,1,0,0:0:0:0:
192,192,48729,1,2,0:0:0:0:
320,192,48892,1,2,0:0:0:0:
64,192,49054,1,8,0:0:0:0:
448,192,49054,1,0,0:0:0:0:
320,192,49378,1,2,0:0:0:0:
192,192,49540,1,2,0:0:0:0:
64,192,49702,1,8,0:0:0:0:
448,192,49702,1,0,0:0:0:0:
320,192,49865,1,2,0:0:0:0:
64,192,50027,1,4,0:0:0:0:
448,192,50027,1,8,0:0:0:0:
192,192,50189,1,2,0:0:0:0:
320,192,50351,1,4,0:0:0:0:
448,192,50351,1,8,0:0:0:0:
64,192,50513,1,2,0:0:0:0:
192,192,50675,1,4,0:0:0:0:
448,192,50675,1,8,0:0:0:0:
320,192,50838,1,2,0:0:0:0:
64,192,51000,1,4,0:0:0:0:
192,192,51000,1,8,0:0:0:0:
192,192,51324,1,10,0:0:0:0:
448,192,51486,1,8,0:0:0:0:
320,192,51567,1,8,0:0:0:0:
64,192,51648,1,10,0:0:0:0:
320,192,51811,1,8,0:0:0:0:
448,192,51973,1,2,0:0:0:0:
64,192,52135,1,2,0:0:0:0:
448,192,52297,1,10,0:0:0:0:
320,192,52378,1,8,0:0:0:0:
64,192,52459,1,8,0:0:0:0:
192,192,52540,1,8,0:0:0:0:
320,192,52621,1,4,0:0:0:0:
448,192,52621,1,2,0:0:0:0:
320,192,52784,1,4,0:0:0:0:
448,192,52784,1,2,0:0:0:0:
64,192,53270,1,4,0:0:0:0:
192,192,53270,1,2,0:0:0:0:
64,192,53432,1,4,0:0:0:0:
192,192,53432,1,2,0:0:0:0:
320,192,53757,1,4,0:0:0:0:
448,192,53757,128,2,54081:0:0:0:0:
64,192,54081,1,2,0:0:0:0:
320,192,54243,1,8,0:0:0:0:
448,192,54243,1,0,0:0:0:0:
192,192,54405,1,2,0:0:0:0:
320,192,54567,1,8,0:0:0:0:
448,192,54567,1,0,0:0:0:0:
64,192,54729,1,2,0:0:0:0:
192,192,54892,1,8,0:0:0:0:
320,192,54892,1,0,0:0:0:0:
64,192,55216,1,4,0:0:0:0:
192,192,55216,1,2,0:0:0:0:
64,192,55378,1,4,0:0:0:0:
192,192,55378,1,2,0:0:0:0:
320,192,55865,1,4,0:0:0:0:
448,192,55865,1,2,0:0:0:0:
320,192,56027,1,4,0:0:0:0:
448,192,56027,1,2,0:0:0:0:
64,192,56351,128,4,56675:0:0:0:0:
192,192,56351,1,2,0:0:0:0:
448,192,56675,1,2,0:0:0:0:
192,192,56838,1,8,0:0:0:0:
320,192,56838,1,0,0:0:0:0:
64,192,57000,1,2,0:0:0:0:
192,192,57081,1,2,0:0:0:0:
320,192,57162,1,8,0:0:0:0:
64,192,57324,1,2,0:0:0:0:
320,192,57486,1,8,0:0:0:0:
448,192,57486,1,0,0:0:0:0:
64,192,57811,1,4,0:0:0:0:
320,192,57811,1,2,0:0:0:0:
64,192,57973,1,4,0:0:0:0:
320,192,57973,1,2,0:0:0:0:
192,192,58459,1,4,0:0:0:0:
448,192,58459,1,2,0:0:0:0:
192,192,58621,1,4,0:0:0:0:
448,192,58621,1,2,0:0:0:0:
64,192,58946,128,4,59270:0:0:0:0:
448,192,58946,1,2,0:0:0:0:
320,192,59270,1,2,0:0:0:0:
192,192,59432,1,8,0:0:0:0:
448,192,59432,1,0,0:0:0:0:
64,192,59594,1,2,0:0:0:0:
192,192,59757,1,8,0:0:0:0:
448,192,59757,1,4,0:0:0:0:
320,192,59919,1,2,0:0:0:0:
64,192,60081,1,2,0:0:0:0:
192,192,60081,1,0,0:0:0:0:
192,192,60405,1,2,0:0:0:0:
448,192,60405,128,4,61054:0:0:0:0:
192,192,60648,1,2,0:0:0:0:
192,192,60892,1,2,0:0:0:0:
64,192,61054,1,8,0:0:0:0:
320,192,61054,1,0,0:0:0:0:
192,192,61378,1,0,0:0:0:0:
64,192,61702,128,2,62351:0:0:0:0:
320,192,61702,1,4,0:0:0:0:
320,192,61946,1,2,0:0:0:0:
320,192,62189,1,2,0:0:0:0:
192,192,62351,1,8,0:0:0:0:
448,192,62351,1,0,0:0:0:0:
64,192,62513,1,2,0:0:0:0:
320,192,62675,1,8,0:0:0:0:
448,192,62675,1,0,0:0:0:0:
192,192,62838,1,2,0:0:0:0:
64,192,63000,1,4,0:0:0:0:
448,192,63000,1,8,0:0:0:0:
64,192,63162,1,2,0:0:0:0:
320,192,63324,1,2,0:0:0:0:
64,192,63486,1,4,0:0:0:0:
448,192,63486,1,8,0:0:0:0:
448,192,63648,1,2,0:0:0:0:
192,192,63811,1,2,0:0:0:0:
320,192,63973,1,8,0:0:0:0:
448,192,63973,1,0,0:0:0:0:
64,192,64135,1,4,0:0:0:0:
192,192,64135,1,2,0:0:0:0:
64,192,64459,1,4,0:0:0:0:
192,192,64459,1,2,0:0:0:0:
64,192,64621,1,2,0:0:0:0:
192,192,64621,1,0,0:0:0:0:
320,192,65594,1,4,0:0:0:0:
448,192,65594,1,8,0:0:0:0:
192,192,65757,1,2,0:0:0:0:
320,192,65919,1,8,0:0:0:0:
448,192,65919,1,0,0:0:0:0:
64,192,66081,1,2,0:0:0:0:
320,192,66243,1,8,0:0:0:0:
448,192,66243,1,0,0:0:0:0:
192,192,66405,1,2,0:0:0:0:
64,192,66567,1,8,0:0:0:0:
320,192,66729,128,4,67054:0:0:0:0:
448,192,66729,1,2,0:0:0:0:
192,192,67054,1,2,0:0:0:0:
64,192,67216,1,8,0:0:0:0:
448,192,67216,1,0,0:0:0:0:
192,192,67378,1,2,0:0:0:0:
320,192,67540,1,8,0:0:0:0:
448,192,67540,1,0,0:0:0:0:
192,192,67702,1,2,0:0:0:0:
64,192,67865,1,8,0:0:0:0:
448,192,67865,1,0,0:0:0:0:
320,192,68027,1,2,0:0:0:0:
64,192,68189,1,8,0:0:0:0:
192,192,68189,1,4,0:0:0:0:
448,192,68351,1,2,0:0:0:0:
64,192,68513,1,8,0:0:0:0:
192,192,68513,1,0,0:0:0:0:
320,192,68675,1,2,0:0:0:0:
64,192,68838,1,8,0:0:0:0:
192,192,68838,1,0,0:0:0:0:
448,192,69000,1,2,0:0:0:0:
320,192,69162,1,8,0:0:0:0:
64,192,69324,128,4,69648:0:0:0:0:
192,192,69324,1,2,0:0:0:0:
320,192,69648,1,2,0:0:0:0:
448,192,69811,1,8,0:0:0:0:
64,192,69811,1,0,0:0:0:0:
192,192,69973,1,2,0:0:0:0:
320,192,70135,1,8,0:0:0:0:
448,192,70135,1,0,0:0:0:0:
192,192,70297,1,2,0:0:0:0:
64,192,70459,1,8,0:0:0:0:
320,192,70459,1,0,0:0:0:0:
448,192,70621,1,2,0:0:0:0:
192,192,70784,1,4,0:0:0:0:
320,192,70784,1,8,0:0:0:0:
64,192,70946,1,2,0:0:0:0:
192,192,71108,1,8,0:0:0:0:
320,192,71108,1,0,0:0:0:0:
448,192,71270,1,2,0:0:0:0:
192,192,71432,1,8,0:0:0:0:
320,192,71432,1,0,0:0:0:0:
64,192,71594,1,2,0:0:0:0:
448,192,71757,1,8,0:0:0:0:
192,192,71919,1,4,0:0:0:0:
320,192,71919,128,2,72243:0:0:0:0:
448,192,72243,1,2,0:0:0:0:
64,192,72405,1,8,0:0:0:0:
320,192,72405,1,0,0:0:0:0:
192,192,72567,1,2,0:0:0:0:
320,192,72729,1,8,0:0:0:0:
448,192,72729,1,0,0:0:0:0:
192,192,72892,1,2,0:0:0:0:
64,192,73054,1,8,0:0:0:0:
448,192,73054,1,0,0:0:0:0:
192,192,73378,1,2,0:0:0:0:
64,192,73540,1,2,0:0:0:0:
320,192,73702,1,8,0:0:0:0:
448,192,73702,1,0,0:0:0:0:
192,192,74027,1,2,0:0:0:0:
320,192,74189,1,2,0:0:0:0:
64,192,74351,1,8,0:0:0:0:
448,192,74351,1,0,0:0:0:0:
192,192,74513,1,0,0:0:0:0:
64,192,74675,1,2,0:0:0:0:
320,192,74675,1,0,0:0:0:0:
448,192,74838,1,8,0:0:0:0:
192,192,74919,1,8,0:0:0:0:
320,192,75000,1,10,0:0:0:0:
64,192,75162,1,8,0:0:0:0:
320,192,75324,1,10,0:0:0:0:
448,192,75486,1,8,0:0:0:0:
64,192,75648,1,10,0:0:0:0:
320,192,75811,1,8,0:0:0:0:
192,192,75892,1,8,0:0:0:0:
64,192,75973,1,4,0:0:0:0:
448,192,75973,1,2,0:0:0:0:
320,192,76135,1,0,0:0:0:0:
64,192,76297,1,8,0:0:0:0:
448,192,76297,1,0,0:0:0:0:
192,192,76459,1,2,0:0:0:0:
64,192,76621,1,8,0:0:0:0:
448,192,76621,1,0,0:0:0:0:
320,192,76784,1,2,0:0:0:0:
192,192,76946,1,8,0:0:0:0:
64,192,77108,128,4,77432:0:0:0:0:
448,192,77108,1,2,0:0:0:0:
320,192,77432,1,2,0:0:0:0:
64,192,77594,1,8,0:0:0:0:
192,192,77594,1,0,0:0:0:0:
448,192,77757,1,2,0:0:0:0:
64,192,77919,1,8,0:0:0:0:
320,192,77919,1,0,0:0:0:0:
192,192,78081,1,2,0:0:0:0:
64,192,78243,1,8,0:0:0:0:
448,192,78243,1,0,0:0:0:0:
192,192,78405,1,2,0:0:0:0:
320,192,78567,1,4,0:0:0:0:
448,192,78567,1,8,0:0:0:0:
64,192,78729,1,2,0:0:0:0:
320,192,78892,1,8,0:0:0:0:
448,192,78892,1,0,0:0:0:0:
192,192,79054,1,2,0:0:0:0:
320,192,79216,1,8,0:0:0:0:
448,192,79216,1,0,0:0:0:0:
64,192,79378,1,2,0:0:0:0:
192,192,79540,1,8,0:0:0:0:
320,192,79702,1,4,0:0:0:0:
448,192,79702,128,2,80027:0:0:0:0:
192,192,80027,1,2,0:0:0:0:
64,192,80189,1,8,0:0:0:0:
320,192,80189,1,0,0:0:0:0:
192,192,80351,1,2,0:0:0:0:
320,192,80513,1,8,0:0:0:0:
448,192,80513,1,0,0:0:0:0:
64,192,80675,1,2,0:0:0:0:
192,192,80838,1,8,0:0:0:0:
448,192,80838,1,0,0:0:0:0:
320,192,81000,1,2,0:0:0:0:
64,192,81162,1,8,0:0:0:0:
192,192,81162,1,4,0:0:0:0:
320,192,81324,1,2,0:0:0:0:
64,192,81486,1,8,0:0:0:0:
192,192,81486,1,0,0:0:0:0:
320,192,81648,1,2,0:0:0:0:
64,192,81811,1,8,0:0:0:0:
448,192,81811,1,0,0:0:0:0:
192,192,81973,1,2,0:0:0:0:
64,192,82135,1,8,0:0:0:0:
448,192,82135,1,0,0:0:0:0:
192,192,82297,1,2,0:0:0:0:
320,192,82459,1,8,0:0:0:0:
448,192,82459,1,0,0:0:0:0:
64,192,82621,1,2,0:0:0:0:
320,192,82784,1,8,0:0:0:0:
448,192,82784,1,0,0:0:0:0:
64,192,82946,1,2,0:0:0:0:
192,192,83108,1,8,0:0:0:0:
320,192,83108,1,0,0:0:0:0:
448,192,83270,1,2,0:0:0:0:
192,192,83432,1,8,0:0:0:0:
320,192,83432,1,0,0:0:0:0:
64,192,83757,1,2,0:0:0:0:
448,192,83919,1,0,0:0:0:0:
64,192,84081,1,8,0:0:0:0:
320,192,84081,1,0,0:0:0:0:
192,192,84243,1,4,0:0:0:0:
448,192,84243,1,2,0:0:0:0:
192,192,84567,1,2,0:0:0:0:
320,192,84648,1,2,0:0:0:0:
64,192,84729,1,8,0:0:0:0:
448,192,84729,1,0,0:0:0:0:
320,192,85054,1,2,0:0:0:0:
448,192,85216,1,2,0:0:0:0:
64,192,85378,1,8,0:0:0:0:
192,192,85378,1,2,0:0:0:0:
320,192,85540,1,0,0:0:0:0:
64,192,85702,1,8,0:0:0:0:
192,192,85702,1,2,0:0:0:0:
448,192,85865,1,8,0:0:0:0:
320,192,85946,1,8,0:0:0:0:
192,192,86027,1,10,0:0:0:0:
64,192,86189,1,8,0:0:0:0:
192,192,86270,1,8,0:0:0:0:
320,192,86351,1,4,0:0:0:0:
448,192,86351,128,2,86675:0:0:0:0:
64,192,86675,1,8,0:0:0:0:
192,192,86838,128,4,87162:0:0:0:0:
320,192,86838,1,2,0:0:0:0:
64,192,87162,128,4,88297:0:0:0:0:
448,192,87162,1,2,0:0:0:0:
320,192,88297,1,4,0:0:0:0:
448,192,88297,1,2,0:0:0:0:
320,192,88459,128,4,88621:0:0:0:0:
448,192,88459,128,2,88621:0:0:0:0:
