osu file format v14

[General]
AudioFilename: audio.mp3
AudioLeadIn: 0
PreviewTime: 65432
Countdown: 0
SampleSet: Soft
StackLeniency: 0
Mode: 0
LetterboxInBreaks: 0
WidescreenStoryboard: 1

[Editor]
DistanceSpacing: 0.3
BeatDivisor: 4
GridSize: 16
TimelineZoom: 2

[Metadata]
Title:JUSTadICE (TV Size)
TitleUnicode:JUSTadICE (TV Size)
Artist:Oomori Seiko
ArtistUnicode:大森靖子
Creator:IOException
Version:Special
Source:ブラッククローバー
Tags:japanese pop rock jrock j-rock anime opening op 7 Black Clover deadcode ceo of osu ceo_of_osu
BeatmapID:2801629
BeatmapSetID:1353364

[Difficulty]
HPDrainRate:9.2
CircleSize:4.2
OverallDifficulty:9
ApproachRate:9
SliderMultiplier:2.59999990463257
SliderTickRate:1

[Events]
//Background and Video events
0,0,"bg.jpg",0,0
//Break Periods
//Storyboard Layer 0 (Background)
//Storyboard Layer 1 (Fail)
//Storyboard Layer 2 (Pass)
//Storyboard Layer 3 (Foreground)
//Storyboard Layer 4 (Overlay)
//Storyboard Sound Samples

[TimingPoints]
730,324.324324324324,4,2,0,65,1,0
730,-142.857142857143,4,2,0,65,0,0
11108,-142.857142857143,4,2,0,75,0,0
11391,-142.857142857143,4,2,0,5,0,0
11432,-142.857142857143,4,2,0,75,0,0
11715,-142.857142857143,4,2,0,5,0,0
11757,-142.857142857143,4,2,0,75,0,0
12040,-142.857142857143,4,2,0,5,0,0
12081,-142.857142857143,4,2,0,75,0,0
13985,-142.857142857143,4,2,0,5,0,0
14027,-142.857142857143,4,2,0,75,0,0
14310,-142.857142857143,4,2,0,5,0,0
14351,-142.857142857143,4,2,0,75,0,0
14634,-142.857142857143,4,2,0,5,0,0
14675,-142.857142857143,4,2,0,75,0,0
15931,-142.857142857143,4,2,0,5,0,0
15973,-142.857142857143,4,2,0,75,0,0
16256,-142.857142857143,4,2,0,5,0,0
16297,-125,4,2,0,75,0,0
17391,-125,4,2,0,5,0,0
17432,-125,4,2,0,75,0,0
18243,-90.9090909090909,4,2,0,75,0,0
18526,-90.9090909090909,4,2,0,5,0,0
18567,-90.9090909090909,4,2,0,75,0,0
18850,-90.9090909090909,4,2,0,5,0,0
18892,-90.9090909090909,4,2,0,85,0,0
21162,-133.333333333333,4,2,0,85,0,0
21486,-117.647058823529,4,2,0,90,0,0
31865,-166.666666666667,4,2,0,90,0,0
31905,-166.666666666667,4,2,0,70,0,0
50027,-166.666666666667,4,2,0,80,0,0
52621,-166.666666666667,4,2,0,75,0,0
60405,-166.666666666667,4,2,0,70,0,0
63000,-166.666666666667,4,2,0,83,0,0
64054,-200,4,2,0,5,0,0
64135,-200,4,2,0,83,0,0
65594,-100,4,2,0,100,0,1
65877,-100,4,2,0,5,0,1
65919,-100,4,2,0,100,0,1
66202,-100,4,2,0,5,0,1
66243,-100,4,2,0,100,0,1
66526,-100,4,2,0,5,0,1
66567,-100,4,2,0,100,0,1
68472,-100,4,2,0,5,0,1
68513,-100,4,2,0,100,0,1
68796,-100,4,2,0,5,0,1
68838,-100,4,2,0,100,0,1
69121,-100,4,2,0,5,0,1
69162,-100,4,2,0,100,0,1
71067,-100,4,2,0,5,0,1
71108,-100,4,2,0,100,0,1
71391,-100,4,2,0,5,0,1
71432,-100,4,2,0,100,0,1
71715,-100,4,2,0,5,0,1
71757,-100,4,2,0,100,0,1
73661,-100,4,2,0,5,0,1
73702,-100,4,2,0,100,0,1
73985,-100,4,2,0,5,0,1
74027,-100,4,2,0,100,0,1
75973,-83.3333333333333,4,2,0,100,0,1
76256,-83.3333333333333,4,2,0,5,0,1
76297,-83.3333333333333,4,2,0,100,0,1
76580,-83.3333333333333,4,2,0,5,0,1
76621,-83.3333333333333,4,2,0,100,0,1
76904,-83.3333333333333,4,2,0,5,0,1
76946,-83.3333333333333,4,2,0,100,0,1
78850,-83.3333333333333,4,2,0,5,0,1
78892,-83.3333333333333,4,2,0,100,0,1
79175,-83.3333333333333,4,2,0,5,0,1
79216,-83.3333333333333,4,2,0,100,0,1
79499,-83.3333333333333,4,2,0,5,0,1
79540,-83.3333333333333,4,2,0,100,0,1
81162,-83.3333333333333,4,2,0,80,0,0
83757,-83.3333333333333,4,2,0,85,0,0
84040,-83.3333333333333,4,2,0,5,0,0
84081,-83.3333333333333,4,2,0,85,0,0
85013,-83.3333333333333,4,2,0,5,0,0
85054,-83.3333333333333,4,2,0,85,0,0
86351,-83.3333333333333,4,2,0,95,0,0
87162,-250,4,2,0,95,0,0
88256,-250,4,2,0,5,0,0
88297,-250,4,2,0,100,0,0

[Colours]
Combo1 : 198,197,166
Combo2 : 177,194,192
Combo3 : 173,154,188

[HitObjects]
30,27,730,6,0,L|47:236,2,181.99999332428,6|2|2,0:0|0:0|0:0,0:0:0:0:
44,208,1865,2,0,L|30:27,1,181.99999332428,2|2,0:0|0:0,0:0:0:0:
30,27,2351,2,0,L|38:131,1,90.9999966621399,2|2,0:0|0:0,0:0:0:0:
44,208,2675,1,2,0:0:0:0:
14,349,3324,6,0,L|204:319,2,181.99999332428,2|2|2,0:0|0:0|0:0,0:0:0:0:
14,349,4459,2,0,L|204:319,1,181.99999332428,2|2,0:0|0:0,0:0:0:0:
14,349,4946,2,0,L|138:329,1,90.9999966621399,2|2,0:0|0:0,0:0:0:0:
193,320,5270,1,2,0:0:0:0:
230,154,5432,2,0,L|207:266,2,90.9999966621399,2|2|2,0:0|0:0|0:0,0:0:0:0:
338,382,5919,6,0,B|318:228|318:228|300:206,2,181.99999332428,2|2|2,0:0|0:0|0:0,0:0:0:0:
338,382,7054,2,0,B|318:228|318:228|300:206,1,181.99999332428,2|2,0:0|0:0,0:0:0:0:
301,207,7540,2,0,B|317:227|317:227|338:373,1,90.9999966621399,2|2,0:0|0:0,0:0:0:0:
338,382,7865,1,2,0:0:0:0:
436,154,8513,6,0,L|258:115,2,181.99999332428,2|2|2,0:0|0:0|0:0,0:0:0:0:
436,154,9486,1,2,0:0:0:0:
436,154,9648,2,0,L|258:115,1,181.99999332428,2|2,0:0|0:0,0:0:0:0:
436,154,10135,2,0,L|310:126,1,90.9999966621399,2|2,0:0|0:0,0:0:0:0:
258,115,10459,1,2,0:0:0:0:
181,7,10621,2,0,L|94:70,2,90.9999966621399,2|2|2,0:0|0:3|0:0,0:0:0:0:
71,190,11108,6,0,B|68:153|68:153|5:38,1,159.249994158745,4|0,3:2|0:0,0:0:0:0:
71,190,11432,2,0,B|68:153|68:153|5:38,1,159.249994158745,0|0,3:2|0:0,0:0:0:0:
71,190,11757,2,0,B|68:153|68:153|5:38,1,159.249994158745,0|0,3:2|0:0,0:0:0:0:
71,190,12081,1,0,0:0:0:0:
287,83,12243,6,0,L|85:57,1,181.99999332428,2|2,0:0|0:0,0:0:0:0:
287,83,12730,2,0,L|186:70,1,90.9999966621399,0|0,3:2|0:0,0:0:0:0:
287,83,13054,1,0,3:2:0:0:
324,371,13702,6,0,L|493:339,1,159.249994158745,0|0,3:2|0:0,0:0:0:0:
324,371,14027,2,0,L|493:339,1,159.249994158745,0|0,3:2|0:0,0:0:0:0:
324,371,14351,2,0,L|493:339,1,159.249994158745,0|0,3:2|0:0,0:0:0:0:
324,371,14675,1,0,0:0:0:0:
408,97,14838,6,0,B|415:122|415:122|384:277,1,181.99999332428,0|2,3:0|0:0,0:0:0:0:
384,275,15324,2,0,L|374:173,1,90.9999966621399,0|0,3:2|0:0,0:0:0:0:
142,212,15648,2,0,L|318:235,1,159.249994158745,8|0,3:2|0:0,0:0:0:0:
142,212,15973,2,0,L|318:235,1,159.249994158745,10|0,3:1|0:0,0:0:0:0:
352,344,16297,6,0,B|338:317|338:317|362:125,1,207.999992370606,0|0,1:0|1:0,0:0:0:0:
360,140,16784,2,0,B|385:212|385:212|371:255,1,103.999996185303,0|8,3:0|0:0,0:0:0:0:
87,253,17108,2,0,L|285:219,1,181.99999332428,0|0,1:0|0:0,0:0:0:0:
87,253,17432,1,0,1:0:0:0:
277,135,17594,2,0,B|251:133|251:133|198:55,1,103.999996185303,8|8,0:0|0:0,0:0:0:0:
187,270,17919,2,0,L|168:379,1,103.999996185303,0|0,1:0|0:0,0:0:0:0:
28,315,18243,2,0,B|3:290|3:290|33:46,1,250.249990820885,4|0,1:2|0:0,0:0:0:0:
28,315,18567,2,0,B|3:290|3:290|33:46,1,250.249990820885,4|0,1:2|0:0,0:0:0:0:
4,0,18892,5,4,1:0:0:0:
249,149,19216,5,0,1:2:0:0:
495,2,19540,5,0,1:2:0:0:
253,59,19702,1,8,1:2:0:0:
259,325,19865,5,0,1:2:0:0:
261,280,19946,1,0,1:2:0:0:
263,235,20027,1,8,1:2:0:0:
263,235,21000,1,0,1:2:0:0:
261,280,21081,1,0,1:2:0:0:
259,325,21162,2,0,B|213:338|213:338|151:320,1,97.4999964237216,8|0,1:2|0:0,0:0:0:0:
78,98,21486,6,0,B|135:82|135:82|174:242,1,220.999991893769,4|8,1:0|0:0,0:0:0:0:
81,345,21973,2,0,B|48:301|48:301|110:271,1,110.499995946885,2|0,0:0|1:0,0:0:0:0:
327,218,22297,6,0,B|269:228|269:228|235:313|235:313|142:327,2,220.999991893769,0|2|2,1:0|1:0|1:0,0:0:0:0:
410,205,23108,1,0,0:0:0:0:
231,164,23270,6,0,B|103:138|103:138|188:207,1,220.999991893769,2|2,1:0|1:0,0:0:0:0:
173,194,23757,2,0,B|201:162|201:162|181:21,1,165.749993920327,8|0,1:0|0:0,0:0:0:0:
183,40,24081,6,0,B|143:102|143:102|170:156,1,110.499995946885,0|0,1:0|1:0,0:0:0:0:
390,116,24405,2,0,B|376:103|376:103|278:99,1,110.499995946885,8|2,0:2|0:2,0:0:0:0:
285,100,24730,1,0,1:0:0:0:
79,247,24892,6,0,B|260:217|260:217|274:173,2,220.999991893769,0|2|0,1:0|1:1|1:1,0:0:0:0:
0,259,25702,1,8,1:1:0:0:
249,298,25865,1,2,1:1:0:0:
0,259,26189,5,2,1:1:0:0:
238,376,26675,6,0,B|260:250|260:250|352:232,1,220.999991893769,4|8,1:0|0:0,0:0:0:0:
472,272,27162,2,0,B|495:304|495:304|412:284,1,110.499995946885,2|0,0:0|1:0,0:0:0:0:
426,287,27486,6,0,B|443:209|443:209|415:168|415:168|428:69,2,220.999991893769,0|2|2,1:0|1:0|1:0,0:0:0:0:
372,344,28297,1,0,0:0:0:0:
285,137,28459,6,0,B|218:168|218:168|351:232,1,220.999991893769,2|2,1:0|1:0,0:0:0:0:
463,177,28946,2,0,B|492:134|492:134|377:160,1,165.749993920327,8|0,1:0|0:0,0:0:0:0:
380,159,29270,6,0,B|363:233|363:233|398:295|398:295|383:375,1,220.999991893769,0|8,1:0|0:2,0:0:0:0:
384,367,29919,5,0,1:0:0:0:
380,159,30081,1,0,1:0:0:0:
384,367,30243,1,0,1:0:0:0:
380,159,30405,2,0,B|363:233|363:233|398:295|398:295|383:375,1,220.999991893769,2|0,1:1|1:1,0:0:0:0:
380,159,30892,2,0,L|368:32,1,110.499995946885,8|8,1:1|1:1,0:0:0:0:
369,48,31135,1,8,0:1:0:0:
369,48,31216,1,8,1:1:0:0:
369,48,31297,1,8,1:1:0:0:
369,48,31378,5,2,1:1:0:0:
247,126,31540,1,8,0:0:0:0:
125,204,31702,1,0,1:0:0:0:
3,282,31865,6,0,L|533:194,1,506.99998140335,4|0,1:0|0:0,0:0:0:0:
372,146,33000,1,0,1:0:0:0:
180,383,33486,5,8,1:0:0:0:
180,383,33811,5,8,1:0:0:0:
372,146,34135,5,8,1:0:0:0:
255,19,34459,6,0,B|267:51|267:51|244:261,1,233.999991416931,0|0,1:0|0:0,0:0:0:0:
245,249,35108,2,0,B|209:147|209:147|245:108,1,155.999994277954,0|8,1:0|1:0,0:0:0:0:
492,177,35594,6,0,B|510:201|510:201|293:164,1,233.999991416931,8|2,1:0|1:0,0:0:0:0:
451,6,36405,5,2,1:0:0:0:
308,384,36730,1,2,1:0:0:0:
8,108,37054,6,0,L|527:60,1,506.99998140335,4|0,1:0|0:0,0:0:0:0:
353,0,38189,1,0,1:0:0:0:
353,0,38675,5,8,1:0:0:0:
385,172,39000,5,8,1:0:0:0:
418,344,39324,5,8,1:0:0:0:
418,344,39648,5,0,1:0:0:0:
294,280,39811,1,0,1:0:0:0:
388,250,39973,5,0,1:0:0:0:
324,374,40135,1,0,1:0:0:0:
356,312,40297,5,0,1:0:0:0:
324,129,40621,1,8,1:0:0:0:
235,96,40784,1,8,1:0:0:0:
235,96,41757,5,0,1:0:0:0:
324,129,41919,1,8,1:0:0:0:
413,162,42081,1,0,1:0:0:0:
502,195,42243,6,0,L|-9:265,1,506.99998140335,4|0,1:0|0:0,0:0:0:0:
173,320,43378,1,0,1:0:0:0:
457,384,44189,5,0,1:0:0:0:
173,320,44513,5,8,1:0:0:0:
411,52,44838,6,0,B|387:78|387:78|373:312,1,233.999991416931,0|0,1:0|1:0,0:0:0:0:
411,52,45486,2,0,B|431:157|431:157|396:199,1,155.999994277954,0|8,1:0|1:0,0:0:0:0:
112,108,45973,6,0,L|378:135,1,233.999991416931,8|2,1:0|1:0,0:0:0:0:
0,216,46784,5,2,1:0:0:0:
512,106,47108,1,2,1:0:0:0:
126,65,47432,6,0,B|114:128|114:128|409:299|409:299|399:376,1,467.999982833862,4|0,1:0|1:0,0:0:0:0:
401,362,48567,1,8,1:0:0:0:
2,242,49216,5,0,1:0:0:0:
2,242,49378,2,0,B|27:222|27:222|38:71,1,155.999994277954,0|8,1:0|1:0,0:0:0:0:
37,99,50027,5,12,1:0:0:0:
148,0,50189,1,0,1:0:0:0:
181,144,50351,5,12,1:2:0:0:
215,290,50513,1,0,1:0:0:0:
326,192,50675,5,12,1:2:0:0:
437,96,50838,1,0,1:0:0:0:
470,239,51000,5,12,1:2:0:0:
504,382,51162,2,0,B|384:341|384:341|355:349,1,155.999994277954,4|0,1:1|1:0,0:0:0:0:
337,233,51648,6,0,L|355:348,1,116.999995708465,8|0,1:0|0:0,0:0:0:0:
355,117,51973,2,0,L|337:232,1,116.999995708465,8|0,1:0|0:0,0:0:0:0:
337,1,52297,2,0,L|354:116,1,116.999995708465,4|0,1:3|0:0,0:0:0:0:
469,220,52621,5,4,1:0:0:0:
216,169,52946,1,0,0:0:0:0:
2,309,53270,1,4,1:2:0:0:
216,169,53594,1,0,0:0:0:0:
469,220,53757,1,4,1:0:0:0:
469,220,54081,5,2,1:2:0:0:
469,220,54405,5,0,1:0:0:0:
422,156,54567,1,8,1:2:0:0:
433,80,54730,1,0,1:0:0:0:
444,4,54892,1,8,1:2:0:0:
482,384,55216,5,4,1:0:0:0:
329,101,55540,1,0,0:0:0:0:
20,10,55865,1,4,1:2:0:0:
329,101,56189,1,0,0:0:0:0:
482,384,56351,1,4,1:0:0:0:
482,384,56675,5,0,1:2:0:0:
494,308,56838,1,2,1:2:0:0:
469,236,57000,1,0,0:0:0:0:
393,224,57162,1,8,1:2:0:0:
359,153,57324,1,0,1:0:0:0:
371,77,57486,1,8,1:2:0:0:
72,12,57811,5,4,1:0:0:0:
462,148,58135,1,0,0:0:0:0:
97,329,58459,1,4,1:2:0:0:
462,148,58784,1,0,0:0:0:0:
72,12,58946,1,4,1:0:0:0:
72,12,59270,5,2,1:2:0:0:
72,12,59594,5,0,1:0:0:0:
105,84,59757,1,8,1:2:0:0:
85,161,59919,1,0,1:0:0:0:
63,235,60081,1,8,1:2:0:0:
63,235,60405,6,0,L|38:-3,1,233.999991416931,4|0,3:2|1:0,0:0:0:0:
63,235,61054,1,0,1:0:0:0:
394,151,61540,5,0,0:0:0:0:
394,151,61702,2,0,L|419:389,1,233.999991416931,4|0,3:2|0:0,0:0:0:0:
394,151,62351,1,0,1:0:0:0:
199,207,62675,1,0,1:0:0:0:
4,269,63000,2,0,B|239:251|239:251|247:258|247:258|514:240,1,506.99996593094,12|0,1:0|0:0,0:0:0:0:
256,384,64135,1,2,1:0:0:0:
256,384,64459,5,2,1:0:0:0:
192,121,64621,1,2,1:0:0:0:
192,121,64946,5,2,0:0:0:0:
192,121,65270,5,2,0:0:0:0:
192,121,65594,6,0,B|165:126|165:126|-11:6,1,227.49999165535,6|0,1:0|0:0,0:0:0:0:
192,121,65919,2,0,B|210:140|210:140|194:354,1,227.49999165535,2|0,1:0|0:0,0:0:0:0:
192,121,66243,2,0,B|199:95|199:95|392:1,1,227.49999165535,2|0,1:0|0:0,0:0:0:0:
192,121,66567,1,8,1:0:0:0:
452,376,66730,6,0,L|171:337,1,259.999990463257,2|0,1:0|1:0,0:0:0:0:
452,376,67216,2,0,L|311:356,1,129.999995231629,8|8,1:0|1:0,0:0:0:0:
452,376,67540,1,0,1:0:0:0:
17,309,68189,6,0,B|29:288|29:288|245:232,1,227.49999165535,6|0,1:0|0:0,0:0:0:0:
268,21,68513,2,0,B|280:41|280:41|220:256,1,227.49999165535,2|0,1:0|0:0,0:0:0:0:
392,382,68838,2,0,B|367:382|367:382|211:223,1,227.49999165535,2|0,1:0|0:0,0:0:0:0:
225,237,69162,1,8,1:0:0:0:
16,12,69324,6,0,B|35:-4|35:-4|289:24,1,259.999990463257,2|8,1:0|1:0,0:0:0:0:
16,12,69811,2,0,B|35:-4|35:-4|263:22,1,129.999995231629,8|0,1:0|1:0,0:0:0:0:
16,12,70135,1,0,1:0:0:0:
425,22,70784,6,0,B|450:20|450:20|341:203,1,227.49999165535,6|0,1:0|0:0,0:0:0:0:
456,349,71108,2,0,B|445:371|445:371|341:185,1,227.49999165535,2|0,1:0|0:0,0:0:0:0:
159,212,71432,2,0,B|144:191|144:191|357:194,1,227.49999165535,2|0,1:0|0:0,0:0:0:0:
345,193,71757,1,8,1:0:0:0:
41,281,71919,6,0,B|28:256|28:256|99:18,1,259.999990463257,2|0,1:0|1:0,0:0:0:0:
94,33,72405,2,0,L|57:158,1,129.999995231629,8|8,1:0|1:0,0:0:0:0:
94,33,72730,1,0,1:0:0:0:
243,162,73378,6,0,B|254:210|254:210|380:245|380:245|394:303,1,227.49999165535,6|0,1:0|0:0,0:0:0:0:
243,162,73702,2,0,B|231:113|231:113|105:78|105:78|91:20,1,227.49999165535,2|0,1:0|0:0,0:0:0:0:
243,162,74027,1,2,1:0:0:0:
243,162,74351,1,0,1:0:0:0:
338,15,74513,5,0,1:0:0:0:
15,229,74838,1,8,1:0:0:0:
338,15,75162,1,8,1:0:0:0:
299,164,75486,5,8,1:0:0:0:
180,134,75648,1,0,1:0:0:0:
61,104,75811,1,0,1:0:0:0:
392,252,75973,6,0,L|514:2,1,272.99998998642,6|0,1:0|0:0,0:0:0:0:
145,130,76297,2,0,L|394:252,1,272.99998998642,2|0,1:0|0:0,0:0:0:0:
24,375,76621,2,0,L|146:125,1,272.99998998642,2|0,1:0|0:0,0:0:0:0:
24,375,76946,1,8,1:0:0:0:
0,0,77108,6,0,B|20:8|20:8|66:264|66:264|116:292,1,311.999988555909,2|0,1:0|1:0,0:0:0:0:
268,172,77594,2,0,B|285:190|285:190|148:214,1,155.999994277954,8|8,1:0|1:0,0:0:0:0:
156,213,77919,1,0,1:0:0:0:
156,213,78567,6,0,B|106:179|106:179|24:387,1,272.99998998642,6|0,1:0|0:0,0:0:0:0:
330,173,78892,2,0,B|274:133|274:133|213:253|213:253|146:205,1,272.99998998642,2|0,1:0|0:0,0:0:0:0:
458,10,79216,2,0,B|381:208|381:208|331:174,1,272.99998998642,2|0,1:0|0:0,0:0:0:0:
458,10,79540,1,8,1:0:0:0:
196,382,79702,6,0,B|478:362|478:362|514:316,1,311.999988555909,2|0,1:0|1:0,0:0:0:0:
471,201,80189,2,0,B|439:174|439:174|430:298,1,155.999994277954,8|8,1:0|1:0,0:0:0:0:
430,287,80513,2,0,B|450:266|450:266|422:-22,1,311.999988555909,0|0,1:0|0:0,0:0:0:0:
351,37,81000,1,0,1:0:0:0:
0,92,81162,6,0,B|11:67|11:67|203:49,1,155.999994277954,12|0,1:0|0:0,0:0:0:0:
170,296,81486,2,0,B|190:316|190:316|378:295,1,155.999989517212,8|0,1:0|0:0,0:0:0:0:
475,23,81811,1,8,1:0:0:0:
384,163,81973,2,0,B|428:186|428:186|480:161|480:161|482:114,1,155.999989517212,0|8,1:0|1:0,0:0:0:0:
315,99,82297,1,0,1:0:0:0:
346,282,82459,5,8,1:0:0:0:
433,319,82621,1,8,1:0:0:0:
511,357,82784,1,0,1:0:0:0:
511,357,83108,6,0,B|342:344|402:232|231:237,1,311.999988555909,8|8,1:0|1:0,0:0:0:0:
234,236,83757,6,0,L|516:274,1,272.99998998642,4|0,1:0|0:0,0:0:0:0:
234,236,84081,1,8,0:0:0:0:
285,88,84243,2,0,L|228:250,1,155.999994277954,0|0,1:0|1:0,0:0:0:0:
234,236,84567,1,0,1:0:0:0:
15,52,84730,2,0,L|286:89,1,272.99998998642,8|0,1:0|0:0,0:0:0:0:
15,52,85054,5,4,1:2:0:0:
286,89,85216,1,8,1:0:0:0:
234,236,85378,1,0,1:0:0:0:
44,315,85540,6,0,B|25:288|25:288|77:-13,1,311.999988555909,12|8,1:2|1:0,0:0:0:0:
195,109,86027,1,8,1:0:0:0:
195,109,86108,1,8,1:0:0:0:
195,109,86189,1,8,1:0:0:0:
195,109,86270,1,8,1:0:0:0:
195,109,86351,6,0,B|279:146|279:146|28:107,1,311.999988555909,14|0,1:0|1:0,0:0:0:0:
61,112,86838,2,0,B|96:17|96:17|162:70,1,155.999994277954,2|0,1:0|0:0,0:0:0:0:
274,363,87162,6,0,L|236:6,1,350.999987125397,6|0,1:0|0:0,0:0:0:0:
274,363,88297,1,4,1:0:0:0:
274,363,88459,1,0,1:0:0:0:
