osu file format v14

[General]
AudioFilename: audio.mp3
AudioLeadIn: 0
PreviewTime: 65432
Countdown: 0
SampleSet: Soft
StackLeniency: 0.5
Mode: 0
LetterboxInBreaks: 0
WidescreenStoryboard: 1

[Editor]
DistanceSpacing: 0.3
BeatDivisor: 4
GridSize: 16
TimelineZoom: 2

[Metadata]
Title:JUSTadICE (TV Size)
TitleUnicode:JUSTadICE (TV Size)
Artist:Oomori Seiko
ArtistUnicode:大森靖子
Creator:IOException
Version:Hard
Source:ブラッククローバー
Tags:japanese pop rock jrock j-rock anime opening op 7 Black Clover deadcode ceo of osu ceo_of_osu
BeatmapID:2801750
BeatmapSetID:1353364

[Difficulty]
HPDrainRate:4
CircleSize:3.8
OverallDifficulty:7
ApproachRate:7.5
SliderMultiplier:1.99999990463257
SliderTickRate:1

[Events]
//Background and Video events
0,0,"bg.jpg",0,0
//Break Periods
//Storyboard Layer 0 (Background)
//Storyboard Layer 1 (Fail)
//Storyboard Layer 2 (Pass)
//Storyboard Layer 3 (Foreground)
//Storyboard Layer 4 (Overlay)
//Storyboard Sound Samples

[TimingPoints]
730,324.324324324324,4,2,0,65,1,0
730,-142.857142857143,4,2,0,65,0,0
11108,-142.857142857143,4,2,0,75,0,0
16297,-125,4,2,0,75,0,0
18892,-90.9090909090909,4,2,0,85,0,0
21162,-133.333333333333,4,2,0,85,0,0
21486,-117.647058823529,4,2,0,90,0,0
31865,-166.666666666667,4,2,0,90,0,0
31905,-166.666666666667,4,2,0,70,0,0
50027,-166.666666666667,4,2,0,80,0,0
52621,-166.666666666667,4,2,0,75,0,0
60405,-166.666666666667,4,2,0,70,0,0
63000,-166.666666666667,4,2,0,83,0,0
65594,-100,4,2,0,100,0,1
81162,-100,4,2,0,80,0,0
83757,-100,4,2,0,85,0,0
86351,-100,4,2,0,95,0,0
87162,-250,4,2,0,95,0,0
88297,-250,4,2,0,100,0,0

[Colours]
Combo1 : 198,197,166
Combo2 : 177,194,192
Combo3 : 173,154,188

[HitObjects]
14,89,730,6,0,L|36:258,2,139.99999332428,6|2|2,0:0|0:0|0:0,0:0:0:0:
14,89,1865,2,0,L|183:67,1,139.99999332428,2|2,0:0|0:0,0:0:0:0:
221,19,2351,2,0,B|250:42|250:42|236:98,1,69.9999966621399,2|2,0:0|0:0,0:0:0:0:
225,152,2675,1,2,0:0:0:0:
225,152,3324,6,0,L|390:129,2,139.99999332428,2|2|2,0:0|0:0|0:0,0:0:0:0:
225,152,4459,2,0,L|211:304,1,139.99999332428,2|2,0:0|0:0,0:0:0:0:
200,377,4946,2,0,B|164:385|164:385|127:364,1,69.9999966621399,2|2,0:0|0:0,0:0:0:0:
212,291,5270,2,0,B|183:274|183:274|147:282,1,69.9999966621399,2|2,0:0|0:0,0:0:0:0:
70,317,5594,1,2,0:0:0:0:
70,317,5757,1,2,0:0:0:0:
70,317,5919,6,0,B|56:305|56:305|31:162,2,139.99999332428,2|2|2,0:0|0:0|0:0,0:0:0:0:
70,317,7054,2,0,L|228:302,1,139.99999332428,2|2,0:0|0:0,0:0:0:0:
276,242,7540,2,0,B|293:258|293:258|288:322,1,69.9999966621399,2|2,0:0|0:0,0:0:0:0:
282,384,7865,1,2,0:0:0:0:
282,384,8513,6,0,L|433:371,2,139.99999332428,2|2|2,0:0|0:0|0:0,0:0:0:0:
304,262,9486,1,2,0:0:0:0:
304,262,9648,2,0,B|315:227|315:227|312:117,1,139.99999332428,2|2,0:0|0:0,0:0:0:0:
311,41,10135,2,0,L|241:56,1,69.9999966621399,2|2,0:0|0:0,0:0:0:0:
198,127,10459,1,2,0:0:0:0:
198,127,10621,1,2,0:0:0:0:
198,127,10784,2,0,L|128:112,1,69.9999966621399,2|2,0:3|0:0,0:0:0:0:
48,2,11108,6,0,B|35:29|35:29|48:87,1,69.9999966621399,4|0,3:2|0:0,0:0:0:0:
55,209,11432,2,0,B|68:182|68:182|55:124,1,69.9999966621399,0|0,3:2|0:0,0:0:0:0:
48,2,11757,2,0,B|35:29|35:29|48:87,1,69.9999966621399,0|0,3:2|0:0,0:0:0:0:
59,142,12081,1,0,0:0:0:0:
137,153,12243,2,0,L|294:174,1,139.99999332428,2|2,0:0|0:0,0:0:0:0:
355,185,12730,2,0,B|364:164|364:164|348:106,1,69.9999966621399,0|0,3:2|0:0,0:0:0:0:
332,47,13054,1,0,3:2:0:0:
332,47,13702,6,0,L|418:30,1,69.9999966621399,0|0,3:2|0:0,0:0:0:0:
222,75,14027,2,0,L|153:88,1,69.9999966621399,0|0,3:2|0:0,0:0:0:0:
332,47,14351,2,0,L|418:30,1,69.9999966621399,0|0,3:2|0:0,0:0:0:0:
222,75,14675,1,0,0:0:0:0:
265,2,14838,2,0,L|300:167,1,139.99999332428,0|2,3:0|0:0,0:0:0:0:
309,218,15324,2,0,B|334:217|334:217|384:180,1,69.9999966621399,0|0,3:2|0:0,0:0:0:0:
377,105,15648,2,0,L|461:112,1,69.9999966621399,8|0,3:2|0:0,0:0:0:0:
446,110,15973,1,10,3:1:0:0:
512,241,16297,6,0,B|501:216|501:216|345:186,1,159.999992370606,0|0,1:0|1:0,0:0:0:0:
306,245,16784,2,0,B|297:270|297:270|320:321,1,79.9999961853028,0|8,3:0|0:0,0:0:0:0:
385,266,17108,2,0,L|397:75,1,159.999992370606,0|0,1:0|1:0,0:0:0:0:
482,45,17594,5,8,0:0:0:0:
482,45,17757,1,8,0:0:0:0:
482,45,17919,2,0,B|345:27|345:27|316:48,2,159.999992370606,0|4|4,1:0|1:2|1:2,0:0:0:0:
253,108,18892,6,0,B|235:84|235:84|251:-17,1,109.999994754791,4|0,1:0|0:0,0:0:0:0:
355,144,19216,2,0,B|373:168|373:168|357:269,1,109.999994754791,0|0,1:2|0:0,0:0:0:0:
263,196,19540,1,0,1:2:0:0:
192,180,19702,1,8,1:2:0:0:
124,208,19865,1,0,1:2:0:0:
56,236,20027,1,8,1:2:0:0:
56,236,21000,5,0,1:2:0:0:
124,208,21162,2,0,L|134:130,1,74.9999964237216,8|0,1:2|0:0,0:0:0:0:
88,68,21486,6,0,B|117:50|117:50|284:83,1,169.999991893769,4|8,1:0|0:0,0:0:0:0:
330,100,21973,2,0,B|347:69|347:69|321:24,1,84.9999959468845,2|0,0:0|1:0,0:0:0:0:
250,76,22297,2,0,L|231:255,2,169.999991893769,0|2|2,1:0|1:0|1:0,0:0:0:0:
312,10,23108,1,0,0:0:0:0:
312,10,23270,2,0,B|347:1|347:1|487:50,1,169.999991893769,2|2,1:0|1:0,0:0:0:0:
473,45,24081,6,0,B|441:69|441:69|446:122,1,84.9999959468845,0|0,1:0|1:0,0:0:0:0:
453,192,24405,2,0,B|442:198|442:198|353:172,1,84.9999959468845,8|2,0:2|0:2,0:0:0:0:
352,98,24730,1,0,1:0:0:0:
352,98,24892,2,0,L|177:117,2,169.999991893769,0|2|0,1:0|1:1|1:1,0:0:0:0:
372,177,25702,1,8,1:1:0:0:
372,177,25865,2,0,B|388:228|388:228|264:201,1,169.999991893769,2|2,1:1|1:1,0:0:0:0:
274,203,26675,6,0,B|253:243|253:243|281:285,1,84.9999959468845,4|0,1:0|1:0,0:0:0:0:
362,272,27000,2,0,B|383:232|383:232|355:190,1,84.9999959468845,8|2,0:0|0:0,0:0:0:0:
325,351,27324,1,0,1:0:0:0:
325,351,27486,2,0,B|345:372|345:372|504:375,2,169.999991893769,0|2|2,1:0|1:0|1:0,0:0:0:0:
275,276,28297,1,0,0:0:0:0:
275,276,28459,2,0,B|245:265|245:265|94:302,1,169.999991893769,2|2,1:0|1:0,0:0:0:0:
110,297,29270,6,0,B|110:270|110:270|150:213,1,84.9999959468845,0|0,1:0|1:0,0:0:0:0:
76,180,29594,2,0,L|-26:132,1,84.9999959468845,8|2,0:2|0:2,0:0:0:0:
52,75,29919,1,0,1:0:0:0:
52,75,30081,2,0,B|58:90|58:90|34:252,2,169.999991893769,0|2|0,1:0|1:1|1:1,0:0:0:0:
72,0,30892,1,8,1:1:0:0:
72,0,31054,1,8,1:1:0:0:
192,52,31378,1,2,1:1:0:0:
203,125,31540,1,8,0:0:0:0:
216,200,31702,1,0,1:0:0:0:
147,247,31865,6,0,L|530:192,1,359.999982833862,4|0,1:0|0:0,0:0:0:0:
465,126,33000,1,0,1:0:0:0:
378,363,33486,5,8,1:0:0:0:
262,284,33811,1,8,1:0:0:0:
272,131,34135,1,8,1:0:0:0:
160,30,34459,6,0,B|103:26|103:26|30:158,1,179.999991416931,0|0,1:0|0:0,0:0:0:0:
15,205,35108,1,0,1:0:0:0:
237,202,35432,1,8,1:0:0:0:
237,202,35594,2,0,B|232:164|232:164|152:108,1,119.999994277954,8|0,1:0|0:0,0:0:0:0:
165,117,36081,5,2,1:0:0:0:
326,88,36405,1,2,1:0:0:0:
476,56,36730,1,2,1:0:0:0:
356,14,37054,6,0,L|305:383,1,359.999982833862,4|0,1:0|0:0,0:0:0:0:
306,370,38189,1,0,1:0:0:0:
196,184,38675,5,8,1:0:0:0:
44,219,39000,1,8,1:0:0:0:
16,375,39324,1,8,1:0:0:0:
175,361,39648,6,0,L|255:354,1,59.999997138977,0|0,1:0|1:0,0:0:0:0:
279,279,39973,1,0,1:0:0:0:
279,279,40135,1,0,1:0:0:0:
279,279,40297,2,0,L|359:286,1,59.999997138977,0|0,1:0|0:0,0:0:0:0:
420,332,40621,1,8,1:0:0:0:
492,376,40784,2,0,L|299:360,1,179.999991416931,8|0,1:0|0:0,0:0:0:0:
231,363,41432,2,0,B|220:332|220:332|249:228,1,119.999994277954,4|0,0:2|1:0,0:0:0:0:
303,178,41919,1,8,1:0:0:0:
362,115,42081,1,0,1:0:0:0:
362,115,42243,6,0,B|230:3|155:162|25:11,1,359.999982833862,4|0,1:0|0:0,0:0:0:0:
32,19,43378,1,0,1:0:0:0:
281,298,44189,6,0,P|280:255|220:290,1,119.999994277954,0|8,1:0|1:0,0:0:0:0:
197,343,44838,6,0,L|384:330,1,179.999991416931,0|0,1:0|1:0,0:0:0:0:
454,373,45486,2,0,B|460:336|460:336|510:266,1,119.999994277954,0|8,1:0|1:0,0:0:0:0:
507,268,45973,1,8,1:0:0:0:
427,155,46297,1,0,0:0:0:0:
427,155,46459,2,0,L|433:7,2,119.999994277954,2|2|2,1:0|1:0|1:0,0:0:0:0:
323,282,47432,6,0,B|297:368|297:368|179:221|179:221|264:209,1,359.999982833862,4|0,1:0|1:0,0:0:0:0:
343,201,48567,1,8,1:0:0:0:
343,201,49216,1,0,1:0:0:0:
280,256,49378,2,0,L|191:339,1,119.999994277954,0|8,1:0|1:0,0:0:0:0:
34,358,50027,5,12,1:0:0:0:
17,279,50189,1,0,1:0:0:0:
44,207,50351,2,0,L|119:219,1,59.999997138977,12|0,1:2|1:0,0:0:0:0:
180,169,50675,5,12,1:2:0:0:
197,90,50838,1,0,1:0:0:0:
170,18,51000,1,12,1:2:0:0:
170,18,51162,2,0,L|37:37,1,119.999994277954,4|0,1:1|1:0,0:0:0:0:
51,34,51648,6,0,L|32:180,1,119.999994277954,8|8,1:0|1:0,0:0:0:0:
35,153,52297,1,4,1:3:0:0:
207,193,52621,5,4,1:0:0:0:
103,99,52946,1,0,0:0:0:0:
207,3,53270,1,4,1:2:0:0:
381,110,53594,5,0,0:0:0:0:
381,110,53757,2,0,B|375:79|375:79|274:29,2,119.999994277954,4|2|0,1:0|1:2|1:0,0:0:0:0:
374,198,54567,2,0,L|459:174,1,59.999997138977,8|0,1:2|1:0,0:0:0:0:
462,101,54892,1,8,1:2:0:0:
308,146,55216,5,4,1:0:0:0:
329,297,55540,1,0,0:0:0:0:
495,340,55865,1,4,1:2:0:0:
249,320,56189,1,0,0:0:0:0:
249,320,56351,2,0,L|107:339,1,119.999994277954,4|0,1:0|1:2,0:0:0:0:
278,242,56838,2,0,B|310:254|310:254|329:285,1,59.999997138977,2|0,1:2|0:0,0:0:0:0:
325,358,57162,2,0,L|390:367,2,59.999997138977,8|0|8,1:2|1:0|1:2,0:0:0:0:
94,262,57811,5,4,1:0:0:0:
120,132,58135,1,0,0:0:0:0:
145,0,58459,1,4,1:2:0:0:
174,218,58784,1,0,0:0:0:0:
174,218,58946,2,0,L|197:361,2,119.999994277954,4|2|0,1:0|1:2|1:0,0:0:0:0:
212,145,59757,2,0,L|146:132,1,59.999997138977,8|0,1:2|1:0,0:0:0:0:
91,197,60081,1,8,1:2:0:0:
332,246,60405,6,0,P|425:205|408:122,1,179.999991416931,4|0,3:2|1:0,0:0:0:0:
386,71,61054,1,0,1:0:0:0:
249,32,61540,5,0,0:0:0:0:
249,32,61702,2,0,P|156:73|173:156,1,179.999991416931,4|0,3:2|0:0,0:0:0:0:
195,207,62351,2,0,L|257:210,1,59.999997138977,0|0,1:0|0:0,0:0:0:0:
299,129,62675,2,0,L|239:126,1,59.999997138977,0|0,1:0|0:0,0:0:0:0:
181,265,63000,2,0,B|198:160|83:66|-6:92|-6:92|16:174,1,359.999982833862,12|0,1:0|0:0,0:0:0:0:
38,238,64135,6,0,B|67:254|67:254|169:221,1,119.999994277954,2|2,1:0|1:0,0:0:0:0:
157,103,64621,5,2,1:0:0:0:
268,24,64946,1,2,0:0:0:0:
372,103,65270,1,2,0:0:0:0:
455,255,65594,6,0,L|468:151,1,99.9999952316285,6|0,1:0|0:0,0:0:0:0:
455,255,65919,2,0,L|371:191,1,99.9999952316285,2|0,1:0|0:0,0:0:0:0:
455,255,66243,2,0,L|358:295,1,99.9999952316285,2|0,1:0|0:0,0:0:0:0:
289,323,66567,1,8,1:0:0:0:
289,323,66730,6,0,B|279:288|279:288|110:198,1,199.999990463257,2|0,1:0|1:0,0:0:0:0:
58,185,67216,2,0,B|10:216|10:216|81:254,1,99.9999952316285,8|8,1:0|1:0,0:0:0:0:
134,211,67540,2,0,B|226:203|226:203|166:75,1,199.999990463257,0|0,1:0|0:0,0:0:0:0:
181,107,68189,6,0,L|201:218,1,99.9999952316285,6|0,1:0|0:0,0:0:0:0:
104,171,68513,2,0,L|210:209,1,99.9999952316285,2|0,1:0|0:0,0:0:0:0:
121,269,68838,2,0,L|207:196,1,99.9999952316285,2|0,1:0|0:0,0:0:0:0:
273,147,69162,1,8,1:0:0:0:
273,147,69324,6,0,B|313:157|313:157|348:348,1,199.999990463257,2|8,1:0|1:0,0:0:0:0:
414,368,69811,2,0,B|454:360|454:360|468:273,1,99.9999952316285,8|0,1:0|1:0,0:0:0:0:
341,313,70135,2,0,B|186:260|186:260|151:290,1,199.999990463257,0|0,1:0|0:0,0:0:0:0:
158,284,70784,6,0,L|266:270,1,99.9999952316285,6|0,1:0|0:0,0:0:0:0:
158,284,71108,2,0,L|199:183,1,99.9999952316285,2|0,1:0|0:0,0:0:0:0:
158,284,71432,2,0,L|91:197,1,99.9999952316285,2|0,1:0|0:0,0:0:0:0:
67,319,71757,1,8,1:0:0:0:
67,319,71919,6,0,B|58:285|58:285|81:75,1,199.999990463257,2|0,1:0|1:0,0:0:0:0:
39,42,72405,2,0,B|56:29|56:29|159:64,1,99.9999952316285,8|8,1:0|1:0,0:0:0:0:
162,135,72730,2,0,B|199:134|199:134|357:39,1,199.999990463257,0|0,1:0|0:0,0:0:0:0:
338,50,73378,6,0,B|388:47|388:47|451:83,1,99.9999952316285,6|0,1:0|0:0,0:0:0:0:
338,50,73702,2,0,B|365:91|365:91|365:164,1,99.9999952316285,2|0,1:0|0:0,0:0:0:0:
338,50,74027,2,0,B|315:94|315:94|252:131,1,99.9999952316285,2|0,1:0|0:0,0:0:0:0:
184,86,74351,1,0,1:0:0:0:
184,86,74513,6,0,B|172:48|172:48|20:0,2,199.999990463257,0|8|8,1:0|1:0|1:0,0:0:0:0:
184,86,75486,5,8,1:0:0:0:
173,176,75648,1,0,1:0:0:0:
158,261,75811,1,0,1:0:0:0:
249,313,75973,6,0,B|295:303|295:303|321:247,1,99.9999952316285,6|0,1:0|0:0,0:0:0:0:
173,176,76297,2,0,B|219:186|219:186|245:242,1,99.9999952316285,2|0,1:0|0:0,0:0:0:0:
97,313,76621,2,0,B|143:303|143:303|169:247,1,99.9999952316285,2|0,1:0|0:0,0:0:0:0:
45,200,76946,1,8,1:0:0:0:
45,200,77108,6,0,B|76:209|76:209|114:382,1,199.999990463257,2|0,1:0|1:0,0:0:0:0:
111,372,77594,2,0,L|204:318,1,99.9999952316285,8|8,1:0|1:0,0:0:0:0:
142,254,77919,2,0,B|44:215|44:215|111:328,1,199.999990463257,0|0,1:0|0:0,0:0:0:0:
92,296,78567,6,0,L|104:161,1,99.9999952316285,6|0,1:0|0:0,0:0:0:0:
269,347,78892,2,0,L|257:212,1,99.9999952316285,2|0,1:0|0:0,0:0:0:0:
94,384,79216,6,0,L|106:249,1,99.9999952316285,2|0,1:0|0:0,0:0:0:0:
183,230,79540,1,8,1:0:0:0:
183,230,79702,6,0,B|168:209|168:209|200:-5,1,199.999990463257,2|0,1:0|1:0,0:0:0:0:
287,50,80189,2,0,B|353:57|353:57|371:98,1,99.9999952316285,8|8,1:0|1:0,0:0:0:0:
264,139,80513,2,0,B|227:134|227:134|142:53|142:53|75:44,1,199.999990463257,0|0,1:0|0:0,0:0:0:0:
24,91,81000,1,0,1:0:0:0:
24,91,81162,6,0,B|11:139|11:139|58:106,1,99.9999952316285,12|0,1:0|0:0,0:0:0:0:
252,218,81811,6,0,B|271:264|271:264|264:318,2,99.9999952316285,8|0|8,1:0|1:0|1:0,0:0:0:0:
166,330,82297,5,0,1:0:0:0:
166,330,82459,2,0,B|147:284|147:284|154:230,1,99.9999952316285,8|8,1:0|1:0,0:0:0:0:
102,135,82784,2,0,B|126:125|126:125|217:164,1,99.9999952316285,0|0,1:0|0:0,0:0:0:0:
238,245,83108,2,0,L|8:275,1,199.999990463257,8|8,1:0|1:0,0:0:0:0:
39,270,83757,6,0,B|142:302|142:302|104:187,1,199.999990463257,4|8,1:0|0:0,0:0:0:0:
147,128,84243,2,0,B|100:101|100:101|43:114,1,99.9999952316285,0|0,1:0|1:0,0:0:0:0:
3,185,84567,1,0,1:0:0:0:
3,185,84730,2,0,B|-4:209|-4:209|13:318,1,99.9999952316285,8|0,1:0|0:0,0:0:0:0:
6,361,85054,5,4,1:2:0:0:
81,331,85216,1,8,1:0:0:0:
154,303,85378,1,0,1:0:0:0:
199,365,85540,2,0,B|230:367|230:367|302:384,1,99.9999952316285,12|0,1:2|1:0,0:0:0:0:
370,255,85865,1,8,1:0:0:0:
370,255,86027,2,0,B|333:217|333:217|279:223,1,99.9999952316285,8|8,1:0|1:0,0:0:0:0:
299,299,86351,6,0,B|423:283|423:283|383:210,1,199.999990463257,14|0,1:0|1:0,0:0:0:0:
346,143,86838,2,0,B|304:138|304:138|261:67,1,99.9999952316285,2|0,1:0|0:0,0:0:0:0:
246,13,87162,6,0,L|196:261,1,239.999988555908,6|0,1:0|0:0,0:0:0:0:
184,326,88297,5,4,1:0:0:0:
184,326,88459,1,0,1:0:0:0:
