osu file format v14

[General]
AudioFilename: audio.mp3
AudioLeadIn: 0
PreviewTime: 65432
Countdown: 0
SampleSet: Soft
StackLeniency: 0.5
Mode: 0
LetterboxInBreaks: 0
WidescreenStoryboard: 1

[Editor]
DistanceSpacing: 1.1
BeatDivisor: 4
GridSize: 16
TimelineZoom: 1.2

[Metadata]
Title:JUSTadICE (TV Size)
TitleUnicode:JUSTadICE (TV Size)
Artist:Oomori Seiko
ArtistUnicode:大森靖子
Creator:IOException
Version:Easy
Source:ブラッククローバー
Tags:japanese pop rock jrock j-rock anime opening op 7 Black Clover deadcode ceo of osu ceo_of_osu
BeatmapID:2945904
BeatmapSetID:1353364

[Difficulty]
HPDrainRate:2
CircleSize:2.5
OverallDifficulty:2
ApproachRate:3
SliderMultiplier:0.79999990463257
SliderTickRate:0.5

[Events]
//Background and Video events
0,0,"bg.jpg",0,0
//Break Periods
//Storyboard Layer 0 (Background)
//Storyboard Layer 1 (Fail)
//Storyboard Layer 2 (Pass)
//Storyboard Layer 3 (Foreground)
//Storyboard Layer 4 (Overlay)
//Storyboard Sound Samples

[TimingPoints]
730,324.324324324324,4,2,0,65,1,0
11108,-100,4,2,0,75,0,0
18892,-100,4,2,0,85,0,0
21486,-100,4,2,0,90,0,0
31905,-100,4,2,0,70,0,0
50027,-100,4,2,0,80,0,0
52621,-100,4,2,0,75,0,0
60405,-100,4,2,0,70,0,0
63000,-100,4,2,0,83,0,0
65594,-100,4,2,0,100,0,1
81162,-100,4,2,0,80,0,0
83757,-100,4,2,0,85,0,0
86351,-100,4,2,0,95,0,0
88297,-100,4,2,0,100,0,0

[Colours]
Combo1 : 198,197,166
Combo2 : 177,194,192
Combo3 : 173,154,188

[HitObjects]
59,296,730,6,0,L|68:384,2,79.999990463257,6|2|2,0:0|0:0|0:0,0:0:0:0:
12,172,1865,2,0,P|73:167|117:118,1,119.999985694885,2|2,0:0|0:0,0:0:0:0:
154,49,2675,1,2,0:0:0:0:
318,111,3324,6,0,L|413:96,2,79.999990463257,2|2|2,0:0|0:0|0:0,0:0:0:0:
214,193,4459,2,0,P|210:258|253:307,1,119.999985694885,2|2,0:0|0:0,0:0:0:0:
304,361,5270,2,0,P|344:363|388:329,1,79.999990463257,2|2,0:0|0:0,0:0:0:0:
460,313,5919,6,0,L|475:227,2,79.999990463257,2|2|2,0:0|0:0|0:0,0:0:0:0:
347,243,7054,2,0,P|334:205|345:120,1,119.999985694885,2|2,0:0|0:0,0:0:0:0:
412,73,7865,1,2,0:0:0:0:
237,51,8513,6,0,L|152:36,2,79.999990463257,2|2|2,0:0|0:0|0:0,0:0:0:0:
257,181,9648,2,0,P|207:195|166:256,1,119.999985694885,2|2,0:0|0:0,0:0:0:0:
79,247,10459,2,0,P|79:201|47:166,1,79.999990463257,2|2,0:0|0:3,0:0:0:0:
35,89,11108,6,0,L|19:6,2,79.999990463257,4|0|0,3:2|3:2|3:2,0:0:0:0:
157,137,12243,2,0,L|287:117,1,119.999985694885,2|0,0:0|3:2,0:0:0:0:
362,104,13054,1,0,3:2:0:0:
388,277,13702,6,0,L|479:290,2,79.999990463257,0|0|0,3:2|3:2|3:2,0:0:0:0:
280,354,14838,2,0,P|226:371|153:365,1,119.999985694885,0|0,3:0|3:2,0:0:0:0:
75,367,15648,2,0,P|48:346|25:303,1,79.999990463257,8|10,3:2|3:1,0:0:0:0:
17,218,16297,5,0,1:0:0:0:
141,93,16946,1,8,0:0:0:0:
281,198,17594,1,8,0:0:0:0:
348,254,17919,1,0,1:0:0:0:
434,236,18243,1,4,1:2:0:0:
428,59,18892,6,0,L|349:43,1,79.999990463257,4|0,1:0|1:2,0:0:0:0:
262,28,19540,2,0,B|236:56|236:56|246:151,1,119.999985694885,0|8,1:2|1:2,0:0:0:0:
379,358,21486,6,0,L|300:349,1,79.999990463257,4|8,1:0|0:0,0:0:0:0:
236,287,22135,2,0,B|258:270|258:270|274:166,1,119.999985694885,0|2,1:0|1:0,0:0:0:0:
289,92,22946,1,2,1:0:0:0:
214,45,23270,2,0,B|153:1|153:1|91:0,1,119.999985694885,2|8,1:0|1:0,0:0:0:0:
30,42,24081,6,0,P|51:97|84:109,1,79.999990463257,0|8,1:0|0:2,0:0:0:0:
80,192,24729,2,0,B|139:183|128:154|197:146,1,119.999985694885,0|2,1:0|1:1,0:0:0:0:
316,110,25702,1,8,1:1:0:0:
395,147,26027,2,0,B|423:176|423:176|422:215,1,79.999990463257
405,301,26675,6,0,L|325:311,1,79.999990463257,4|8,1:0|0:0,0:0:0:0:
242,340,27324,2,0,B|205:333|205:333|170:243,1,119.999985694885,0|2,1:0|1:0,0:0:0:0:
148,172,28135,1,2,1:0:0:0:
177,89,28459,2,0,B|238:30|238:30|281:25,1,119.999985694885,2|8,1:0|1:0,0:0:0:0:
331,92,29270,6,0,L|348:183,1,79.999990463257,0|8,1:0|0:2,0:0:0:0:
362,257,29919,1,0,1:0:0:0:
256,336,30405,6,0,P|225:286|120:286,1,159.999980926514,2|8,1:1|1:1,0:0:0:0:
52,172,31540,1,8,0:0:0:0:
17,90,31865,5,4,1:0:0:0:
319,150,33000,1,0,1:0:0:0:
260,267,33486,1,8,1:0:0:0:
235,351,33811,2,0,L|152:321,1,79.999990463257,8|8,1:0|1:0,0:0:0:0:
75,348,34459,6,0,B|63:308|63:308|86:189,1,159.999980926514,0|0,1:0|1:0,0:0:0:0:
108,61,35594,2,0,B|146:67|146:67|176:54|176:54|234:63,1,119.999985694885,8|2,1:0|1:0,0:0:0:0:
311,73,36405,1,2,1:0:0:0:
398,84,36729,1,2,1:0:0:0:
485,97,37054,5,4,1:0:0:0:
250,296,38189,1,0,1:0:0:0:
182,182,38675,1,8,1:0:0:0:
136,106,39000,1,8,1:0:0:0:
294,30,39648,6,0,L|380:15,1,79.999990463257,0|0,1:0|1:0,0:0:0:0:
445,65,40297,2,0,B|440:132|415:122|407:191,1,119.999985694885,0|8,1:0|1:0,0:0:0:0:
129,308,41919,1,8,1:0:0:0:
49,270,42243,5,4,1:0:0:0:
323,129,43378,1,0,1:0:0:0:
128,26,44189,2,0,P|93:13|43:19,1,79.999990463257,0|8,1:0|1:0,0:0:0:0:
20,98,44838,6,0,B|8:129|8:129|29:266,1,159.999980926514,0|0,1:0|1:0,0:0:0:0:
142,318,45973,2,0,B|225:292|225:292|265:305,1,119.999985694885,8|2,1:0|1:0,0:0:0:0:
342,321,46784,1,2,1:0:0:0:
429,312,47108,1,2,1:0:0:0:
493,252,47432,5,4,1:0:0:0:
251,58,48567,1,8,1:0:0:0:
127,240,49378,1,0,1:0:0:0:
163,319,49702,1,8,1:0:0:0:
248,341,50027,6,0,L|328:332,1,79.999990463257,12|12,1:0|1:2,0:0:0:0:
415,323,50675,2,0,L|424:243,2,79.999990463257,12|12|0,1:2|1:2|0:0,0:0:0:0:
83,204,52621,5,4,1:0:0:0:
60,29,53270,2,0,L|192:47,1,119.999985694885,4|4,1:2|1:0,0:0:0:0:
484,297,55216,5,4,1:0:0:0:
507,122,55865,2,0,B|445:112|445:112|375:140,1,119.999985694885,4|4,1:2|1:0,0:0:0:0:
72,367,57811,5,4,1:0:0:0:
50,192,58460,2,0,P|111:186|178:212,1,119.999985694885,4|4,1:2|1:0,0:0:0:0:
417,335,60405,6,0,B|446:223|446:223|432:169,1,159.999980926514,4|0,3:2|1:0,0:0:0:0:
453,5,61702,6,0,L|281:20,1,159.999980926514,4|0,3:2|1:0,0:0:0:0:
205,28,62675,1,0,1:0:0:0:
117,38,63000,1,12,1:0:0:0:
47,338,64135,1,2,1:0:0:0:
337,68,65594,5,6,1:0:0:0:
337,68,65919,1,2,1:0:0:0:
337,68,66243,1,2,1:0:0:0:
374,194,66729,6,0,L|257:220,1,119.999985694885,2|8,1:0|1:0,0:0:0:0:
170,239,67540,1,0,1:0:0:0:
110,85,68189,5,6,1:0:0:0:
110,85,68514,1,2,1:0:0:0:
110,85,68838,1,2,1:0:0:0:
140,213,69324,6,0,L|166:331,1,119.999985694885,2|8,1:0|1:0,0:0:0:0:
241,376,70135,1,0,1:0:0:0:
388,276,70784,5,6,1:0:0:0:
388,276,71108,1,2,1:0:0:0:
388,276,71432,1,2,1:0:0:0:
421,148,71919,6,0,B|392:122|392:122|303:130,1,119.999985694885,2|8,1:0|1:0,0:0:0:0:
223,136,72729,1,0,1:0:0:0:
85,46,73378,5,6,1:0:0:0:
85,46,73702,1,2,1:0:0:0:
85,46,74027,1,2,1:0:0:0:
16,158,74513,6,0,P|16:231|88:246,1,159.999980926514,0|8,1:0|1:0,0:0:0:0:
304,178,75973,5,6,1:0:0:0:
304,178,76297,1,2,1:0:0:0:
304,178,76621,1,2,1:0:0:0:
292,309,77108,6,0,L|412:282,1,119.999985694885,2|8,1:0|1:0,0:0:0:0:
494,261,77919,1,0,1:0:0:0:
430,109,78567,5,6,1:0:0:0:
430,109,78891,1,2,1:0:0:0:
430,109,79215,1,2,1:0:0:0:
316,41,79702,6,0,L|196:14,1,119.999985694885,2|8,1:0|1:0,0:0:0:0:
109,0,80513,1,0,1:0:0:0:
44,163,81162,5,12,1:0:0:0:
134,313,81811,1,8,1:0:0:0:
309,320,82459,1,8,1:0:0:0:
404,172,83108,1,8,1:0:0:0:
275,52,83757,6,0,L|399:30,2,119.999985694885,4|0|8,1:0|1:0|1:0,0:0:0:0:
187,63,85054,2,0,B|132:59|142:31|69:31,1,119.999985694885,4|12,1:2|1:2,0:0:0:0:
51,161,86027,1,8,1:0:0:0:
41,248,86351,6,0,B|145:241|111:178|219:167,1,199.999976158142,14|6,1:0|1:0,0:0:0:0:
465,351,88297,5,4,1:0:0:0:
