osu file format v14

[General]
AudioFilename: audio.mp3
AudioLeadIn: 0
PreviewTime: 60405
Countdown: 0
SampleSet: Normal
StackLeniency: 0.7
Mode: 0
LetterboxInBreaks: 0
WidescreenStoryboard: 1

[Editor]
Bookmarks: 9162,28459
DistanceSpacing: 1.9
BeatDivisor: 4
GridSize: 4
TimelineZoom: 2

[Metadata]
Title:JUSTadICE (TV Size)
TitleUnicode:JUSTadICE (TV Size)
Artist:Oomori Seiko
ArtistUnicode:大森靖子
Creator:Darkpit
Version:Hard
Source:ブラッククローバー
Tags:Black Clover opening 7 japanese pop rock jrock j-rock female vocalist
BeatmapID:2202762
BeatmapSetID:1053819

[Difficulty]
HPDrainRate:4.7
CircleSize:3.7
OverallDifficulty:7
ApproachRate:8
SliderMultiplier:1.4
SliderTickRate:1

[Events]
//Background and Video events
0,0,"IK IK IK.jpg",0,0
//Break Periods
//Storyboard Layer 0 (Background)
//Storyboard Layer 1 (Fail)
//Storyboard Layer 2 (Pass)
//Storyboard Layer 3 (Foreground)
//Storyboard Layer 4 (Overlay)
//Storyboard Sound Samples

[TimingPoints]
730,324.324324324324,4,1,0,60,1,0
730,-88.4955752212389,4,1,0,60,0,0
3000,-83.3333333333333,4,1,0,60,0,0
21486,-88.4955752212389,4,1,0,60,0,0
31702,-94.3396226415094,4,1,0,60,0,0
52621,-90.9090909090909,4,1,0,60,0,0
60405,-100,4,1,0,60,0,0
64459,-78.7401574803149,4,1,0,60,0,1
87162,-105.263157894737,4,1,0,60,0,0

[HitObjects]
24,360,730,6,0,L|34:274,1,79.100000241394
108,236,1054,2,0,L|118:150,1,79.100000241394
52,100,1378,2,0,L|62:14,1,79.100000241394
224,88,1865,6,0,P|272:96|316:96,1,79.100000241394
368,40,2189,1,0,0:0:0:0:
368,40,2351,2,0,P|384:80|376:128,1,79.100000241394
460,152,2675,2,0,P|456:208|472:252,1,79.100000241394
296,372,3324,6,0,P|260:340|224:328,1,83.9999974365235
236,236,3648,2,0,P|196:208|152:208,1,83.9999974365235
160,112,3973,2,0,P|108:96|64:108,1,83.9999974365235
252,32,4459,6,0,P|272:72|272:132,1,83.9999974365235
348,168,4784,1,0,0:0:0:0:
348,168,4946,2,0,L|348:268,1,83.9999974365235
268,300,5270,2,0,L|268:196,1,83.9999974365235
348,264,5594,2,0,L|448:264,1,83.9999974365235
476,188,5919,6,0,B|496:148|496:148|496:104,1,83.9999974365235
404,112,6243,2,0,B|404:64|404:64|428:28,1,83.9999974365235
332,32,6567,2,0,B|288:32|288:32|240:48,1,83.9999974365235
164,288,7054,6,0,P|164:224|172:180,1,83.9999974365235
232,140,7378,1,0,0:0:0:0:
232,140,7540,2,0,L|324:140,1,83.9999974365235
292,228,7865,2,0,L|384:268,1,83.9999974365235
492,360,8513,6,0,L|492:260,1,83.9999974365235
404,248,8838,2,0,L|404:136,1,83.9999974365235
492,132,9162,2,0,L|492:40,1,83.9999974365235
372,24,9486,5,0,0:0:0:0:
372,24,9648,2,0,P|312:20|288:32,1,83.9999974365235
268,120,9973,2,0,L|256:220,1,83.9999974365235
168,228,10297,2,0,L|168:120,1,83.9999974365235
168,52,10621,1,0,0:0:0:0:
168,52,10784,2,0,P|120:68|96:100,1,83.9999974365235
8,212,11108,6,0,L|96:211,1,83.9999974365235
155,278,11432,2,0,L|261:278,1,83.9999974365235
314,331,11757,2,0,L|418:331,1,83.9999974365235
504,244,12243,6,0,L|504:152,1,83.9999974365235
504,32,12567,1,0,0:0:0:0:
504,32,12729,2,0,P|456:32|412:48,1,83.9999974365235
360,112,13054,2,0,L|344:208,1,83.9999974365235
56,36,13702,6,0,B|104:12|104:12|164:12,1,83.9999974365235
192,84,14027,2,0,B|240:60|240:60|300:60,1,83.9999974365235
340,120,14351,2,0,B|388:96|388:96|448:96,1,83.9999974365235
336,260,14838,6,0,P|280:248|244:212,1,83.9999974365235
260,140,15162,1,0,0:0:0:0:
260,140,15324,2,0,P|204:136|176:140,1,83.9999974365235
100,192,15648,2,0,L|100:88,1,83.9999974365235
172,36,15973,6,0,L|268:36,1,83.9999974365235
292,128,16297,2,0,L|292:240,1,83.9999974365235
376,268,16621,1,0,0:0:0:0:
440,188,16784,2,0,L|440:96,1,83.9999974365235
356,48,17108,2,0,P|308:28|268:28,1,83.9999974365235
292,128,17432,5,0,0:0:0:0:
292,128,17594,2,0,L|292:232,1,83.9999974365235
232,292,17919,2,0,P|196:232|192:184,1,83.9999974365235
176,120,18243,2,0,B|128:112|128:112|72:124,1,83.9999974365235
32,200,18567,2,0,B|66:207|66:207|114:199,1,83.9999974365235
284,268,18892,6,0,L|200:268,1,83.9999974365235
264,180,19216,2,0,L|376:180,1,83.9999974365235
280,92,19540,2,0,L|192:92,1,83.9999974365235
108,24,19865,1,0,0:0:0:0:
72,128,20027,1,0,0:0:0:0:
112,352,21486,6,0,B|112:296|112:296|136:256,1,79.100000241394
124,172,21811,1,0,0:0:0:0:
124,172,21973,2,0,P|168:152|188:112,1,79.100000241394
244,44,22297,2,0,L|268:132,1,79.100000241394
292,220,22621,2,0,L|352:136,1,79.100000241394
428,104,22946,2,0,L|428:216,1,79.100000241394
337,234,23270,2,0,L|337:134,1,79.100000241394
336,52,23594,1,0,0:0:0:0:
104,148,24081,6,0,P|61:153|22:146,2,79.100000241394
176,76,24567,1,0,0:0:0:0:
176,76,24729,2,0,P|200:116|200:168,1,79.100000241394
200,252,25054,1,0,0:0:0:0:
280,184,25216,2,0,P|320:176|364:188,1,79.100000241394
428,260,25540,1,0,0:0:0:0:
428,260,25702,2,0,L|460:148,1,79.100000241394
396,96,26027,2,0,L|368:176,1,79.100000241394
180,368,26675,6,0,L|180:288,1,79.100000241394
148,192,27000,1,0,0:0:0:0:
148,192,27162,2,0,P|100:216|68:248,1,79.100000241394
68,132,27486,2,0,P|98:107|134:91,1,79.100000241394
224,144,27811,2,0,B|268:168|268:168|320:168,1,79.100000241394
348,80,28135,2,0,P|384:116|400:152,1,79.100000241394
448,52,28459,6,0,B|472:72|472:72|496:128,1,79.100000241394
472,216,28784,2,0,P|424:212|372:228,1,79.100000241394
228,340,29270,6,0,P|284:352|320:344,1,79.100000241394
276,252,29594,2,0,P|228:236|192:244,1,79.100000241394
120,176,29919,1,0,0:0:0:0:
120,176,30081,2,0,L|120:80,1,79.100000241394
204,36,30405,2,0,P|240:68|288:68,1,79.100000241394
356,16,30729,1,0,0:0:0:0:
356,16,30892,2,0,L|368:96,1,79.100000241394
452,152,31216,2,0,L|500:64,1,79.100000241394
367,94,31540,6,0,L|320:176,1,79.100000241394
300,264,31865,2,0,P|260:240|204:240,1,74.2000001132202
192,140,32189,2,0,L|144:232,1,74.2000001132202
92,124,32513,1,0,0:0:0:0:
164,52,32675,1,0,0:0:0:0:
268,60,32838,1,0,0:0:0:0:
268,60,33000,2,0,L|268:144,1,74.2000001132202
452,268,33486,6,0,P|476:208|476:176,1,74.2000001132202
508,100,33811,2,0,P|448:100|416:116,1,74.2000001132202
380,192,34135,2,0,L|328:120,1,74.2000001132202
336,28,34459,2,0,L|272:76,1,74.2000001132202
180,36,34784,1,0,0:0:0:0:
104,108,34946,1,0,0:0:0:0:
104,108,35108,2,0,L|104:192,1,74.2000001132202
184,252,35432,1,0,0:0:0:0:
184,252,35594,2,0,L|184:160,1,74.2000001132202
208,52,36081,6,0,P|260:32|300:40,1,74.2000001132202
376,0,36405,2,0,L|376:84,1,74.2000001132202
456,144,36729,2,0,L|456:248,1,74.2000001132202
380,292,37054,2,0,B|332:292|332:292|288:268,1,74.2000001132202
312,176,37378,2,0,P|264:192|232:220,1,74.2000001132202
220,308,37702,1,0,0:0:0:0:
220,308,37865,2,0,B|180:328|180:328|136:328,1,74.2000001132202
60,376,38189,2,0,L|60:276,1,74.2000001132202
332,364,38675,6,0,B|380:364|380:364|416:336,1,74.2000001132202
476,276,39000,2,0,L|476:192,1,74.2000001132202
372,204,39324,2,0,P|328:232|288:232,1,74.2000001132202
304,132,39648,5,0,0:0:0:0:
248,44,39811,1,0,0:0:0:0:
248,44,39973,2,0,L|164:44,1,74.2000001132202
132,140,40297,2,0,L|48:140,1,74.2000001132202
116,228,40621,1,0,0:0:0:0:
116,228,40784,2,0,P|116:284|96:316,1,74.2000001132202
192,360,41108,5,0,0:0:0:0:
192,360,41270,2,0,L|280:360,1,74.2000001132202
412,332,41757,5,0,0:0:0:0:
412,332,41919,2,0,B|404:288|404:288|412:240,1,74.2000001132202
408,156,42243,2,0,P|368:164|332:200,1,74.2000001132202
284,268,42567,2,0,L|192:268,1,74.2000001132202
144,188,42892,2,0,B|128:220|128:220|128:264,1,74.2000001132202
44,320,43216,1,0,0:0:0:0:
44,320,43378,2,0,P|52:264|36:228,1,74.2000001132202
12,152,43702,1,0,0:0:0:0:
12,152,43865,2,0,P|72:140|104:156,1,74.2000001132202
148,60,44189,6,0,B|168:84|168:84|168:152,1,74.2000001132202
252,68,44513,2,0,L|332:68,1,74.2000001132202
264,152,44838,2,0,L|264:232,1,74.2000001132202
316,316,45162,1,0,0:0:0:0:
316,316,45324,2,0,B|276:344|276:344|228:344,1,74.2000001132202
156,304,45648,1,0,0:0:0:0:
156,304,45811,2,0,P|100:304|80:312,1,74.2000001132202
80,136,46459,6,0,B|120:152|160:136,1,74.2000001132202
240,84,46784,2,0,P|300:80|344:96,1,74.2000001132202
364,176,47108,2,0,L|432:96,1,74.2000001132202
476,40,47432,2,0,L|492:140,1,74.2000001132202
500,216,47757,6,0,L|444:288,1,74.2000001132202
356,236,48081,2,0,L|280:236,1,74.2000001132202
216,316,48405,1,0,0:0:0:0:
216,316,48567,2,0,P|176:256|180:228,1,74.2000001132202
40,72,49216,5,0,0:0:0:0:
40,72,49378,2,0,P|40:132|52:156,1,74.2000001132202
124,212,49702,2,0,L|208:192,1,74.2000001132202
288,52,50027,2,0,L|288:136,1,74.2000001132202
396,276,50351,6,0,L|396:201,1,74.2000001132202
396,52,50675,2,0,L|396:126,1,74.2000001132202
288,276,51000,1,0,0:0:0:0:
288,276,51162,2,0,L|288:168,1,74.2000001132202
176,212,51486,1,0,0:0:0:0:
176,100,51648,2,0,P|180:80|172:52,3,37.1000000566101
200,124,51973,2,0,P|248:116|288:128,1,74.2000001132202
364,184,52297,2,0,L|364:272,1,74.2000001132202
272,328,52621,6,0,L|176:328,1,77.0000023498536
128,232,52946,1,0,0:0:0:0:
0,40,53270,6,0,L|0:144,1,77.0000023498536
108,156,53594,1,0,0:0:0:0:
108,156,53757,2,0,P|152:156|184:176,1,77.0000023498536
220,64,54081,2,0,L|308:64,1,77.0000023498536
344,168,54405,1,0,0:0:0:0:
444,112,54567,2,0,L|444:208,1,77.0000023498536
480,300,54892,2,0,P|420:296|380:312,1,77.0000023498536
304,360,55216,6,0,L|304:256,1,77.0000023498536
256,176,55540,1,0,0:0:0:0:
84,20,55865,6,0,L|84:116,1,77.0000023498536
28,196,56189,1,0,0:0:0:0:
28,196,56351,2,0,B|28:240|28:240|52:272,1,77.0000023498536
144,204,56675,1,0,0:0:0:0:
144,320,56838,1,0,0:0:0:0:
144,320,57000,2,0,P|192:312|232:320,1,77.0000023498536
308,244,57324,1,0,0:0:0:0:
308,244,57486,2,0,L|308:328,1,77.0000023498536
400,252,57811,6,0,B|400:200|400:200|420:164,1,77.0000023498536
412,64,58135,1,0,0:0:0:0:
204,16,58459,6,0,L|204:100,1,77.0000023498536
120,172,58784,1,0,0:0:0:0:
120,172,58946,2,0,P|120:216|144:252,1,77.0000023498536
248,220,59270,2,0,L|340:220,1,77.0000023498536
392,316,59594,1,0,0:0:0:0:
392,316,59757,2,0,L|312:316,1,77.0000023498536
224,248,60081,2,0,P|200:304|200:332,1,77.0000023498536
92,264,60405,6,0,B|76:224|76:224|56:200,1,70
60,84,60729,1,0,0:0:0:0:
168,36,60892,1,0,0:0:0:0:
168,36,61054,2,0,L|244:36,1,70
444,152,61540,5,0,0:0:0:0:
444,152,61702,2,0,L|352:152,1,70
292,64,62027,2,0,L|292:156,1,70
196,208,62351,1,0,0:0:0:0:
116,120,62513,1,0,0:0:0:0:
116,120,62675,2,0,L|116:200,1,70
244,148,63000,6,0,P|296:144|328:152,1,70
428,216,63324,2,0,P|376:220|344:212,1,70
248,288,63648,2,0,L|180:216,1,70
200,104,63973,1,0,0:0:0:0:
300,16,64135,1,0,0:0:0:0:
408,344,65594,6,0,L|320:344,1,88.8999993217468
244,192,65919,2,0,L|244:300,1,88.8999993217468
160,136,66243,2,0,L|64:136,1,88.8999993217468
208,36,66567,5,0,0:0:0:0:
208,36,66729,2,0,P|256:44|292:84,1,88.8999993217468
424,168,67054,2,0,L|328:168,1,88.8999993217468
248,312,67378,1,0,0:0:0:0:
248,144,67540,1,0,0:0:0:0:
132,268,67702,5,0,0:0:0:0:
132,268,67865,2,0,B|144:216|144:216|132:172,1,88.8999993217468
24,52,68189,2,0,P|96:36|116:44,1,88.8999993217468
264,104,68513,2,0,P|324:108|372:88,1,88.8999993217468
496,16,68838,2,0,P|496:116|500:120,1,88.8999993217468
432,260,69162,1,0,0:0:0:0:
432,260,69324,2,0,L|344:260,1,88.8999993217468
264,112,69648,1,0,0:0:0:0:
180,260,69811,1,0,0:0:0:0:
180,92,69973,5,0,0:0:0:0:
180,92,70135,2,0,P|212:40|244:24,1,88.8999993217468
180,188,70459,2,0,L|180:280,1,88.8999993217468
320,372,70784,2,0,B|376:372|376:372|404:316,1,88.8999993217468
500,216,71108,2,0,B|500:160|500:160|476:128,1,88.8999993217468
356,20,71432,2,0,B|300:20|300:20|256:56,1,88.8999993217468
104,28,71757,5,0,0:0:0:0:
104,28,71919,2,0,L|104:120,1,88.8999993217468
56,280,72243,1,0,0:0:0:0:
196,184,72405,1,0,0:0:0:0:
336,280,72567,1,0,0:0:0:0:
336,280,72729,2,0,P|324:224|344:192,1,88.8999993217468
464,84,73054,6,0,P|396:136|380:136,1,88.8999993217468
280,16,73378,2,0,L|180:16,1,88.8999993217468
220,184,73702,2,0,L|108:184,1,88.8999993217468
116,352,74027,2,0,L|24:352,1,88.8999993217468
172,264,74351,1,0,0:0:0:0:
172,264,74513,2,0,P|228:248|260:260,1,88.8999993217468
383,286,74838,2,0,P|378:308|368:328,7,44.4499996608734
388,256,75486,2,0,L|388:144,1,88.8999993217468
308,96,75811,5,0,0:0:0:0:
308,96,75973,2,0,P|252:76|204:84,1,88.8999993217468
303,238,76297,2,0,P|359:258|407:250,1,88.8999993217468
224,216,76621,2,0,P|168:196|120:204,1,88.8999993217468
32,64,76946,1,0,0:0:0:0:
32,64,77108,2,0,L|152:64,1,88.8999993217468
280,8,77432,2,0,B|280:40|280:40|300:96,1,88.8999993217468
460,152,77757,1,0,0:0:0:0:
460,152,77919,2,0,P|404:148|368:160,1,88.8999993217468
296,308,78243,5,0,0:0:0:0:
296,308,78405,2,0,L|296:216,1,88.8999993217468
204,76,78729,2,0,L|204:184,1,88.8999993217468
88,288,79054,2,0,P|144:328|192:328,1,88.8999993217468
240,180,79378,1,0,0:0:0:0:
348,308,79540,1,0,0:0:0:0:
348,308,79702,2,0,B|348:260|348:260|384:204,1,88.8999993217468
500,120,80027,2,0,P|444:152|408:152,1,88.8999993217468
292,44,80351,1,0,0:0:0:0:
292,44,80513,2,0,L|292:144,1,88.8999993217468
140,56,80838,5,0,0:0:0:0:
32,188,81000,1,0,0:0:0:0:
32,188,81162,2,0,L|32:276,1,88.8999993217468
184,204,81486,1,0,0:0:0:0:
184,204,81648,2,0,L|272:204,1,88.8999993217468
400,88,81973,5,0,0:0:0:0:
400,88,82135,2,0,P|400:156|380:176,1,88.8999993217468
300,312,82459,1,0,0:0:0:0:
300,312,82621,2,0,B|280:264|280:264|232:248,1,88.8999993217468
168,100,82946,1,0,0:0:0:0:
168,100,83108,2,0,P|172:164|156:192,1,88.8999993217468
44,304,83432,6,0,B|64:272|64:272|64:200,1,88.8999993217468
4,64,83757,2,0,P|72:72|116:60,1,88.8999993217468
196,200,84081,1,0,0:0:0:0:
196,200,84243,2,0,L|260:128,1,88.8999993217468
372,12,84567,1,0,0:0:0:0:
372,12,84729,2,0,L|372:108,1,88.8999993217468
484,228,85054,5,0,0:0:0:0:
484,228,85216,2,0,L|368:228,1,88.8999993217468
288,100,85540,2,0,L|288:196,1,88.8999993217468
204,336,85865,1,0,0:0:0:0:
204,336,86027,2,0,P|184:292|196:216,1,88.8999993217468
168,84,86351,2,0,P|156:128|108:184,1,88.8999993217468
296,132,86675,1,0,0:0:0:0:
296,132,86838,2,0,L|296:224,1,88.8999993217468
395,161,87162,2,0,P|407:345|303:205,1,465.499987569809
383,253,88459,1,0,0:0:0:0:
