osu file format v14

[General]
AudioFilename: audio.mp3
AudioLeadIn: 0
PreviewTime: 64540
Countdown: 0
SampleSet: Normal
StackLeniency: 0.7
Mode: 1
LetterboxInBreaks: 0
WidescreenStoryboard: 1

[Editor]
DistanceSpacing: 1.6
BeatDivisor: 2
GridSize: 32
TimelineZoom: 0.4999999

[Metadata]
Title:JUSTadICE (TV Size)
TitleUnicode:JUSTadICE (TV Size)
Artist:Oomori Seiko
ArtistUnicode:大森靖子
Creator:BlackBN
Version:Kantan
Source:ブラッククローバー
Tags:BlackBq Jacky J_a_c_k_y _mtk MTDex japanese anime pop jpop j-pop rock jrock j-rock vocal black clover Burakku Kuroobaa opening 7 アスタ Asta 梶原岳人 Kajiwara Gakuto Re: Re: love
BeatmapID:2991849
BeatmapSetID:1445595

[Difficulty]
HPDrainRate:8
CircleSize:2
OverallDifficulty:3
ApproachRate:10
SliderMultiplier:1.4
SliderTickRate:1

[Events]
//Background and Video events
0,0,"ckyckycky.jpg",0,-30
Video,-252,"ckyckycky.mp4"
//Break Periods
//Storyboard Layer 0 (Background)
//Storyboard Layer 1 (Fail)
//Storyboard Layer 2 (Pass)
//Storyboard Layer 3 (Foreground)
//Storyboard Layer 4 (Overlay)
//Storyboard Sound Samples

[TimingPoints]
478,324.324324324324,4,1,0,60,1,0
10775,-100,4,1,0,70,0,0
21153,-100,4,1,0,80,0,0
31532,-100,4,1,0,75,0,0
52288,-100,4,1,0,80,0,0
65261,-100,4,1,0,90,0,0
65342,-100,4,1,0,90,0,1
80586,-100,4,1,0,90,0,0
80910,-100,4,1,0,90,0,1
86910,-100,4,1,0,90,0,0
86991,-100,4,1,0,80,0,0

[HitObjects]
384,96,478,5,4,0:0:0:0:
256,192,1126,1,0,0:0:0:0:
256,192,1613,1,8,0:0:0:0:
256,192,3072,1,0,0:0:0:0:
256,192,3721,1,0,0:0:0:0:
256,192,4207,1,0,0:0:0:0:
256,192,5667,1,8,0:0:0:0:
256,192,6315,1,8,0:0:0:0:
256,192,6802,1,8,0:0:0:0:
256,192,8261,1,0,0:0:0:0:
256,192,8910,1,0,0:0:0:0:
256,192,9396,1,8,0:0:0:0:
384,96,10856,1,4,0:0:0:0:
256,192,11505,1,0,0:0:0:0:
256,192,11991,1,8,0:0:0:0:
256,192,13450,1,8,0:0:0:0:
256,192,14099,1,8,0:0:0:0:
256,192,14586,1,0,0:0:0:0:
256,192,16045,1,8,0:0:0:0:
256,192,16694,1,8,0:0:0:0:
256,192,17342,1,0,0:0:0:0:
256,192,17991,1,8,0:0:0:0:
256,192,18315,1,8,0:0:0:0:
416,64,18640,1,4,0:0:0:0:
384,64,19126,1,4,0:0:0:0:
384,64,19775,1,12,0:0:0:0:
480,32,21234,1,4,0:0:0:0:
256,192,21883,1,0,0:0:0:0:
256,192,22369,1,8,0:0:0:0:
256,192,23018,1,8,0:0:0:0:
256,192,23829,1,0,0:0:0:0:
256,192,24477,1,8,0:0:0:0:
256,192,24964,1,8,0:0:0:0:
320,96,26423,1,4,0:0:0:0:
256,192,27072,1,8,0:0:0:0:
256,192,27559,1,8,0:0:0:0:
256,192,28207,1,8,0:0:0:0:
256,192,29018,1,0,0:0:0:0:
256,192,29342,1,8,0:0:0:0:
256,192,29667,1,0,0:0:0:0:
256,192,30153,1,8,0:0:0:0:
384,64,31613,1,4,0:0:0:0:
256,192,32261,1,8,0:0:0:0:
256,192,32910,1,0,0:0:0:0:
256,192,33559,1,0,0:0:0:0:
256,192,33883,1,8,0:0:0:0:
256,192,34207,1,0,0:0:0:0:
256,192,34856,1,0,0:0:0:0:
256,192,35829,1,0,0:0:0:0:
256,192,36153,1,8,0:0:0:0:
256,192,36802,1,0,0:0:0:0:
256,192,38099,1,8,0:0:0:0:
256,192,38748,1,8,0:0:0:0:
256,192,39072,1,8,0:0:0:0:
256,192,39396,1,0,0:0:0:0:
256,192,40045,1,0,0:0:0:0:
256,192,41180,1,8,0:0:0:0:
320,64,41991,1,4,0:0:0:0:
256,192,42640,1,8,0:0:0:0:
256,192,43288,1,0,0:0:0:0:
256,192,43937,1,0,0:0:0:0:
256,192,44261,1,8,0:0:0:0:
256,192,44586,1,0,0:0:0:0:
256,192,45234,1,8,0:0:0:0:
256,192,46207,1,0,0:0:0:0:
256,192,46532,1,8,0:0:0:0:
256,192,47180,1,8,0:0:0:0:
256,192,48153,1,8,0:0:0:0:
256,192,48477,1,0,0:0:0:0:
256,192,49126,1,0,0:0:0:0:
256,192,49775,1,8,0:0:0:0:
256,192,50748,1,8,0:0:0:0:
256,192,51396,1,0,0:0:0:0:
256,192,52045,1,8,0:0:0:0:
352,96,52369,1,4,0:0:0:0:
352,96,53018,1,4,0:0:0:0:
352,96,53505,1,12,0:0:0:0:
256,192,54315,1,8,0:0:0:0:
352,96,54964,1,4,0:0:0:0:
352,96,55613,1,4,0:0:0:0:
352,96,56099,1,12,0:0:0:0:
256,192,56910,1,0,0:0:0:0:
352,96,57559,1,12,0:0:0:0:
352,96,58207,1,4,0:0:0:0:
352,96,58694,1,12,0:0:0:0:
256,192,59505,1,8,0:0:0:0:
256,192,60153,1,0,0:0:0:0:
256,192,60802,1,8,0:0:0:0:
256,192,61450,1,0,0:0:0:0:
256,192,62099,1,8,0:0:0:0:
256,192,62748,1,0,0:0:0:0:
384,64,63883,1,4,0:0:0:0:
384,64,64369,1,4,0:0:0:0:
352,64,65342,1,12,0:0:0:0:
256,192,65667,1,8,0:0:0:0:
256,192,65991,1,8,0:0:0:0:
256,192,66477,1,8,0:0:0:0:
256,192,67288,1,0,0:0:0:0:
256,192,67937,1,0,0:0:0:0:
256,192,68261,1,0,0:0:0:0:
256,192,68586,1,0,0:0:0:0:
256,192,69072,1,0,0:0:0:0:
256,192,70532,1,8,0:0:0:0:
256,192,70856,1,8,0:0:0:0:
256,192,71180,1,8,0:0:0:0:
256,192,71667,1,0,0:0:0:0:
256,192,72477,1,8,0:0:0:0:
256,192,73126,1,8,0:0:0:0:
256,192,73450,1,8,0:0:0:0:
256,192,73775,1,0,0:0:0:0:
256,192,74261,1,0,0:0:0:0:
384,96,75721,1,12,0:0:0:0:
256,192,76045,1,8,0:0:0:0:
256,192,76369,1,8,0:0:0:0:
256,192,76856,1,0,0:0:0:0:
256,192,77667,1,8,0:0:0:0:
256,192,78315,1,8,0:0:0:0:
256,192,78640,1,8,0:0:0:0:
256,192,78964,1,0,0:0:0:0:
256,192,79450,1,8,0:0:0:0:
416,96,80910,1,4,0:0:0:0:
256,192,81559,1,8,0:0:0:0:
256,192,81883,1,0,0:0:0:0:
256,192,82207,1,8,0:0:0:0:
256,192,82856,1,0,0:0:0:0:
352,96,83505,1,12,0:0:0:0:
256,192,84153,1,0,0:0:0:0:
256,192,84477,1,8,0:0:0:0:
256,192,84802,1,0,0:0:0:0:
256,192,85775,1,0,0:0:0:0:
416,96,86099,1,12,0:0:0:0:
416,64,86586,1,12,0:0:0:0:
448,64,86910,1,12,0:0:0:0:
384,96,88045,5,4,0:0:0:0:
