osu file format v14

[General]
AudioFilename: audio.mp3
AudioLeadIn: 0
PreviewTime: 64540
Countdown: 0
SampleSet: Normal
StackLeniency: 0.7
Mode: 1
LetterboxInBreaks: 0
WidescreenStoryboard: 1

[Editor]
Bookmarks: 21486,42243
DistanceSpacing: 1.3
BeatDivisor: 4
GridSize: 32
TimelineZoom: 1.2

[Metadata]
Title:JUSTadICE (TV Size)
TitleUnicode:JUSTadICE (TV Size)
Artist:Oomori Seiko
ArtistUnicode:大森靖子
Creator:BlackBN
Version:J a c k y's Muzukashii
Source:ブラッククローバー
Tags:BlackBq Jacky J_a_c_k_y _mtk MTDex japanese anime pop jpop j-pop rock jrock j-rock vocal black clover Burakku Kuroobaa opening 7 アスタ Asta 梶原岳人 Kajiwara Gakuto Re: Re: love
BeatmapID:2991848
BeatmapSetID:1445595

[Difficulty]
HPDrainRate:6
CircleSize:2
OverallDifficulty:5
ApproachRate:10
SliderMultiplier:1.4
SliderTickRate:1

[Events]
//Background and Video events
0,0,"ckyckycky.jpg",0,-30
Video,-252,"ckyckycky.mp4"
//Break Periods
//Storyboard Layer 0 (Background)
//Storyboard Layer 1 (Fail)
//Storyboard Layer 2 (Pass)
//Storyboard Layer 3 (Foreground)
//Storyboard Layer 4 (Overlay)
//Storyboard Sound Samples

[TimingPoints]
478,324.324324324324,4,1,0,60,1,0
10775,-100,4,1,0,70,0,0
21153,-100,4,1,0,80,0,0
31532,-100,4,1,0,75,0,0
52288,-100,4,1,0,80,0,0
65261,-100,4,1,0,90,0,0
65342,-100,4,1,0,90,0,1
80586,-100,4,1,0,90,0,0
80910,-100,4,1,0,90,0,1
86910,-100,4,1,0,90,0,0
86991,-100,4,1,0,80,0,0

[HitObjects]
102,123,478,5,8,0:0:0:0:
112,96,802,1,8,0:0:0:0:
112,96,1126,1,0,0:0:0:0:
112,96,1613,1,8,0:0:0:0:
112,96,2099,1,0,0:0:0:0:
112,96,2423,1,8,0:0:0:0:
112,96,3072,1,0,0:0:0:0:
112,96,3396,1,0,0:0:0:0:
112,96,3721,1,0,0:0:0:0:
112,96,4207,1,0,0:0:0:0:
112,96,4694,1,8,0:0:0:0:
112,96,5018,1,8,0:0:0:0:
112,96,5342,1,0,0:0:0:0:
112,96,5667,1,8,0:0:0:0:
112,96,5991,1,8,0:0:0:0:
112,96,6315,1,8,0:0:0:0:
112,96,6802,1,8,0:0:0:0:
112,96,7288,1,0,0:0:0:0:
112,96,7613,1,8,0:0:0:0:
83,101,8261,1,0,0:0:0:0:
83,101,8586,1,0,0:0:0:0:
83,101,8910,1,0,0:0:0:0:
83,101,9234,1,0,0:0:0:0:
83,101,9396,1,8,0:0:0:0:
83,101,9721,1,8,0:0:0:0:
83,101,9883,1,0,0:0:0:0:
83,101,10207,1,8,0:0:0:0:
83,101,10856,1,0,0:0:0:0:
83,101,11180,1,0,0:0:0:0:
83,101,11505,1,0,0:0:0:0:
83,101,11991,1,8,0:0:0:0:
264,107,12315,1,8,0:0:0:0:
173,104,12477,1,0,0:0:0:0:
81,101,12640,1,0,0:0:0:0:
171,104,12802,1,8,0:0:0:0:
57,112,13126,1,8,0:0:0:0:
110,102,13450,1,0,0:0:0:0:
110,102,13775,1,0,0:0:0:0:
110,102,14099,1,0,0:0:0:0:
110,102,14586,1,0,0:0:0:0:
110,102,14910,1,8,0:0:0:0:
110,102,15072,1,8,0:0:0:0:
110,102,15234,1,0,0:0:0:0:
110,102,15396,1,8,0:0:0:0:
110,102,15721,1,8,0:0:0:0:
110,102,15883,1,8,0:0:0:0:
110,102,16045,1,0,0:0:0:0:
110,102,16369,1,8,0:0:0:0:
110,102,16532,1,0,0:0:0:0:
110,102,16694,1,8,0:0:0:0:
110,102,16856,1,8,0:0:0:0:
110,102,17180,1,8,0:0:0:0:
110,102,17342,1,0,0:0:0:0:
110,102,17667,1,8,0:0:0:0:
110,102,17991,1,0,0:0:0:0:
110,102,18315,1,8,0:0:0:0:
110,102,18640,1,4,0:0:0:0:
110,102,18964,1,8,0:0:0:0:
110,102,19126,1,0,0:0:0:0:
110,102,19450,1,0,0:0:0:0:
110,102,19613,1,8,0:0:0:0:
19,92,19775,1,8,0:0:0:0:
160,96,20748,1,0,0:0:0:0:
160,96,20910,1,8,0:0:0:0:
77,103,21234,1,4,0:0:0:0:
77,103,21559,1,8,0:0:0:0:
77,103,21721,1,8,0:0:0:0:
77,103,21883,1,0,0:0:0:0:
77,103,22207,1,0,0:0:0:0:
77,103,22369,1,8,0:0:0:0:
77,103,22694,1,0,0:0:0:0:
77,103,22856,1,0,0:0:0:0:
77,103,23018,1,8,0:0:0:0:
77,103,23342,1,0,0:0:0:0:
77,103,23505,1,8,0:0:0:0:
77,103,23829,1,0,0:0:0:0:
77,103,23991,1,0,0:0:0:0:
77,103,24153,1,8,0:0:0:0:
77,103,24315,1,8,0:0:0:0:
77,103,24477,1,0,0:0:0:0:
77,103,24802,1,0,0:0:0:0:
77,103,24964,1,8,0:0:0:0:
77,103,25450,1,0,0:0:0:0:
77,103,25613,1,8,0:0:0:0:
77,103,25937,1,8,0:0:0:0:
77,103,26261,1,8,0:0:0:0:
62,126,26423,1,0,0:0:0:0:
77,103,26748,1,8,0:0:0:0:
77,103,26910,1,8,0:0:0:0:
125,72,27072,1,0,0:0:0:0:
253,200,27396,1,0,0:0:0:0:
188,135,27559,1,8,0:0:0:0:
122,71,27883,1,0,0:0:0:0:
104,160,28045,1,0,0:0:0:0:
122,71,28207,1,8,0:0:0:0:
160,249,28532,1,0,0:0:0:0:
141,160,28694,1,8,0:0:0:0:
131,113,29018,1,0,0:0:0:0:
131,113,29180,1,0,0:0:0:0:
131,113,29342,1,8,0:0:0:0:
131,113,29505,1,8,0:0:0:0:
131,113,29667,1,0,0:0:0:0:
311,136,29991,1,0,0:0:0:0:
220,126,30153,1,8,0:0:0:0:
192,110,30477,1,0,0:0:0:0:
192,110,30640,1,0,0:0:0:0:
192,110,30802,1,8,0:0:0:0:
192,110,31288,1,8,0:0:0:0:
77,90,31613,1,4,0:0:0:0:
77,90,31937,1,8,0:0:0:0:
77,90,32261,1,0,0:0:0:0:
77,90,32423,1,0,0:0:0:0:
77,90,32586,1,8,0:0:0:0:
77,90,32910,1,0,0:0:0:0:
233,182,33234,1,8,0:0:0:0:
154,135,33396,1,8,0:0:0:0:
74,89,33559,1,0,0:0:0:0:
157,125,33721,1,0,0:0:0:0:
73,89,33883,1,8,0:0:0:0:
239,161,34207,1,0,0:0:0:0:
74,82,34532,1,8,0:0:0:0:
155,121,34694,1,8,0:0:0:0:
72,81,34856,1,0,0:0:0:0:
235,160,35180,1,0,0:0:0:0:
153,120,35342,1,8,0:0:0:0:
115,102,35829,1,0,0:0:0:0:
115,102,36153,1,8,0:0:0:0:
115,102,36477,1,8,0:0:0:0:
115,102,36802,1,0,0:0:0:0:
115,102,37126,1,8,0:0:0:0:
115,102,37288,1,8,0:0:0:0:
115,102,37450,1,0,0:0:0:0:
115,102,37775,1,8,0:0:0:0:
115,102,37937,1,8,0:0:0:0:
115,102,38099,1,0,0:0:0:0:
115,102,38423,1,8,0:0:0:0:
115,102,38748,1,0,0:0:0:0:
115,102,39072,1,8,0:0:0:0:
115,102,39396,1,0,0:0:0:0:
115,102,39559,1,0,0:0:0:0:
115,102,39721,1,8,0:0:0:0:
115,102,39883,1,8,0:0:0:0:
115,102,40045,1,0,0:0:0:0:
115,102,40369,1,8,0:0:0:0:
115,102,40532,1,0,0:0:0:0:
122,73,40856,1,8,0:0:0:0:
133,72,41018,1,8,0:0:0:0:
133,72,41180,1,0,0:0:0:0:
133,72,41667,1,8,0:0:0:0:
122,73,41991,1,4,0:0:0:0:
133,72,42315,1,8,0:0:0:0:
117,253,42640,1,0,0:0:0:0:
125,162,42802,1,0,0:0:0:0:
131,71,42964,1,8,0:0:0:0:
125,161,43126,1,8,0:0:0:0:
131,70,43288,1,0,0:0:0:0:
119,252,43613,1,8,0:0:0:0:
128,70,43937,1,0,0:0:0:0:
123,160,44099,1,0,0:0:0:0:
128,69,44261,1,8,0:0:0:0:
119,251,44586,1,0,0:0:0:0:
116,69,44910,1,8,0:0:0:0:
118,159,45072,1,8,0:0:0:0:
116,68,45234,1,0,0:0:0:0:
121,250,45559,1,8,0:0:0:0:
118,159,45721,1,8,0:0:0:0:
117,104,46207,1,0,0:0:0:0:
117,104,46532,1,8,0:0:0:0:
117,104,46856,1,8,0:0:0:0:
117,104,47180,1,0,0:0:0:0:
117,104,47505,1,8,0:0:0:0:
117,104,47667,1,8,0:0:0:0:
117,104,47829,1,0,0:0:0:0:
117,104,48153,1,0,0:0:0:0:
117,104,48315,1,8,0:0:0:0:
117,104,48802,1,8,0:0:0:0:
117,104,48964,1,8,0:0:0:0:
117,104,49126,1,0,0:0:0:0:
117,104,49450,1,0,0:0:0:0:
117,104,49775,1,8,0:0:0:0:
117,104,49937,1,0,0:0:0:0:
117,104,50099,1,8,0:0:0:0:
117,104,50423,1,8,0:0:0:0:
117,104,50586,1,0,0:0:0:0:
117,104,50748,1,8,0:0:0:0:
117,104,50910,1,8,0:0:0:0:
117,104,51396,1,0,0:0:0:0:
117,104,51721,1,8,0:0:0:0:
97,78,52045,1,8,0:0:0:0:
97,78,52369,1,4,0:0:0:0:
97,78,53018,1,4,0:0:0:0:
97,78,53342,1,8,0:0:0:0:
97,78,53505,1,0,0:0:0:0:
97,78,53829,1,0,0:0:0:0:
97,78,53991,1,8,0:0:0:0:
97,78,54153,1,0,0:0:0:0:
97,78,54315,1,8,0:0:0:0:
97,78,54640,1,0,0:0:0:0:
97,78,54964,1,12,0:0:0:0:
97,78,55613,1,12,0:0:0:0:
97,78,55937,1,8,0:0:0:0:
97,78,56099,1,0,0:0:0:0:
97,78,56423,1,0,0:0:0:0:
97,78,56586,1,8,0:0:0:0:
97,78,56748,1,8,0:0:0:0:
97,78,56910,1,0,0:0:0:0:
97,78,57234,1,0,0:0:0:0:
97,78,57559,1,12,0:0:0:0:
97,78,58207,1,4,0:0:0:0:
97,78,58532,1,0,0:0:0:0:
97,78,58694,1,8,0:0:0:0:
97,78,59018,1,0,0:0:0:0:
97,78,59180,1,8,0:0:0:0:
97,78,59342,1,8,0:0:0:0:
97,78,59505,1,0,0:0:0:0:
97,78,59829,1,8,0:0:0:0:
97,78,60153,1,0,0:0:0:0:
97,78,60640,1,8,0:0:0:0:
97,78,60802,1,0,0:0:0:0:
97,78,61288,1,0,0:0:0:0:
97,78,61450,1,8,0:0:0:0:
97,78,62099,1,8,0:0:0:0:
97,78,62423,1,8,0:0:0:0:
97,78,62748,1,0,0:0:0:0:
97,78,63072,1,8,0:0:0:0:
97,78,63234,1,0,0:0:0:0:
97,78,63559,1,0,0:0:0:0:
97,78,63721,1,0,0:0:0:0:
97,78,63883,1,8,0:0:0:0:
97,78,64207,1,8,0:0:0:0:
97,78,64369,1,8,0:0:0:0:
97,78,65342,1,4,0:0:0:0:
97,78,65667,1,0,0:0:0:0:
97,78,65829,1,8,0:0:0:0:
97,78,65991,1,0,0:0:0:0:
97,78,66315,1,8,0:0:0:0:
97,78,66477,1,8,0:0:0:0:
97,78,66640,1,0,0:0:0:0:
97,78,66721,1,0,0:0:0:0:
97,78,66802,1,0,0:0:0:0:
97,78,66964,1,8,0:0:0:0:
97,78,67126,1,0,0:0:0:0:
97,78,67288,1,8,0:0:0:0:
97,78,67937,1,8,0:0:0:0:
97,78,68261,1,8,0:0:0:0:
97,78,68423,1,0,0:0:0:0:
97,78,68586,1,8,0:0:0:0:
97,78,68910,1,8,0:0:0:0:
97,78,69072,1,0,0:0:0:0:
183,182,69234,1,0,0:0:0:0:
213,218,69396,1,8,0:0:0:0:
183,182,69477,1,8,0:0:0:0:
153,146,69559,1,8,0:0:0:0:
153,146,69721,1,8,0:0:0:0:
153,146,69883,1,0,0:0:0:0:
153,146,70532,1,0,0:0:0:0:
153,146,70856,1,8,0:0:0:0:
153,146,71018,1,8,0:0:0:0:
153,146,71180,1,0,0:0:0:0:
153,146,71505,1,0,0:0:0:0:
153,146,71667,1,8,0:0:0:0:
234,186,71829,1,8,0:0:0:0:
153,146,71991,1,0,0:0:0:0:
153,146,72153,1,8,0:0:0:0:
153,146,72234,1,8,0:0:0:0:
153,146,72315,1,8,0:0:0:0:
153,146,72477,1,0,0:0:0:0:
153,146,73126,1,8,0:0:0:0:
153,146,73450,1,8,0:0:0:0:
153,146,73613,1,8,0:0:0:0:
153,146,73775,1,0,0:0:0:0:
153,146,74099,1,8,0:0:0:0:
153,146,74261,1,0,0:0:0:0:
153,146,74423,1,0,0:0:0:0:
68,36,74586,1,8,0:0:0:0:
95,71,74667,1,8,0:0:0:0:
41,1,74748,1,8,0:0:0:0:
107,63,74910,1,0,0:0:0:0:
173,124,75072,1,8,0:0:0:0:
173,124,75234,1,0,0:0:0:0:
173,124,75315,1,0,0:0:0:0:
173,124,75396,1,0,0:0:0:0:
173,124,75559,1,8,0:0:0:0:
173,124,75721,1,0,0:0:0:0:
154,98,76045,1,8,0:0:0:0:
154,98,76207,1,0,0:0:0:0:
197,83,76288,1,0,0:0:0:0:
154,98,76369,1,0,0:0:0:0:
154,98,76532,1,8,0:0:0:0:
173,124,76694,1,0,0:0:0:0:
173,124,76856,1,8,0:0:0:0:
154,98,77180,1,8,0:0:0:0:
154,98,77342,1,0,0:0:0:0:
154,98,77505,1,8,0:0:0:0:
173,124,77667,1,0,0:0:0:0:
173,124,78315,1,0,0:0:0:0:
27,14,78640,1,8,0:0:0:0:
173,124,78802,1,8,0:0:0:0:
217,44,78964,1,0,0:0:0:0:
194,83,79045,1,0,0:0:0:0:
194,83,79126,1,0,0:0:0:0:
173,124,79288,1,0,0:0:0:0:
173,124,79450,1,8,0:0:0:0:
173,124,79775,1,0,0:0:0:0:
173,124,79937,1,8,0:0:0:0:
173,124,80099,1,8,0:0:0:0:
173,124,80261,1,0,0:0:0:0:
173,124,80910,1,4,0:0:0:0:
173,124,81234,1,8,0:0:0:0:
173,124,81396,1,0,0:0:0:0:
173,124,81559,1,8,0:0:0:0:
173,124,81883,1,8,0:0:0:0:
173,124,82045,1,0,0:0:0:0:
173,124,82207,1,8,0:0:0:0:
173,124,82369,1,8,0:0:0:0:
173,124,82532,1,0,0:0:0:0:
173,124,82856,1,8,0:0:0:0:
173,124,83018,1,0,0:0:0:0:
173,124,83180,1,8,0:0:0:0:
173,124,83505,1,4,0:0:0:0:
173,124,83829,1,8,0:0:0:0:
173,124,83991,1,8,0:0:0:0:
173,124,84153,1,0,0:0:0:0:
173,124,84315,1,0,0:0:0:0:
173,124,84477,1,8,0:0:0:0:
173,124,84802,1,0,0:0:0:0:
173,124,84964,1,0,0:0:0:0:
173,124,85126,1,8,0:0:0:0:
173,124,85288,1,8,0:0:0:0:
173,124,85613,1,8,0:0:0:0:
173,124,85775,1,0,0:0:0:0:
173,124,85937,1,0,0:0:0:0:
173,124,86099,1,8,0:0:0:0:
173,124,86423,1,0,0:0:0:0:
173,124,86586,1,8,0:0:0:0:
173,124,86910,1,0,0:0:0:0:
78,86,88045,1,4,0:0:0:0:
78,86,88207,1,4,0:0:0:0:
