osu file format v14

[General]
AudioFilename: audio.mp3
AudioLeadIn: 0
PreviewTime: 64540
Countdown: 0
SampleSet: Normal
StackLeniency: 0.7
Mode: 1
LetterboxInBreaks: 0
WidescreenStoryboard: 1

[Editor]
DistanceSpacing: 1.3
BeatDivisor: 2
GridSize: 32
TimelineZoom: 1.2

[Metadata]
Title:JUSTadICE (TV Size)
TitleUnicode:JUSTadICE (TV Size)
Artist:Oomori Seiko
ArtistUnicode:大森靖子
Creator:BlackBN
Version:Futsuu
Source:ブラッククローバー
Tags:BlackBq Jacky J_a_c_k_y _mtk MTDex japanese anime pop jpop j-pop rock jrock j-rock vocal black clover Burakku Kuroobaa opening 7 アスタ Asta 梶原岳人 Kajiwara Gakuto Re: Re: love
BeatmapID:2991847
BeatmapSetID:1445595

[Difficulty]
HPDrainRate:7
CircleSize:2
OverallDifficulty:4
ApproachRate:10
SliderMultiplier:1.4
SliderTickRate:1

[Events]
//Background and Video events
0,0,"ckyckycky.jpg",0,-30
Video,-252,"ckyckycky.mp4"
//Break Periods
//Storyboard Layer 0 (Background)
//Storyboard Layer 1 (Fail)
//Storyboard Layer 2 (Pass)
//Storyboard Layer 3 (Foreground)
//Storyboard Layer 4 (Overlay)
//Storyboard Sound Samples

[TimingPoints]
478,324.324324324324,4,1,0,60,1,0
10775,-100,4,1,0,70,0,0
21153,-100,4,1,0,80,0,0
31532,-100,4,1,0,75,0,0
52288,-100,4,1,0,80,0,0
65261,-100,4,1,0,90,0,0
65342,-100,4,1,0,90,0,1
80586,-100,4,1,0,90,0,0
80910,-100,4,1,0,90,0,1
86910,-100,4,1,0,90,0,0
86991,-100,4,1,0,80,0,0

[HitObjects]
384,96,478,5,4,0:0:0:0:
256,192,1126,1,0,0:0:0:0:
256,192,1613,1,8,0:0:0:0:
256,192,1937,1,8,0:0:0:0:
256,192,2099,1,0,0:0:0:0:
256,192,2423,1,0,0:0:0:0:
256,192,3072,1,0,0:0:0:0:
256,192,3721,1,0,0:0:0:0:
256,192,4207,1,0,0:0:0:0:
256,192,4532,1,8,0:0:0:0:
256,192,4694,1,8,0:0:0:0:
256,192,5018,1,0,0:0:0:0:
256,192,5667,1,8,0:0:0:0:
256,192,6315,1,8,0:0:0:0:
256,192,6802,1,8,0:0:0:0:
256,192,7126,1,8,0:0:0:0:
256,192,7288,1,0,0:0:0:0:
256,192,7613,1,0,0:0:0:0:
256,192,8261,1,0,0:0:0:0:
256,192,8910,1,0,0:0:0:0:
256,192,9234,1,0,0:0:0:0:
256,192,9396,1,8,0:0:0:0:
256,192,9721,1,8,0:0:0:0:
256,192,9883,1,0,0:0:0:0:
256,192,10207,1,0,0:0:0:0:
256,192,10532,1,8,0:0:0:0:
384,96,10856,1,4,0:0:0:0:
256,192,11180,1,0,0:0:0:0:
256,192,11505,1,0,0:0:0:0:
256,192,11991,1,8,0:0:0:0:
256,192,12315,1,0,0:0:0:0:
256,192,12477,1,8,0:0:0:0:
256,192,12802,1,0,0:0:0:0:
256,192,13450,1,8,0:0:0:0:
256,192,13775,1,8,0:0:0:0:
256,192,14099,1,8,0:0:0:0:
256,192,14586,1,0,0:0:0:0:
256,192,14910,1,8,0:0:0:0:
256,192,15072,1,0,0:0:0:0:
256,192,15396,1,8,0:0:0:0:
256,192,15721,1,0,0:0:0:0:
256,192,16045,1,8,0:0:0:0:
256,192,16369,1,0,0:0:0:0:
256,192,16532,1,0,0:0:0:0:
256,192,16694,1,8,0:0:0:0:
256,192,17342,1,8,0:0:0:0:
256,192,17505,1,8,0:0:0:0:
256,192,17667,1,0,0:0:0:0:
256,192,17991,1,8,0:0:0:0:
256,192,18315,1,8,0:0:0:0:
416,64,18640,1,4,0:0:0:0:
384,64,19126,1,4,0:0:0:0:
384,64,19775,1,12,0:0:0:0:
256,192,20748,1,0,0:0:0:0:
256,192,20910,1,8,0:0:0:0:
480,64,21234,1,4,0:0:0:0:
256,192,21559,1,8,0:0:0:0:
256,192,21883,1,8,0:0:0:0:
256,192,22045,1,0,0:0:0:0:
256,192,22369,1,8,0:0:0:0:
256,192,23018,1,8,0:0:0:0:
256,192,23342,1,0,0:0:0:0:
256,192,23505,1,8,0:0:0:0:
256,192,23829,1,0,0:0:0:0:
256,192,24153,1,8,0:0:0:0:
256,192,24477,1,8,0:0:0:0:
256,192,24640,1,0,0:0:0:0:
256,192,24964,1,8,0:0:0:0:
256,192,25450,1,8,0:0:0:0:
256,192,25613,1,8,0:0:0:0:
256,192,25937,1,0,0:0:0:0:
320,96,26423,1,4,0:0:0:0:
256,192,26748,1,8,0:0:0:0:
256,192,27072,1,8,0:0:0:0:
256,192,27234,1,0,0:0:0:0:
256,192,27559,1,8,0:0:0:0:
256,192,28207,1,8,0:0:0:0:
256,192,28532,1,0,0:0:0:0:
256,192,28694,1,8,0:0:0:0:
256,192,29018,1,0,0:0:0:0:
256,192,29342,1,8,0:0:0:0:
256,192,29667,1,0,0:0:0:0:
256,192,29829,1,0,0:0:0:0:
256,192,30153,1,8,0:0:0:0:
256,192,30477,1,8,0:0:0:0:
256,192,30640,1,0,0:0:0:0:
256,192,30802,1,8,0:0:0:0:
384,64,31613,1,4,0:0:0:0:
256,192,31937,1,8,0:0:0:0:
256,192,32261,1,0,0:0:0:0:
256,192,32423,1,0,0:0:0:0:
256,192,32586,1,8,0:0:0:0:
256,192,32910,1,0,0:0:0:0:
256,192,33234,1,8,0:0:0:0:
256,192,33559,1,0,0:0:0:0:
256,192,33721,1,0,0:0:0:0:
256,192,33883,1,8,0:0:0:0:
256,192,34207,1,0,0:0:0:0:
256,192,34856,1,0,0:0:0:0:
256,192,35180,1,8,0:0:0:0:
256,192,35342,1,0,0:0:0:0:
256,192,35505,1,8,0:0:0:0:
256,192,35829,1,0,0:0:0:0:
256,192,36153,1,8,0:0:0:0:
256,192,36477,1,8,0:0:0:0:
256,192,36802,1,0,0:0:0:0:
256,192,37450,1,0,0:0:0:0:
256,192,37775,1,8,0:0:0:0:
256,192,37937,1,8,0:0:0:0:
256,192,38099,1,0,0:0:0:0:
256,192,38423,1,8,0:0:0:0:
256,192,38748,1,0,0:0:0:0:
256,192,39072,1,8,0:0:0:0:
256,192,39396,1,0,0:0:0:0:
256,192,39559,1,0,0:0:0:0:
256,192,39721,1,8,0:0:0:0:
256,192,40045,1,0,0:0:0:0:
256,192,40369,1,8,0:0:0:0:
256,192,40532,1,0,0:0:0:0:
256,192,40856,1,8,0:0:0:0:
256,192,41018,1,8,0:0:0:0:
352,96,41180,1,4,0:0:0:0:
320,64,41991,1,4,0:0:0:0:
256,192,42315,1,8,0:0:0:0:
256,192,42640,1,8,0:0:0:0:
256,192,42802,1,0,0:0:0:0:
256,192,42964,1,8,0:0:0:0:
256,192,43288,1,0,0:0:0:0:
256,192,43613,1,8,0:0:0:0:
256,192,43937,1,0,0:0:0:0:
256,192,44099,1,0,0:0:0:0:
256,192,44261,1,8,0:0:0:0:
256,192,44586,1,0,0:0:0:0:
256,192,45234,1,0,0:0:0:0:
256,192,45559,1,0,0:0:0:0:
256,192,45721,1,8,0:0:0:0:
256,192,45883,1,0,0:0:0:0:
256,192,46207,1,0,0:0:0:0:
256,192,46532,1,8,0:0:0:0:
256,192,46856,1,8,0:0:0:0:
256,192,47180,1,0,0:0:0:0:
256,192,47829,1,0,0:0:0:0:
256,192,48153,1,8,0:0:0:0:
256,192,48315,1,8,0:0:0:0:
256,192,48477,1,0,0:0:0:0:
256,192,48964,1,0,0:0:0:0:
256,192,49126,1,8,0:0:0:0:
256,192,49450,1,0,0:0:0:0:
256,192,49775,1,8,0:0:0:0:
256,192,50099,1,8,0:0:0:0:
256,192,50423,1,0,0:0:0:0:
256,192,50748,1,8,0:0:0:0:
256,192,50910,1,8,0:0:0:0:
256,192,51396,1,0,0:0:0:0:
256,192,51721,1,0,0:0:0:0:
256,192,52045,1,8,0:0:0:0:
352,96,52369,1,4,0:0:0:0:
352,96,52532,1,4,0:0:0:0:
352,96,53018,1,4,0:0:0:0:
352,96,53180,1,4,0:0:0:0:
352,96,53505,1,12,0:0:0:0:
256,192,54315,1,8,0:0:0:0:
256,192,54640,1,0,0:0:0:0:
352,96,54964,1,4,0:0:0:0:
352,96,55126,1,4,0:0:0:0:
352,96,55613,1,4,0:0:0:0:
352,96,55775,1,4,0:0:0:0:
352,96,56099,1,12,0:0:0:0:
256,192,56910,1,0,0:0:0:0:
256,192,57234,1,8,0:0:0:0:
352,96,57559,1,12,0:0:0:0:
352,96,57721,1,12,0:0:0:0:
352,96,58207,1,4,0:0:0:0:
352,96,58369,1,4,0:0:0:0:
352,96,58694,1,12,0:0:0:0:
256,192,59505,1,8,0:0:0:0:
256,192,59829,1,0,0:0:0:0:
256,192,60153,1,0,0:0:0:0:
256,192,60640,1,0,0:0:0:0:
256,192,60802,1,8,0:0:0:0:
256,192,61126,1,0,0:0:0:0:
256,192,61450,1,8,0:0:0:0:
256,192,61937,1,0,0:0:0:0:
256,192,62099,1,8,0:0:0:0:
256,192,62423,1,0,0:0:0:0:
256,192,62748,1,8,0:0:0:0:
256,192,62910,1,0,0:0:0:0:
256,192,63234,1,8,0:0:0:0:
256,192,63559,1,0,0:0:0:0:
256,192,63721,1,8,0:0:0:0:
384,64,63883,1,4,0:0:0:0:
384,64,64207,1,4,0:0:0:0:
384,64,64369,1,4,0:0:0:0:
352,64,65342,1,12,0:0:0:0:
256,192,65667,1,8,0:0:0:0:
256,192,65991,1,8,0:0:0:0:
256,192,66315,1,0,0:0:0:0:
256,192,66477,1,8,0:0:0:0:
256,192,66802,1,0,0:0:0:0:
256,192,66964,1,0,0:0:0:0:
256,192,67126,1,8,0:0:0:0:
256,192,67288,1,0,0:0:0:0:
256,192,67937,1,0,0:0:0:0:
256,192,68261,1,0,0:0:0:0:
256,192,68586,1,0,0:0:0:0:
256,192,68910,1,8,0:0:0:0:
256,192,69072,1,0,0:0:0:0:
256,192,69396,1,8,0:0:0:0:
256,192,69559,1,8,0:0:0:0:
256,192,69721,1,0,0:0:0:0:
256,192,69883,1,8,0:0:0:0:
256,192,70532,1,8,0:0:0:0:
256,192,70856,1,8,0:0:0:0:
256,192,71180,1,8,0:0:0:0:
256,192,71505,1,8,0:0:0:0:
256,192,71667,1,0,0:0:0:0:
256,192,71991,1,8,0:0:0:0:
256,192,72153,1,8,0:0:0:0:
256,192,72315,1,0,0:0:0:0:
256,192,72477,1,8,0:0:0:0:
256,192,73126,1,8,0:0:0:0:
256,192,73450,1,8,0:0:0:0:
256,192,73775,1,0,0:0:0:0:
256,192,74099,1,8,0:0:0:0:
256,192,74261,1,0,0:0:0:0:
256,192,74586,1,8,0:0:0:0:
256,192,74748,1,8,0:0:0:0:
256,192,74910,1,0,0:0:0:0:
256,192,75072,1,8,0:0:0:0:
256,192,75396,1,0,0:0:0:0:
384,96,75721,1,12,0:0:0:0:
256,192,76045,1,8,0:0:0:0:
256,192,76369,1,8,0:0:0:0:
256,192,76694,1,0,0:0:0:0:
256,192,76856,1,8,0:0:0:0:
256,192,77180,1,0,0:0:0:0:
256,192,77342,1,8,0:0:0:0:
256,192,77505,1,0,0:0:0:0:
256,192,77667,1,8,0:0:0:0:
256,192,78315,1,8,0:0:0:0:
256,192,78640,1,8,0:0:0:0:
256,192,78964,1,0,0:0:0:0:
256,160,79288,1,0,0:0:0:0:
256,192,79450,1,8,0:0:0:0:
256,192,79775,1,0,0:0:0:0:
256,192,79937,1,8,0:0:0:0:
256,192,80099,1,8,0:0:0:0:
256,192,80261,1,0,0:0:0:0:
416,96,80910,1,4,0:0:0:0:
256,192,81234,1,0,0:0:0:0:
256,192,81396,1,0,0:0:0:0:
256,192,81559,1,8,0:0:0:0:
256,192,81883,1,0,0:0:0:0:
256,192,82207,1,0,0:0:0:0:
256,192,82369,1,8,0:0:0:0:
256,192,82532,1,8,0:0:0:0:
256,192,82856,1,0,0:0:0:0:
352,96,83505,1,12,0:0:0:0:
256,192,83829,1,8,0:0:0:0:
256,192,83991,1,8,0:0:0:0:
256,192,84153,1,0,0:0:0:0:
256,192,84477,1,8,0:0:0:0:
256,192,84802,1,8,0:0:0:0:
256,192,84964,1,0,0:0:0:0:
256,192,85126,1,8,0:0:0:0:
256,192,85288,1,0,0:0:0:0:
256,192,85613,1,8,0:0:0:0:
256,192,85775,1,0,0:0:0:0:
416,96,86099,1,12,0:0:0:0:
416,64,86586,1,12,0:0:0:0:
384,64,86910,1,12,0:0:0:0:
384,96,88045,5,4,0:0:0:0:
384,96,88207,1,4,0:0:0:0:
