osu file format v14

[General]
AudioFilename: audio.mp3
AudioLeadIn: 0
PreviewTime: 64215
Countdown: 0
SampleSet: Soft
StackLeniency: 0.7
Mode: 0
LetterboxInBreaks: 0
WidescreenStoryboard: 1

[Editor]
Bookmarks: 65269
DistanceSpacing: 0.9
BeatDivisor: 4
GridSize: 4
TimelineZoom: 1

[Metadata]
Title:JUSTadICE
TitleUnicode:JUSTadICE
Artist:Oomori Seiko
ArtistUnicode:大森靖子
Creator:Nevo
Version:Boss' Normal
Source:ブラッククローバー
Tags:Black Clover full version anime japanese rock arc [arc] addy2607 bossandy Rosiie jrock j-rock op7 opening xchorse
BeatmapID:2605141
BeatmapSetID:1230998

[Difficulty]
HPDrainRate:4.3
CircleSize:3.2
OverallDifficulty:5
ApproachRate:6
SliderMultiplier:1.1
SliderTickRate:1

[Events]
//Background and Video events
0,0,"45c48eb2-a9d9-4d8f-821b-8c66999ac86e.png",0,0
//Break Periods
2,88166,96970
2,163409,167348
2,204922,211456
//Storyboard Layer 0 (Background)
//Storyboard Layer 1 (Fail)
//Storyboard Layer 2 (Pass)
//Storyboard Layer 3 (Foreground)
//Storyboard Layer 4 (Overlay)
//Storyboard Sound Samples

[TimingPoints]
399,324.324324324324,4,2,1,50,1,0
17912,-100,4,2,1,60,0,0
52290,-100,4,2,1,70,0,0
65263,-100,4,2,1,70,0,1
87966,324.324324324324,4,2,1,70,1,0
98344,-100,4,2,1,60,0,0
129479,-100,4,2,1,70,0,0
142452,-100,4,2,1,70,0,1
163209,-100,4,2,1,70,0,0
184290,-100,4,2,1,70,0,1
184614,-100,4,2,1,70,0,0
184938,-100,4,2,1,70,0,1
185263,-100,4,2,1,70,0,0
185587,-100,4,2,1,70,0,1
185911,-100,4,2,1,70,0,0
186236,-100,4,2,1,70,0,1
186560,-100,4,2,1,70,0,0
186884,-100,4,2,1,70,0,1
187209,-100,4,2,1,70,0,0
187533,-100,4,2,1,70,0,1
187857,-100,4,2,1,70,0,0
188182,-100,4,2,1,70,0,1
189155,-100,4,2,1,70,0,0
194344,-100,4,2,1,70,0,1
204722,-100,4,2,1,70,0,0
215101,-100,4,2,1,70,0,1
227587,-100,4,2,1,70,0,0

[Colours]
Combo1 : 180,180,180
Combo2 : 255,102,102
Combo3 : 88,252,203
Combo4 : 255,150,100

[HitObjects]
392,120,399,6,0,P|449:136|501:126,1,110,6|2,1:2|0:2,0:0:0:0:
448,40,1047,1,2,0:2:0:0:
308,88,1534,2,0,P|230:111|149:98,1,165,2|2,0:2|0:2,0:0:0:0:
72,36,2344,1,2,0:2:0:0:
36,128,2669,1,0,0:2:0:0:
112,192,2993,6,0,L|100:304,1,110,2|2,0:2|0:2,0:0:0:0:
176,364,3642,1,2,0:2:0:0:
296,276,4128,2,0,L|279:111,1,165,2|2,0:2|0:2,0:0:0:0:
268,16,4939,1,2,0:2:0:0:
356,60,5263,1,2,0:2:0:0:
444,16,5588,6,0,P|456:68|432:124,1,110,2|2,0:2|0:2,0:0:0:0:
344,156,6236,1,2,0:2:0:0:
196,164,6723,2,0,P|204:232|276:296,1,165,2|2,0:2|0:2,0:0:0:0:
368,264,7534,1,2,0:2:0:0:
428,340,7858,1,0,0:2:0:0:
508,280,8182,6,0,B|512:224|512:224|488:172,1,110,2|2,0:2|0:2,0:0:0:0:
440,88,8831,1,2,0:2:0:0:
376,164,9155,1,0,0:2:0:0:
376,164,9317,2,0,B|312:156|312:156|276:184|276:184|212:176,1,165,2|2,0:2|0:2,0:0:0:0:
184,84,10128,2,0,P|136:124|120:168,1,110,2|2,0:2|0:2,0:0:0:0:
163,257,10777,5,6,1:2:0:0:
222,177,11101,1,2,1:2:0:0:
284,256,11426,1,2,1:2:0:0:
343,176,11750,1,0,1:2:0:0:
343,176,11912,2,0,P|384:268|352:332,1,165,2|2,0:2|1:2,0:0:0:0:
268,356,12723,2,0,P|216:336|160:336,1,110,2|0,1:2|1:2,0:0:0:0:
72,376,13371,5,2,1:2:0:0:
4,304,13696,1,2,1:2:0:0:
12,204,14020,1,2,1:2:0:0:
68,120,14344,1,0,1:2:0:0:
68,120,14507,2,0,P|124:136|220:72,1,165,2|2,0:2|1:2,0:0:0:0:
292,28,15317,1,2,1:2:0:0:
388,52,15642,1,2,1:2:0:0:
424,144,15966,6,0,L|412:268,1,110,2|2,1:2|1:2,0:0:0:0:
372,280,16453,2,0,L|368:344,2,55,2|2|2,3:2|1:2|3:2,0:0:0:0:
300,212,17101,2,0,L|305:153,2,55,2|2|2,3:2|1:2|3:2,0:0:0:0:
260,244,17588,1,2,1:2:0:0:
180,300,17912,1,6,1:2:0:0:
256,364,18236,1,6,1:2:0:0:
336,308,18561,6,0,L|456:324,1,110,14|2,0:2|1:2,0:0:0:0:
496,236,19209,2,0,L|424:148,1,110,2|10,1:2|0:2,0:0:0:0:
396,112,19696,1,6,1:2:0:0:
120,319,20831,1,10,0:2:0:0:
72,231,21155,6,0,L|76:111,1,110,6|10,1:2|0:2,0:0:0:0:
112,87,21642,1,0,1:2:0:0:
112,87,21804,2,0,P|160:107|232:99,1,110,2|8,1:2|0:2,0:0:0:0:
296,47,22453,2,0,P|344:27|416:35,1,110,0|8,1:0|0:2,0:0:0:0:
364,119,23101,1,0,1:0:0:0:
436,187,23426,1,10,0:2:0:0:
416,283,23750,6,0,L|284:307,1,110,2|10,1:2|0:2,0:0:0:0:
268,271,24236,1,2,1:2:0:0:
268,271,24398,2,0,L|136:295,1,110,2|8,1:2|0:2,0:0:0:0:
112,275,24885,2,0,B|72:255|60:215|60:215|68:127,1,165,2|10,1:2|0:2,0:0:0:0:
168,127,25696,2,0,L|160:203,2,55,0|2|8,1:0|1:2|0:0,0:0:0:0:
120,39,26344,6,0,P|172:27|228:43,1,110,6|10,1:2|0:2,0:0:0:0:
268,67,26831,1,2,1:2:0:0:
268,67,26993,2,0,P|316:87|388:79,1,110,2|8,1:2|0:2,0:0:0:0:
448,151,27642,2,0,L|436:271,1,110,0|8,1:0|0:2,0:0:0:0:
428,359,28290,1,0,1:0:0:0:
344,303,28615,1,10,0:2:0:0:
256,351,28939,6,0,L|136:335,1,110,6|14,1:2|0:2,0:0:0:0:
100,327,29426,1,2,0:2:0:0:
100,327,29588,2,0,L|116:207,1,110,2|8,1:2|0:2,0:0:0:0:
164,223,30074,2,0,B|226:210|247:157|247:157|272:161|302:148,1,165,2|2,0:2|1:2,0:0:0:0:
311,101,30723,2,0,B|353:53|410:62|410:62|419:38|445:19,1,165,2|2,1:2|1:2,0:0:0:0:
488,39,31371,1,2,1:2:0:0:
488,39,31534,6,0,P|492:87|480:159,1,110,6|8,1:2|0:2,0:0:0:0:
400,203,32182,2,0,P|409:257|405:311,1,110,0|8,1:2|0:0,0:0:0:0:
376,351,32669,2,0,P|322:359|268:355,1,110,2|0,0:2|1:2,0:0:0:0:
228,327,33155,1,10,0:2:0:0:
264,235,33480,1,2,1:2:0:0:
232,143,33804,1,10,0:2:0:0:
280,59,34128,6,0,P|232:47|168:63,1,110,2|8,1:2|0:2,0:0:0:0:
232,143,34777,2,0,P|280:155|344:139,1,110,2|10,1:2|0:2,0:0:0:0:
376,111,35263,1,2,0:0:0:0:
457,166,35588,1,0,1:0:0:0:
457,166,35750,2,0,P|454:220|481:276,2,110,10|14|14,0:2|0:2|0:2,0:0:0:0:
508,83,36723,6,0,P|444:31|308:47,1,220,6|0,1:2|1:2,0:0:0:0:
232,99,37696,1,8,0:2:0:0:
232,99,37858,2,0,P|176:115|120:99,1,110,2|0,1:2|1:2,0:0:0:0:
88,71,38344,1,10,0:2:0:0:
68,167,38669,2,0,B|60:223|60:223|88:291,1,110,2|10,1:2|0:2,0:0:0:0:
180,279,39317,6,0,P|176:307|160:339,2,55,2|2|10,1:2|1:2|0:2,0:0:0:0:
164,183,39966,1,2,1:2:0:0:
256,219,40290,1,10,0:2:0:0:
256,219,40453,2,0,P|320:219|368:199,1,110,2|8,1:2|0:2,0:0:0:0:
440,267,41101,2,0,P|464:191|408:115,1,165,6|10,1:2|0:2,0:0:0:0:
472,35,41912,6,0,P|420:19|368:35,1,110,6|8,1:2|0:2,0:0:0:0:
296,103,42561,2,0,P|244:119|192:103,1,110,0|8,1:2|0:2,0:0:0:0:
144,91,43047,2,0,L|152:211,1,110,2|0,0:2|1:2,0:0:0:0:
156,251,43534,1,10,0:2:0:0:
104,335,43858,1,2,1:2:0:0:
36,263,44182,1,10,0:2:0:0:
28,163,44507,6,0,L|21:53,1,110,2|8,1:2|0:2,0:0:0:0:
108,11,45155,2,0,P|164:3|220:15,1,110,2|10,1:2|0:2,0:0:0:0:
244,55,45642,1,2,0:0:0:0:
292,143,45966,1,0,1:0:0:0:
292,143,46128,2,0,P|348:151|404:139,2,110,10|14|14,0:2|0:2|0:2,0:0:0:0:
240,227,47101,6,0,P|349:243|456:222,1,220,6|0,1:2|1:2,0:0:0:0:
400,140,48074,1,8,0:2:0:0:
400,140,48236,2,0,P|347:150|293:142,1,110,2|0,1:2|1:0,0:0:0:0:
252,115,48723,2,0,L|260:55,1,55,10|2,0:2|1:2,0:0:0:0:
224,27,49047,2,0,P|171:16|117:24,1,110,2|10,1:2|0:2,0:0:0:0:
64,107,49696,6,0,P|36:107|4:95,2,55,14|2|14,0:2|1:2|0:2,0:0:0:0:
136,175,50344,1,14,0:2:0:0:
96,267,50669,1,14,0:2:0:0:
96,267,50831,2,0,P|152:263|200:283,1,110,2|8,1:2|0:2,0:0:0:0:
252,283,51317,2,0,P|303:262|357:266,2,110,10|2|2,1:2|1:2|1:2,0:0:0:0:
316,359,52290,5,6,1:2:0:0:
396,179,52939,1,6,1:2:0:0:
316,55,53426,2,0,B|256:43|256:43|208:55|208:55|156:43,1,165,6|10,1:2|0:2,0:0:0:0:
80,107,54236,2,0,L|64:167,2,55,10|2|10,0:2|1:2|0:2,0:0:0:0:
48,15,54885,5,6,1:2:0:0:
184,159,55534,1,6,1:2:0:0:
320,99,56020,2,0,P|332:175|300:259,1,165,6|10,1:2|0:2,0:0:0:0:
212,295,56831,2,0,P|188:288|152:267,2,55,10|2|10,1:2|1:2|0:2,0:0:0:0:
288,359,57480,5,6,1:2:0:0:
220,175,58128,1,6,1:2:0:0:
76,207,58615,2,0,L|36:39,1,165,4|10,1:2|0:2,0:0:0:0:
136,47,59426,2,0,L|152:115,2,55,10|0|10,0:2|0:2|0:2,0:0:0:0:
236,55,60074,6,0,L|408:63,1,165,2|2,1:2|1:2,0:0:0:0:
452,67,60723,1,10,0:2:0:0:
488,159,61047,1,0,0:2:0:0:
416,227,61371,2,0,L|294:221,1,110,2|0,1:2|0:0,0:0:0:0:
264,244,61858,1,0,1:2:0:0:
264,244,62020,2,0,L|154:239,1,110,10|10,0:2|0:2,0:0:0:0:
256,192,62669,12,6,63804,1:2:0:0:
292,43,65263,6,0,L|421:52,1,110,14|10,0:2|0:2,0:0:0:0:
484,107,65912,2,0,P|496:175|476:231,1,110,10|8,0:2|0:2,0:0:0:0:
440,231,66398,2,0,P|364:211|288:263,1,165,6|10,1:2|0:2,0:0:0:0:
376,311,67209,1,10,0:2:0:0:
284,351,67534,1,8,0:2:0:0:
200,299,67858,6,0,P|160:291|84:303,1,110,14|10,0:2|0:2,0:0:0:0:
36,219,68507,2,0,L|60:91,1,110,10|8,0:2|0:2,0:0:0:0:
68,63,68993,2,0,P|132:31|228:55,1,165,6|10,1:2|0:2,0:0:0:0:
192,143,69804,1,10,0:2:0:0:
252,223,70128,1,8,0:2:0:0:
220,319,70453,6,0,P|276:323|324:299,1,110,14|10,0:2|0:2,0:0:0:0:
392,227,71101,2,0,P|441:250|496:246,1,110,10|8,0:2|0:2,0:0:0:0:
496,195,71588,2,0,B|494:163|504:139|504:139|488:87|488:87|500:63|496:27,1,165,6|10,1:2|0:2,0:0:0:0:
400,47,72398,1,10,0:2:0:0:
300,35,72723,1,8,0:2:0:0:
200,47,73047,6,0,B|144:51|144:51|120:31|72:31,1,110,6|10,1:2|0:2,0:0:0:0:
76,131,73696,2,0,L|60:243,1,110,2|8,1:2|0:0,0:0:0:0:
88,283,74182,2,0,P|136:311|200:307,2,110,2|10|10,1:2|0:2|0:2,0:0:0:0:
164,219,75155,2,0,L|172:159,2,55,10|10|10,0:2|1:2|1:2,0:0:0:0:
212,227,75642,6,0,B|256:231|256:231|276:227|276:227|324:231,1,110,14|10,1:2|0:2,0:0:0:0:
296,327,76290,2,0,B|341:330|341:330|361:326|361:326|405:330,1,110,10|10,0:2|0:2,0:0:0:0:
456,335,76777,2,0,L|468:171,1,165,6|10,1:2|0:2,0:0:0:0:
472,71,77588,1,10,0:2:0:0:
380,111,77912,1,8,0:2:0:0:
320,35,78236,6,0,P|268:27|212:55,1,110,14|10,1:2|0:2,0:0:0:0:
248,143,78885,2,0,P|196:151|140:123,1,110,10|10,0:2|0:2,0:0:0:0:
104,99,79371,2,0,B|40:119|24:167|24:167|36:247,1,165,6|10,1:2|0:2,0:0:0:0:
48,319,80182,1,10,0:2:0:0:
132,263,80507,1,8,0:2:0:0:
228,291,80831,6,0,L|340:263,1,110,14|10,0:0|0:0,0:0:0:0:
360,223,81317,1,2,1:2:0:0:
360,223,81480,2,0,L|472:195,1,110,10|8,0:2|0:2,0:0:0:0:
404,123,82128,2,0,L|292:151,1,110,10|10,0:2|0:2,0:0:0:0:
272,191,82615,1,0,1:2:0:0:
272,191,82777,2,0,L|160:219,1,110,10|10,0:2|0:2,0:0:0:0:
100,143,83426,6,0,L|216:115,1,110,6|10,1:2|0:2,0:0:0:0:
236,75,83912,1,0,1:2:0:0:
236,75,84074,2,0,L|296:59,2,55,2|2|10,0:2|1:2|0:2,0:0:0:0:
152,23,84723,2,0,L|98:37,1,55,2|2,1:2|1:2,0:0:0:0:
52,51,85047,1,10,0:2:0:0:
52,51,85209,2,0,P|32:115|52:175,1,110,2|10,0:2|0:2,0:0:0:0:
76,191,85696,1,10,1:2:0:0:
140,115,86020,5,6,1:2:0:0:
256,208,86507,1,6,1:2:0:0:
171,259,86831,2,0,B|140:305|171:358|171:358|217:358|255:374|255:374|293:358|339:358|339:358|370:305|339:259,1,385,6|6,1:2|1:2,0:0:0:0:
463,37,98020,5,10,0:0:0:0:
380,92,98344,6,0,L|260:88,1,110,6|10,1:2|0:2,0:0:0:0:
244,48,98830,1,0,1:2:0:0:
244,48,98993,2,0,B|192:28|192:28|124:36,1,110,2|8,1:2|0:2,0:0:0:0:
148,132,99641,2,0,L|156:260,1,110,0|8,1:0|0:2,0:0:0:0:
160,340,100290,1,0,1:0:0:0:
64,320,100614,1,10,0:2:0:0:
56,220,100938,6,0,L|49:110,1,110,2|10,1:2|0:2,0:0:0:0:
48,60,101425,1,2,1:2:0:0:
48,60,101587,2,0,L|172:48,1,110,2|8,1:2|0:2,0:0:0:0:
204,72,102074,2,0,B|243:86|282:62|282:62|321:86|360:72,1,165,2|10,1:2|0:2,0:0:0:0:
444,16,102884,2,0,P|468:17|500:24,2,55,0|2|8,1:0|1:2|0:0,0:0:0:0:
460,112,103533,6,0,P|472:164|456:220,1,110,6|10,1:2|0:2,0:0:0:0:
416,248,104020,1,2,1:2:0:0:
416,248,104182,2,0,L|296:236,1,110,2|8,1:2|0:2,0:0:0:0:
216,272,104830,2,0,P|224:336|200:376,1,110,0|8,1:0|0:2,0:0:0:0:
124,312,105479,1,0,1:0:0:0:
140,212,105803,1,10,0:2:0:0:
52,164,106128,6,0,P|28:115|38:62,1,110,6|14,1:2|0:2,0:0:0:0:
80,36,106614,1,2,0:2:0:0:
80,36,106776,2,0,L|200:52,1,110,2|8,1:2|0:2,0:0:0:0:
236,36,107263,2,0,P|311:65|323:164,1,165,2|2,0:2|1:2,0:0:0:0:
316,188,107911,2,0,P|337:264|411:293,1,165,2|2,1:2|1:2,0:0:0:0:
460,280,108560,1,2,1:2:0:0:
460,280,108722,6,0,P|484:232|472:160,1,110,6|8,1:2|0:2,0:0:0:0:
440,88,109371,2,0,P|380:96|320:80,1,110,0|8,1:2|0:0,0:0:0:0:
296,52,109857,2,0,P|242:62|188:54,1,110,2|0,0:2|1:2,0:0:0:0:
144,32,110344,1,10,0:2:0:0:
64,88,110668,1,2,1:2:0:0:
112,176,110993,1,10,0:2:0:0:
52,256,111317,6,0,P|100:276|160:264,1,110,2|8,1:2|0:2,0:0:0:0:
212,184,111965,2,0,L|324:192,1,110,2|10,1:2|0:2,0:0:0:0:
372,196,112452,1,2,0:0:0:0:
433,275,112776,1,0,1:0:0:0:
433,275,112938,2,0,P|384:292|320:280,2,110,10|14|14,0:2|0:2|0:2,0:0:0:0:
472,184,113911,6,0,P|424:88|304:68,1,220,6|0,1:2|1:2,0:0:0:0:
240,124,114884,1,8,0:2:0:0:
240,124,115047,2,0,P|224:180|240:236,1,110,2|0,1:2|1:2,0:0:0:0:
268,268,115533,1,10,0:2:0:0:
196,336,115857,2,0,P|144:344|80:312,1,110,2|10,1:2|0:2,0:0:0:0:
64,228,116506,6,0,L|8:248,2,55,2|2|10,1:2|1:2|0:2,0:0:0:0:
156,188,117155,1,2,1:2:0:0:
244,232,117479,1,10,0:2:0:0:
244,232,117641,2,0,L|348:194,1,110,2|8,1:2|0:2,0:0:0:0:
432,148,118290,2,0,P|444:228|384:288,1,165,6|10,1:2|0:2,0:0:0:0:
304,336,119101,6,0,P|248:324|184:336,1,110,6|8,1:2|0:2,0:0:0:0:
103,366,119749,2,0,B|87:310|87:310|103:254,1,110,0|8,1:2|0:2,0:0:0:0:
124,216,120236,2,0,L|116:96,1,110,2|0,0:2|1:2,0:0:0:0:
116,56,120722,1,10,0:2:0:0:
212,88,121047,1,2,1:2:0:0:
300,44,121371,1,10,0:2:0:0:
328,140,121695,6,0,P|336:188|312:248,1,110,2|8,1:2|0:2,0:0:0:0:
220,276,122344,2,0,P|256:324|304:340,1,110,2|10,1:2|0:2,0:0:0:0:
348,324,122830,1,2,0:0:0:0:
424,260,123155,1,0,1:0:0:0:
424,260,123317,2,0,B|436:220|436:220|424:144,2,110,10|14|14,0:2|0:2|0:2,0:0:0:0:
348,324,124290,6,0,B|294:310|294:310|241:324|241:324|188:310|188:310|135:324,1,220,6|0,1:2|1:2,0:0:0:0:
92,236,125263,1,8,0:2:0:0:
92,236,125425,2,0,L|208:204,1,110,2|0,1:2|0:0,0:0:0:0:
244,192,125911,2,0,L|251:137,1,55,10|2,0:2|1:2,0:0:0:0:
300,128,126236,2,0,L|416:96,1,110,2|10,1:2|0:2,0:0:0:0:
500,68,126884,6,0,L|488:12,2,55,14|2|14,0:2|1:2|0:2,0:0:0:0:
488,168,127533,1,14,0:2:0:0:
464,264,127857,1,14,0:2:0:0:
464,264,128020,2,0,B|408:256|408:256|360:284,1,110,2|10,1:2|0:2,0:0:0:0:
316,304,128506,2,0,B|269:277|269:277|213:285,2,110,8|2|2,1:2|1:2|1:2,0:0:0:0:
252,380,129479,5,6,1:2:0:0:
184,196,130128,1,6,1:2:0:0:
252,64,130614,2,0,P|168:40|92:80,1,165,6|10,1:2|0:2,0:0:0:0:
84,168,131425,2,0,P|52:160|24:140,2,55,10|2|10,0:2|1:2|0:2,0:0:0:0:
180,140,132074,5,6,1:2:0:0:
328,8,132722,1,6,1:2:0:0:
432,112,133209,2,0,P|456:196|444:280,1,165,6|10,1:2|0:2,0:0:0:0:
360,228,134020,2,0,P|363:200|355:174,2,55,10|2|10,1:2|1:2|0:2,0:0:0:0:
264,208,134668,5,6,1:2:0:0:
446,271,135317,1,6,1:2:0:0:
316,344,135803,2,0,P|232:348|152:300,1,165,4|10,1:2|0:2,0:0:0:0:
140,216,136614,2,0,L|152:152,2,55,10|0|10,1:2|0:0|1:2,0:0:0:0:
40,212,137263,6,0,B|60:124|60:124|80:84|112:72,1,165,2|0,1:2|0:0,0:0:0:0:
160,68,137911,1,2,0:0:0:0:
292,136,138398,1,2,1:2:0:0:
292,136,138560,2,0,P|348:152|414:142,1,110,2|0,1:2|0:0,0:0:0:0:
412,48,139209,2,0,P|356:32|290:42,1,110,2|2,0:2|0:2,0:0:0:0:
292,136,139857,6,0,L|276:256,1,110,10|0,0:2|1:2,0:0:0:0:
268,296,140344,2,0,L|158:281,1,110,8|0,0:2|1:2,0:0:0:0:
108,276,140830,1,0,1:2:0:0:
108,276,140993,1,6,1:2:0:0:
128,128,141479,5,0,1:2:0:0:
140,32,141803,1,2,1:2:0:0:
48,68,142128,1,10,0:2:0:0:
44,168,142452,6,0,P|76:204|144:220,1,110,14|10,0:2|0:2,0:0:0:0:
224,180,143101,2,0,L|232:68,1,110,10|8,0:2|0:2,0:0:0:0:
280,64,143587,2,0,B|364:56|364:56|416:64|440:100,1,165,6|10,1:2|0:2,0:0:0:0:
360,156,144398,1,10,0:2:0:0:
436,220,144722,1,8,0:2:0:0:
400,312,145047,6,0,P|346:321|291:312,1,110,14|10,0:2|0:2,0:0:0:0:
240,228,145695,2,0,L|252:116,1,110,10|8,0:2|0:2,0:0:0:0:
236,72,146182,2,0,P|160:36|72:56,1,165,6|10,1:2|0:2,0:0:0:0:
20,128,146993,1,10,0:2:0:0:
92,196,147317,1,8,0:2:0:0:
36,276,147641,6,0,P|96:292|156:272,1,110,14|10,0:2|0:2,0:0:0:0:
200,204,148290,2,0,P|260:188|320:208,1,110,10|8,0:2|0:2,0:0:0:0:
352,212,148776,2,0,B|360:159|360:159|344:106|344:106|352:50,1,165,6|10,1:2|0:2,0:0:0:0:
444,8,149587,1,10,0:2:0:0:
460,104,149911,1,8,0:2:0:0:
476,204,150236,6,0,B|465:255|465:255|485:279|490:307,1,110,6|10,1:2|0:2,0:0:0:0:
392,324,150884,2,0,L|280:308,1,110,2|8,1:2|0:0,0:0:0:0:
256,352,151371,2,0,P|204:372|144:364,2,110,2|10|10,1:2|0:2|0:2,0:0:0:0:
192,276,152344,2,0,L|196:220,2,55,10|10|10,0:2|1:2|1:2,0:0:0:0:
144,272,152830,6,0,L|32:268,1,110,14|10,1:2|0:2,0:0:0:0:
36,168,153479,2,0,L|39:58,1,110,10|10,0:2|0:2,0:0:0:0:
44,8,153965,2,0,P|120:32|208:16,1,165,6|10,1:2|0:2,0:0:0:0:
248,108,154776,1,10,0:2:0:0:
340,68,155101,1,8,0:2:0:0:
396,152,155425,6,0,P|408:216|396:264,1,110,14|10,1:2|0:2,0:0:0:0:
312,312,156074,2,0,L|256:288,1,55,10|0,0:2|1:2,0:0:0:0:
216,272,156398,1,10,0:2:0:0:
216,272,156560,2,0,P|152:304|48:296,1,165,6|10,1:2|0:2,0:0:0:0:
0,220,157371,1,10,0:2:0:0:
84,172,157695,1,8,0:2:0:0:
28,92,158020,6,0,P|84:76|148:96,1,110,14|10,0:0|0:0,0:0:0:0:
168,124,158506,1,2,1:2:0:0:
168,124,158668,2,0,B|224:132|224:132|280:108,1,110,10|8,0:2|0:2,0:0:0:0:
356,56,159317,2,0,P|372:112|352:176,1,110,10|10,0:2|0:2,0:0:0:0:
324,196,159803,1,0,1:2:0:0:
324,196,159965,2,0,B|316:252|316:252|340:308,1,110,10|10,0:2|0:2,0:0:0:0:
424,344,160614,6,0,B|432:288|432:288|408:232,1,110,6|10,1:2|0:2,0:0:0:0:
436,196,161101,1,0,1:2:0:0:
436,196,161263,2,0,B|460:148|460:148|460:88,1,110,2|10,1:2|0:2,0:0:0:0:
460,44,161749,1,10,0:2:0:0:
368,84,162074,1,2,0:0:0:0:
368,84,162236,2,0,P|312:92|256:64,1,110,2|2,0:0|0:0,0:0:0:0:
184,12,162884,1,10,0:0:0:0:
168,108,163209,5,4,0:0:0:0:
468,68,168398,6,0,L|456:196,1,110,6|10,1:2|0:2,0:0:0:0:
384,244,169047,2,0,L|396:316,2,55,2|2|8,1:2|1:2|0:0,0:0:0:0:
316,172,169695,2,0,L|248:184,1,55,0|2,1:0|1:2,0:0:0:0:
212,196,170020,1,10,0:2:0:0:
216,296,170344,2,0,L|148:284,1,55,0|2,1:0|1:2,0:0:0:0:
112,272,170668,1,10,0:2:0:0:
28,324,170993,6,0,P|14:267|36:208,1,110,2|10,1:2|0:2,0:0:0:0:
64,188,171479,1,10,0:2:0:0:
64,188,171641,2,0,L|48:128,2,55,10|10|8,0:2|0:2|0:0,0:0:0:0:
112,184,172128,1,4,1:2:0:0:
340,280,172938,6,0,B|353:226|353:226|340:173|340:173|353:120,1,165,8|8,0:0|0:0,0:0:0:0:
368,72,173587,5,10,1:2:0:0:
268,84,173911,2,0,P|240:80|213:73,1,55,2|2,0:2|1:2,0:0:0:0:
168,56,174236,1,10,0:2:0:0:
96,124,174560,2,0,P|100:152|106:178,1,55,2|2,0:2|1:2,0:0:0:0:
132,220,174884,2,0,P|128:268|108:328,1,110,10|2,0:2|1:2,0:0:0:0:
68,356,175371,1,2,1:2:0:0:
212,320,175857,6,0,L|280:328,1,55,2|2,1:2|0:2,0:0:0:0:
312,360,176182,2,0,P|368:360|424:328,1,110,2|2,1:2|0:2,0:0:0:0:
444,296,176668,1,2,1:2:0:0:
444,296,176830,2,0,B|444:238|444:238|424:192|424:192|424:132,1,165,10|2,0:2|1:2,0:0:0:0:
424,84,177479,1,2,1:2:0:0:
328,116,177803,2,0,L|328:180,1,55,2|2,1:2|1:2,0:0:0:0:
328,220,178128,2,0,B|292:216|292:216|256:220|256:220|216:216,1,110,10|10,0:2|0:2,0:0:0:0:
120,204,178776,6,0,L|132:88,1,110,2|2,1:2|0:2,0:0:0:0:
140,44,179263,1,0,1:2:0:0:
140,44,179425,2,0,P|200:60|252:48,1,110,10|2,0:2|0:2,0:0:0:0:
292,32,179911,1,2,1:2:0:0:
292,32,180074,2,0,P|352:16|452:80,1,165,2|2,0:2|1:2,0:0:0:0:
436,108,180722,2,0,L|432:180,1,55,10|2,0:2|1:2,0:0:0:0:
428,212,181047,1,2,1:2:0:0:
420,312,181371,6,0,L|304:304,1,110,2|2,1:2|0:2,0:0:0:0:
260,300,181857,1,2,1:2:0:0:
260,300,182020,2,0,L|188:304,2,55,10|2|2,0:2|1:2|0:2,0:0:0:0:
280,204,182668,2,0,L|168:212,1,110,2|2,0:2|0:2,0:0:0:0:
120,216,183155,1,0,1:2:0:0:
120,216,183317,1,10,0:2:0:0:
140,120,183641,1,10,0:2:0:0:
164,24,183965,6,0,L|228:28,1,55,2|0,1:2|1:0,0:0:0:0:
268,32,184290,1,10,0:2:0:0:
248,128,184614,2,0,L|312:124,1,55,10|0,0:2|1:0,0:0:0:0:
352,120,184938,1,10,0:2:0:0:
360,220,185263,2,0,L|305:223,1,55,2|8,0:2|0:0,0:0:0:0:
255,227,185587,1,2,1:2:0:0:
272,324,185911,2,0,L|217:320,1,55,10|0,0:2|1:2,0:0:0:0:
167,315,186236,1,10,0:2:0:0:
68,308,186560,6,0,L|71:253,1,55,2|0,1:2|1:0,0:0:0:0:
75,203,186884,1,10,0:2:0:0:
164,160,187209,2,0,L|209:190,1,55,10|0,0:2|1:0,0:0:0:0:
251,218,187533,1,10,0:2:0:0:
244,316,187857,2,0,L|194:340,1,55,2|8,0:2|0:0,0:0:0:0:
150,362,188182,1,2,0:2:0:0:
68,308,188506,6,0,L|71:253,1,55,2|2,1:2|1:2,0:0:0:0:
44,212,188830,2,0,L|47:157,1,55,2|2,1:2|1:2,0:0:0:0:
56,108,189155,6,0,L|172:116,1,110,10|2,1:2|0:2,0:0:0:0:
212,136,189641,1,2,1:2:0:0:
212,136,189803,2,0,P|264:144|320:104,1,110,10|2,0:2|0:2,0:0:0:0:
408,88,190452,1,2,0:2:0:0:
496,132,190776,1,2,1:2:0:0:
504,232,191101,1,10,0:2:0:0:
448,312,191425,2,0,L|392:304,1,55,2|2,1:2|0:2,0:0:0:0:
344,316,191749,6,0,P|308:268|308:212,1,110,10|10,0:2|0:2,0:0:0:0:
328,176,192236,1,2,1:2:0:0:
328,176,192398,2,0,P|388:196|452:176,1,110,10|10,0:2|0:2,0:0:0:0:
392,96,193047,1,10,0:2:0:0:
308,44,193371,1,10,0:2:0:0:
212,64,193695,1,10,0:2:0:0:
148,140,194020,1,10,0:2:0:0:
148,240,194344,6,0,P|88:224|52:176,1,110,10|10,1:2|0:2,0:0:0:0:
48,140,194830,2,0,P|64:80|112:44,1,110,2|2,1:2|1:2,0:0:0:0:
148,40,195317,2,0,P|208:56|244:104,1,110,10|2,0:2|1:2,0:0:0:0:
248,140,195803,2,0,P|232:200|184:236,1,110,2|2,1:2|1:2,0:0:0:0:
148,240,196290,1,2,1:2:0:0:
148,140,196614,1,10,0:2:0:0:
64,192,196938,6,0,L|8:180,2,55,2|2|10,2:2|1:2|0:2,0:0:0:0:
148,140,197587,2,0,L|204:128,2,55,0|2|10,1:2|1:2|0:2,0:0:0:0:
60,92,198236,2,0,L|6:80,2,55,2|2|10,1:2|1:2|0:2,0:0:0:0:
144,40,198884,2,0,L|200:28,1,55,2|2,1:2|1:2,0:0:0:0:
244,40,199209,1,8,0:0:0:0:
201,128,199533,6,0,P|159:172|147:227,1,110,6|8,1:2|0:2,0:0:0:0:
188,308,200182,2,0,L|153:367,2,55,0|0|10,1:2|0:0|0:2,0:0:0:0:
288,308,200830,2,0,P|329:263|341:208,1,110,0|8,1:2|0:0,0:0:0:0:
301,128,201479,2,0,L|335:68,2,55,2|0|10,1:2|1:2|0:2,0:0:0:0:
256,192,202128,12,14,204722,0:2:0:0:
12,184,212506,6,0,L|8:128,1,55,8|0,0:0|1:2,0:0:0:0:
4,80,212830,1,0,1:2:0:0:
4,80,212993,2,0,P|44:44|108:48,1,110,8|0,0:0|1:2,0:0:0:0:
140,68,213479,1,8,0:0:0:0:
140,68,213641,1,8,0:0:0:0:
364,332,214776,1,8,0:0:0:0:
284,272,215101,6,0,B|287:227|287:227|283:207|283:207|287:163,1,110,14|10,1:2|0:2,0:0:0:0:
388,164,215749,2,0,B|391:119|391:119|387:99|387:99|391:55,1,110,10|10,0:2|0:2,0:0:0:0:
392,4,216236,2,0,L|228:16,1,165,6|10,1:2|0:2,0:0:0:0:
164,92,217047,1,10,0:2:0:0:
92,24,217371,1,8,0:2:0:0:
24,96,217695,6,0,L|32:208,1,110,14|10,1:2|0:2,0:0:0:0:
40,304,218344,2,0,P|92:296|152:320,1,110,10|10,0:2|0:2,0:0:0:0:
188,340,218830,2,0,P|260:304|360:316,1,165,6|10,1:2|0:2,0:0:0:0:
432,356,219641,1,10,0:2:0:0:
500,284,219965,1,8,0:2:0:0:
412,240,220290,6,0,P|396:184|412:128,1,110,14|10,0:0|0:0,0:0:0:0:
436,96,220776,1,2,1:2:0:0:
436,96,220938,2,0,L|316:96,1,110,10|8,0:2|0:2,0:0:0:0:
268,176,221587,2,0,L|158:176,1,110,10|10,0:2|0:2,0:0:0:0:
184,136,222073,1,0,1:2:0:0:
184,136,222235,2,0,P|195:82|180:30,1,110,10|10,0:2|0:2,0:0:0:0:
80,32,222884,6,0,P|64:84|76:137,1,110,6|10,1:2|0:2,0:0:0:0:
56,180,223371,1,0,1:2:0:0:
56,180,223533,2,0,L|0:176,2,55,2|2|10,0:2|1:2|0:2,0:0:0:0:
100,268,224182,2,0,L|154:264,1,55,2|2,1:2|1:2,0:0:0:0:
200,284,224506,1,10,0:2:0:0:
200,284,224668,2,0,L|312:276,1,110,2|10,0:2|0:2,0:0:0:0:
356,296,225155,1,10,1:2:0:0:
452,272,225479,5,6,1:2:0:0:
420,128,225965,1,6,1:2:0:0:
340,188,226290,2,0,B|292:240|308:312|308:312|280:340|256:336|232:340|204:312|204:312|220:240|172:188,1,385,6|6,1:2|1:2,0:0:0:0:
