osu file format v14

[General]
AudioFilename: audio.mp3
AudioLeadIn: 0
PreviewTime: 64215
Countdown: 0
SampleSet: Soft
StackLeniency: 0.7
Mode: 0
LetterboxInBreaks: 0
WidescreenStoryboard: 1

[Editor]
Bookmarks: 65269,163227,168416
DistanceSpacing: 1.3
BeatDivisor: 4
GridSize: 4
TimelineZoom: 1.7

[Metadata]
Title:JUSTadICE
TitleUnicode:JUSTadICE
Artist:Oomori Seiko
ArtistUnicode:大森靖子
Creator:Nevo
Version:Addy's Extra
Source:ブラッククローバー
Tags:Black Clover full version anime japanese rock arc [arc] addy2607 bossandy Rosiie jrock j-rock op7 opening xchorse
BeatmapID:2622976
BeatmapSetID:1230998

[Difficulty]
HPDrainRate:5.5
CircleSize:3.8
OverallDifficulty:8.5
ApproachRate:9.2
SliderMultiplier:1.8
SliderTickRate:1

[Events]
//Background and Video events
0,0,"45c48eb2-a9d9-4d8f-821b-8c66999ac86e.png",0,0
//Break Periods
2,88166,96477
2,163409,167666
2,207517,211936
//Storyboard Layer 0 (Background)
//Storyboard Layer 1 (Fail)
//Storyboard Layer 2 (Pass)
//Storyboard Layer 3 (Foreground)
//Storyboard Layer 4 (Overlay)
//Storyboard Sound Samples

[TimingPoints]
399,324.324324324324,4,2,1,50,1,0
399,-153.846153846154,4,2,1,50,0,0
10777,-117.647058823529,4,2,1,50,0,0
11588,-117.647058823529,4,2,1,70,0,0
11750,-117.647058823529,4,2,1,50,0,0
12885,-117.647058823529,4,2,1,70,0,0
13047,-117.647058823529,4,2,1,50,0,0
14182,-117.647058823529,4,2,1,70,0,0
14344,-117.647058823529,4,2,1,50,0,0
15966,-105.263157894737,4,2,1,50,0,0
17912,-105.263157894737,4,2,1,60,0,0
18561,-90.9090909090909,4,2,1,60,0,0
20831,-500,4,2,1,60,0,0
21074,-500,4,2,1,60,0,0
21155,-100,4,2,1,60,0,0
22615,-100,4,2,1,70,0,0
22777,-100,4,2,1,60,0,0
23588,-100,4,2,1,70,0,0
23750,-100,4,2,1,60,0,0
27561,-100,4,2,1,70,0,0
27642,-100,4,2,1,60,0,0
31534,-117.647058823529,4,2,1,60,0,0
32831,-117.647058823529,4,2,1,70,0,0
32993,-117.647058823529,4,2,1,60,0,0
35344,-117.647058823529,4,2,1,70,0,0
35588,-117.647058823529,4,2,1,60,0,0
40534,-117.647058823529,4,2,1,70,0,0
40615,-117.647058823529,4,2,1,60,0,0
43209,-117.647058823529,4,2,1,70,0,0
43371,-117.647058823529,4,2,1,60,0,0
44426,-117.647058823529,4,2,1,70,0,0
44507,-117.647058823529,4,2,1,60,0,0
45723,-117.647058823529,4,2,1,70,0,0
45804,-117.647058823529,4,2,1,60,0,0
47669,-117.647058823529,4,2,1,70,0,0
47750,-117.647058823529,4,2,1,60,0,0
49696,-100,4,2,1,60,0,0
51074,-100,4,2,1,70,0,0
51155,-100,4,2,1,60,0,0
52290,-117.647058823529,4,2,1,70,0,0
60074,-153.846153846154,4,2,1,70,0,0
61371,-125,4,2,1,70,0,0
65263,-83.3333333333333,4,2,1,70,0,1
74344,-80,4,2,1,70,0,1
75642,-83.3333333333333,4,2,1,70,0,1
83426,-90.9090909090909,4,2,1,70,0,1
86831,-500,4,2,1,70,0,1
87966,324.324324324324,4,2,1,70,1,0
97047,-117.647058823529,4,2,1,70,0,0
98344,-100,4,2,1,60,0,0
99804,-100,4,2,1,70,0,0
99966,-100,4,2,1,60,0,0
103695,-100,4,2,1,70,0,0
103857,-100,4,2,1,60,0,0
104101,-100,4,2,1,70,0,0
104182,-100,4,2,1,60,0,0
104749,-100,4,2,1,70,0,0
104830,-100,4,2,1,60,0,0
108722,-117.647058823529,4,2,1,60,0,0
110019,-117.647058823529,4,2,1,70,0,0
110181,-117.647058823529,4,2,1,60,0,0
112614,-117.647058823529,4,2,1,70,0,0
112776,-117.647058823529,4,2,1,60,0,0
116425,-117.647058823529,4,2,1,70,0,0
116506,-117.647058823529,4,2,1,60,0,0
117803,-117.647058823529,4,2,1,70,0,0
117965,-117.647058823529,4,2,1,60,0,0
119668,-117.647058823529,4,2,1,70,0,0
119749,-117.647058823529,4,2,1,60,0,0
120398,-117.647058823529,4,2,1,70,0,0
120560,-117.647058823529,4,2,1,60,0,0
126884,-100,4,2,1,60,0,0
129479,-117.647058823529,4,2,1,70,0,0
134425,-117.647058823529,4,2,1,5,0,0
134506,-117.647058823529,4,2,1,70,0,0
137263,-333.333333333333,4,2,1,70,0,0
139857,-117.647058823529,4,2,1,70,0,0
141803,-100,4,2,1,70,0,0
142452,-83.3333333333333,4,2,1,70,0,1
151533,-80,4,2,1,70,0,1
152830,-83.3333333333333,4,2,1,70,0,1
160614,-90.9090909090909,4,2,1,70,0,1
163209,-100,4,2,1,70,0,0
168398,-117.647058823529,4,2,1,70,0,0
173587,-100,4,2,1,70,0,0
183965,-74.0740740740741,4,2,1,70,0,0
184208,-74.0740740740741,4,2,1,5,0,0
184290,-285.714285714286,4,2,1,70,0,0
184614,-74.0740740740741,4,2,1,70,0,0
184857,-74.0740740740741,4,2,1,5,0,0
184938,-285.714285714286,4,2,1,70,0,0
185263,-74.0740740740741,4,2,1,70,0,0
185506,-74.0740740740741,4,2,1,5,0,0
185587,-285.714285714286,4,2,1,70,0,0
185911,-74.0740740740741,4,2,1,70,0,0
186154,-74.0740740740741,4,2,1,5,0,0
186236,-285.714285714286,4,2,1,70,0,0
186560,-74.0740740740741,4,2,1,70,0,0
186803,-74.0740740740741,4,2,1,5,0,0
186884,-285.714285714286,4,2,1,70,0,0
187209,-74.0740740740741,4,2,1,70,0,0
187452,-74.0740740740741,4,2,1,5,0,0
187533,-285.714285714286,4,2,1,70,0,0
187857,-74.0740740740741,4,2,1,70,0,0
188100,-74.0740740740741,4,2,1,5,0,0
188182,-285.714285714286,4,2,1,70,0,0
188506,-74.0740740740741,4,2,1,70,0,0
189155,-100,4,2,1,70,0,0
194344,-90.9090909090909,4,2,1,70,0,1
204722,-100,4,2,1,70,0,0
212506,-83.3333333333333,4,2,1,70,0,1
213641,-100,4,2,1,70,0,0
215101,-83.3333333333333,4,2,1,70,0,1
222884,-90.9090909090909,4,2,1,70,0,1
226290,-500,4,2,1,70,0,1
227587,-100,4,2,1,70,0,0

[Colours]
Combo1 : 180,180,180
Combo2 : 255,102,102
Combo3 : 88,252,203
Combo4 : 255,150,100

[HitObjects]
466,25,399,6,0,L|469:90,1,58.4999973220826,6|0,1:2|0:2,0:0:0:0:
449,36,723,2,0,L|452:101,1,58.4999973220826,2|0,0:2|0:2,0:0:0:0:
436,48,1047,2,0,L|441:173,1,116.999994644165,2|0,0:2|0:2,0:0:0:0:
392,238,1534,2,0,P|442:257|502:225,1,116.999994644165,2|2,0:2|0:2,0:0:0:0:
341,171,2020,2,0,P|315:195|307:236,1,58.4999973220826,2|2,0:2|0:2,0:0:0:0:
324,310,2344,1,2,0:2:0:0:
32,16,2993,6,0,L|29:81,1,58.4999973220826,2|0,0:2|0:2,0:0:0:0:
49,27,3317,2,0,L|46:92,1,58.4999973220826,2|0,0:2|0:2,0:0:0:0:
64,38,3641,2,0,L|58:163,1,116.999994644165,2|0,0:2|0:2,0:0:0:0:
117,223,4128,2,0,P|61:245|0:224,1,116.999994644165,2|2,0:2|0:2,0:0:0:0:
191,128,4615,2,0,P|235:112|269:121,1,58.4999973220826,2|2,0:2|0:2,0:0:0:0:
279,239,4939,2,0,P|243:208|233:174,1,58.4999973220826,2|2,0:2|0:2,0:0:0:0:
325,114,5263,2,0,P|316:160|292:185,1,58.4999973220826,2|2,0:2|0:2,0:0:0:0:
169,320,5588,6,0,L|103:316,1,58.4999973220826,2|0,0:2|0:2,0:0:0:0:
158,336,5912,2,0,L|93:333,1,58.4999973220826,2|0,0:2|0:2,0:0:0:0:
149,354,6236,2,0,L|23:348,1,116.999994644165,2|0,0:2|0:2,0:0:0:0:
166,268,6723,2,0,P|216:296|230:362,1,116.999994644165,2|2,0:2|0:2,0:0:0:0:
75,279,7209,2,0,L|71:194,1,58.4999973220826,2|2,0:2|0:2,0:0:0:0:
64,110,7534,1,2,0:2:0:0:
328,63,8182,6,0,L|393:66,1,58.4999973220826,2|0,0:2|0:2,0:0:0:0:
339,47,8506,2,0,L|404:50,1,58.4999973220826,2|0,0:2|0:2,0:0:0:0:
349,29,8830,2,0,L|474:34,1,116.999994644165,2|0,0:2|0:2,0:0:0:0:
345,129,9317,2,0,B|290:125|290:125|279:133|279:133|217:128,1,116.999994644165,2|2,0:2|0:2,0:0:0:0:
101,107,9804,2,0,L|145:46,1,58.4999973220826,2|2,0:2|0:2,0:0:0:0:
79,186,10128,2,0,L|4:178,1,58.4999973220826,2|2,0:2|0:2,0:0:0:0:
158,167,10453,2,0,L|188:235,1,58.4999973220826,2|2,0:2|0:2,0:0:0:0:
389,334,10777,6,0,P|429:343|469:330,1,76.5000014591217,6|0,1:2|0:2,0:0:0:0:
342,265,11101,2,0,P|314:295|305:336,1,76.5000014591217,2|0,1:2|0:2,0:0:0:0:
423,263,11426,2,0,P|410:223|379:195,2,76.5000014591217,2|0|0,1:2|0:0|1:2,0:0:0:0:
297,186,11912,2,0,P|334:131|437:137,1,153.000002918243,2|2,0:2|0:2,0:0:0:0:
386,199,12398,1,2,1:2:0:0:
293,66,12561,1,2,0:2:0:0:
204,211,12723,2,0,L|116:207,2,76.5000014591217,2|0|0,1:2|0:0|1:2,0:0:0:0:
92,27,13371,6,0,P|47:13|7:30,1,76.5000014591217,2|0,1:2|0:2,0:0:0:0:
143,98,13696,2,0,P|177:66|182:22,1,76.5000014591217,2|0,1:2|0:2,0:0:0:0:
59,101,14020,2,0,P|69:146|104:173,2,76.5000014591217,2|0|0,1:2|0:0|1:2,0:0:0:0:
229,201,14507,2,0,B|146:193|173:260|75:246,1,153.000002918243,2|2,0:2|0:2,0:0:0:0:
293,319,14993,2,0,P|242:310|220:270,1,76.5000014591217,2|2,1:2|0:2,0:0:0:0:
316,145,15317,2,0,L|324:221,1,76.5000014591217,2|0,1:2|0:2,0:0:0:0:
411,164,15642,2,0,L|419:240,1,76.5000014591217,2|0,1:2|0:2,0:0:0:0:
502,143,15966,6,0,P|445:75|348:97,1,170.999995433807,2|2,1:2|1:2,0:0:0:0:
316,145,16453,1,2,3:2:0:0:
411,164,16615,1,2,1:2:0:0:
304,19,16777,2,0,L|203:32,1,85.4999977169037,2|0,3:2|1:2,0:0:0:0:
149,151,17101,1,2,3:2:0:0:
23,35,17263,6,0,P|80:37|112:61,1,85.4999977169037,2|2,1:2|3:2,0:0:0:0:
66,214,17588,2,0,P|39:163|44:123,1,85.4999977169037,2|0,1:2|3:2,0:0:0:0:
281,29,17912,1,6,1:2:0:0:
149,151,18074,1,0,0:0:0:0:
358,200,18236,1,6,1:2:0:0:
193,58,18398,1,0,3:2:0:0:
166,280,18561,5,14,0:2:0:0:
310,117,18723,1,0,1:2:0:0:
310,117,18885,1,2,1:2:0:0:
335,357,19047,5,12,0:2:0:0:
230,162,19209,1,2,1:2:0:0:
230,162,19371,1,2,1:2:0:0:
110,351,19534,1,10,0:2:0:0:
110,351,19615,1,8,0:2:0:0:
110,351,19696,1,6,1:2:0:0:
402,43,20669,5,2,1:2:0:0:
402,43,20750,1,0,1:2:0:0:
402,43,20831,2,0,L|436:40,1,27,10|0,0:2|0:2,0:0:0:0:
382,137,21155,6,0,L|488:131,1,90,6|2,1:2|1:2,0:0:0:0:
365,232,21480,1,10,0:2:0:0:
296,44,21642,1,0,1:2:0:0:
296,44,21723,1,0,1:0:0:0:
296,44,21804,2,0,P|234:27|201:41,2,90,2|2|8,1:2|1:2|0:2,0:0:0:0:
202,184,22290,1,2,1:2:0:0:
202,184,22371,1,0,1:0:0:0:
202,184,22453,6,0,P|247:138|252:103,2,90,0|0|8,1:0|0:0|0:2,0:0:0:0:
124,29,22939,1,2,1:2:0:0:
124,29,23020,1,0,1:0:0:0:
124,29,23102,2,0,P|140:91|168:112,1,90,0|2,1:0|1:2,0:0:0:0:
321,185,23426,1,10,0:2:0:0:
211,34,23588,1,0,0:0:0:0:
103,229,23750,6,0,L|6:220,1,90,2|2,1:2|1:2,0:0:0:0:
167,115,24074,1,10,0:2:0:0:
260,285,24236,1,2,1:2:0:0:
313,77,24398,1,2,1:2:0:0:
141,318,24561,2,0,L|44:309,1,90,2|8,1:2|0:2,0:0:0:0:
216,200,24885,6,0,P|294:193|353:272,1,180,2|2,1:2|1:2,0:0:0:0:
207,368,25371,1,10,0:2:0:0:
138,141,25534,2,0,P|82:127|39:147,1,90,2|0,1:2|1:0,0:0:0:0:
172,277,25858,1,2,1:2:0:0:
229,70,26020,2,0,P|285:56|328:76,1,90,8|0,0:0|1:0,0:0:0:0:
480,206,26344,6,0,L|493:104,1,90,6|2,1:2|1:2,0:0:0:0:
406,18,26669,1,10,0:2:0:0:
225,196,26831,1,2,1:2:0:0:
225,196,26912,1,0,1:0:0:0:
224,196,26993,2,0,P|266:208|308:193,2,90,2|2|8,1:2|1:2|0:2,0:0:0:0:
306,45,27480,1,2,1:2:0:0:
306,45,27561,1,0,1:0:0:0:
306,45,27642,6,0,P|274:75|266:119,2,90,0|2|8,1:0|1:2|0:2,0:0:0:0:
401,190,28128,1,2,1:2:0:0:
401,190,28209,1,0,1:0:0:0:
401,190,28290,2,0,P|390:147|356:118,1,90,0|2,1:0|1:2,0:0:0:0:
116,123,28615,1,10,0:2:0:0:
284,28,28777,1,0,1:2:0:0:
35,13,28939,6,0,L|25:115,1,90,6|2,1:2|1:2,0:0:0:0:
213,188,29263,2,0,L|203:86,1,90,14|2,0:2|0:2,0:0:0:0:
18,239,29588,1,2,1:2:0:0:
204,98,29750,1,6,0:2:0:0:
255,335,29912,1,8,0:2:0:0:
102,152,30074,1,2,0:2:0:0:
8,373,30236,5,4,1:2:0:0:
178,275,30398,1,2,1:2:0:0:
212,247,30479,1,0,1:2:0:0:
256,237,30560,1,2,1:2:0:0:
299,249,30641,1,0,1:2:0:0:
332,280,30723,1,2,1:2:0:0:
362,312,30804,1,0,1:3:0:0:
404,327,30885,5,0,1:0:0:0:
447,318,30966,1,0,1:0:0:0:
481,289,31047,1,2,1:2:0:0:
497,247,31128,1,0,1:0:0:0:
489,203,31209,5,2,1:2:0:0:
480,183,31290,1,4,1:3:0:0:
475,161,31371,1,2,1:2:0:0:
475,139,31452,1,4,1:3:0:0:
478,116,31534,6,0,B|396:87|409:160|321:131,1,153.000002918243,6|8,1:2|0:2,0:0:0:0:
154,35,32020,1,0,1:0:0:0:
154,35,32101,1,0,1:2:0:0:
154,35,32182,2,0,P|215:23|274:87,1,153.000002918243,0|8,1:2|0:0,0:0:0:0:
187,196,32669,6,0,L|195:103,2,76.5000014591217,2|0|0,0:2|0:0|1:2,0:0:0:0:
94,342,33155,2,0,P|47:357|9:346,1,76.5000014591217,10|0,0:2|0:0,0:0:0:0:
139,265,33480,2,0,P|175:298|184:336,1,76.5000014591217,2|0,1:2|1:2,0:0:0:0:
52,272,33804,2,0,P|62:223|91:196,1,76.5000014591217,10|0,0:2|0:2,0:0:0:0:
317,206,34128,6,0,P|248:234|183:190,1,153.000002918243,2|8,1:2|0:2,0:0:0:0:
151,119,34615,1,2,0:2:0:0:
273,45,34777,2,0,L|261:128,1,76.5000014591217,2|0,1:2|1:2,0:0:0:0:
230,254,35101,1,10,0:2:0:0:
393,102,35263,1,2,0:0:0:0:
393,102,35344,1,2,0:0:0:0:
393,102,35426,6,0,L|405:185,1,76.5000014591217,0|0,1:0|1:0,0:0:0:0:
284,355,35750,1,10,0:2:0:0:
492,221,35912,1,0,1:2:0:0:
175,176,36074,1,14,0:2:0:0:
386,335,36236,1,0,1:0:0:0:
101,354,36398,1,14,0:2:0:0:
341,225,36561,1,0,0:0:0:0:
134,100,36723,6,0,P|217:92|263:152,1,153.000002918243,6|8,1:2|0:2,0:0:0:0:
175,176,37209,1,0,0:0:0:0:
255,6,37371,1,0,1:2:0:0:
255,6,37534,1,0,1:2:0:0:
249,245,37696,1,8,0:2:0:0:
128,16,37858,6,0,P|38:31|13:85,1,153.000002918243,2|0,0:2|1:2,0:0:0:0:
164,273,38344,2,0,L|174:175,1,76.5000014591217,10|0,0:2|0:2,0:0:0:0:
13,80,38669,2,0,L|23:178,1,76.5000014591217,2|0,1:2|1:2,0:0:0:0:
184,252,38993,2,0,L|194:154,1,76.5000014591217,10|0,0:2|0:2,0:0:0:0:
24,348,39317,5,2,1:2:0:0:
24,348,39480,1,2,1:2:0:0:
218,241,39642,1,10,0:2:0:0:
3,183,39804,1,2,0:2:0:0:
192,350,39966,2,0,P|241:356|275:340,1,76.5000014591217,2|0,1:2|1:2,0:0:0:0:
396,189,40290,1,10,0:2:0:0:
313,360,40453,1,2,1:2:0:0:
313,360,40534,1,0,1:0:0:0:
313,360,40615,5,0,1:0:0:0:
288,123,40777,1,8,0:2:0:0:
409,367,40939,1,8,0:2:0:0:
490,159,41101,2,0,P|441:98|351:104,1,153.000002918243,6|2,1:2|1:2,0:0:0:0:
151,179,41588,1,10,0:2:0:0:
181,156,41669,1,8,0:2:0:0:
201,123,41750,1,10,0:2:0:0:
209,86,41831,1,8,0:2:0:0:
204,49,41912,6,0,B|128:30|127:99|39:64,1,153.000002918243,6|8,1:2|0:2,0:0:0:0:
327,30,42398,1,0,1:0:0:0:
327,30,42480,1,0,1:2:0:0:
327,30,42561,2,0,B|281:69|281:69|311:183,1,153.000002918243,0|8,1:2|0:2,0:0:0:0:
467,199,43047,6,0,P|444:165|403:152,2,76.5000014591217,2|0|0,0:2|1:0|1:2,0:0:0:0:
378,319,43534,2,0,L|389:228,1,76.5000014591217,10|0,0:2|0:0,0:0:0:0:
257,184,43858,1,2,1:2:0:0:
293,364,44020,1,0,1:2:0:0:
235,210,44182,1,10,0:2:0:0:
99,347,44344,1,2,0:2:0:0:
99,347,44426,1,2,0:0:0:0:
99,347,44507,6,0,B|143:307|143:307|117:189,1,153.000002918243,2|8,1:2|0:2,0:0:0:0:
92,113,44993,1,2,0:2:0:0:
32,265,45155,2,0,L|17:191,1,76.5000014591217,2|0,1:2|1:2,0:0:0:0:
168,87,45480,1,10,0:2:0:0:
15,21,45642,1,2,1:2:0:0:
15,21,45723,1,0,1:0:0:0:
15,21,45804,6,0,L|99:33,1,76.5000014591217,0|0,1:0|1:0,0:0:0:0:
271,207,46128,1,10,0:2:0:0:
212,7,46290,1,0,1:2:0:0:
132,230,46453,1,14,0:2:0:0:
321,33,46615,1,0,1:0:0:0:
372,288,46777,1,14,0:2:0:0:
224,120,46939,1,0,0:0:0:0:
479,25,47101,6,0,B|470:87|470:87|484:113|484:113|478:173,1,153.000002918243,6|8,1:2|0:2,0:0:0:0:
325,221,47588,1,0,1:2:0:0:
325,221,47669,1,0,1:0:0:0:
325,221,47750,2,0,L|336:125,1,76.5000014591217,0|0,1:2|1:2,0:0:0:0:
392,315,48074,1,8,0:2:0:0:
244,264,48236,6,0,B|163:248|179:327|91:298,1,153.000002918243,2|0,0:2|1:0,0:0:0:0:
28,234,48723,1,10,0:2:0:0:
230,342,48885,1,2,1:2:0:0:
126,144,49047,2,0,L|116:237,1,76.5000014591217,2|0,1:2|1:2,0:0:0:0:
295,171,49371,2,0,L|285:78,1,76.5000014591217,10|0,0:2|1:2,0:0:0:0:
41,40,49696,5,14,0:2:0:0:
210,119,49858,1,2,1:2:0:0:
28,234,50020,5,14,0:2:0:0:
136,54,50182,1,2,1:2:0:0:
234,262,50344,5,14,0:2:0:0:
35,156,50507,1,2,1:2:0:0:
286,94,50669,5,14,0:2:0:0:
107,245,50831,1,2,1:2:0:0:
323,344,50993,6,0,L|379:338,3,45,12|8|8|8,0:2|0:0|0:2|0:2,0:0:0:0:
234,262,51317,2,0,L|178:256,3,45,10|8|8|8,1:2|0:2|0:2|0:2,0:0:0:0:
335,185,51642,1,2,1:2:0:0:
378,175,51723,1,4,1:3:0:0:
420,189,51804,1,4,1:3:0:0:
447,224,51885,1,4,1:3:0:0:
468,264,51966,5,2,1:2:0:0:
469,230,52047,1,8,1:3:0:0:
470,196,52128,1,8,1:3:0:0:
471,162,52209,1,4,1:3:0:0:
472,129,52290,5,6,1:2:0:0:
374,262,52453,1,2,1:2:0:0:
158,68,52939,5,6,1:2:0:0:
301,127,53101,1,2,1:2:0:0:
57,233,53426,6,0,B|51:166|51:166|62:143|62:143|56:74,1,153.000002918243,6|0,1:2|1:2,0:0:0:0:
52,44,53831,1,0,1:0:0:0:
52,44,53912,1,10,0:2:0:0:
161,175,54074,1,2,1:2:0:0:
227,17,54236,2,0,L|234:103,1,76.5000014591217,10|2,0:2|1:2,0:0:0:0:
167,251,54561,2,0,L|160:165,1,76.5000014591217,10|0,0:2|1:2,0:0:0:0:
305,205,54885,5,6,1:2:0:0:
81,285,55047,1,2,1:2:0:0:
436,349,55534,5,6,1:2:0:0:
371,126,55696,1,2,1:2:0:0:
175,336,56020,6,0,B|263:315|239:383|333:360,1,153.000002918243,6|2,1:2|1:2,0:0:0:0:
407,197,56507,2,0,L|398:298,1,76.5000014591217,10|0,0:2|1:2,0:0:0:0:
243,227,56831,2,0,L|238:144,1,76.5000014591217,10|2,1:2|1:2,0:0:0:0:
418,210,57155,2,0,L|409:311,1,76.5000014591217,10|0,0:2|0:0,0:0:0:0:
332,88,57480,5,6,1:2:0:0:
199,296,57642,1,2,1:2:0:0:
39,23,58128,5,6,1:2:0:0:
290,155,58290,1,2,1:2:0:0:
28,343,58615,6,0,B|85:308|85:308|70:204,1,153.000002918243,4|0,1:2|1:2,0:0:0:0:
153,18,59101,1,10,0:2:0:0:
0,177,59263,1,0,1:2:0:0:
195,130,59426,2,0,L|110:117,1,76.5000014591217,10|0,0:2|0:2,0:0:0:0:
223,246,59750,2,0,L|308:233,1,76.5000014591217,10|0,0:2|0:0,0:0:0:0:
375,75,60074,6,0,P|333:45|278:46,2,87.749995983124,2|0|2,1:2|1:2|1:2,0:0:0:0:
374,177,60723,2,0,P|418:177|472:116,1,116.999994644165,10|0,0:2|0:2,0:0:0:0:
375,75,61209,1,0,0:0:0:0:
252,174,61371,6,0,P|293:209|295:280,2,108,2|0|0,1:2|1:2|1:2,0:0:0:0:
159,344,62020,2,0,L|249:335,1,72,10|0,0:2|0:0,0:0:0:0:
91,261,62344,2,0,L|1:252,1,72,10|0,0:2|1:2,0:0:0:0:
157,76,62669,5,10,0:2:0:0:
194,261,62831,1,0,1:2:0:0:
194,261,62993,1,0,1:2:0:0:
81,14,63155,5,8,0:2:0:0:
17,203,63317,1,0,1:2:0:0:
17,203,63480,1,0,1:2:0:0:
252,25,63642,5,8,0:2:0:0:
18,106,63804,1,6,1:2:0:0:
36,116,64128,5,6,1:2:0:0:
345,166,64290,1,6,1:2:0:0:
126,360,65263,5,14,0:2:0:0:
200,124,65425,1,0,1:0:0:0:
313,347,65588,5,10,0:2:0:0:
82,255,65750,1,0,1:0:0:0:
328,143,65912,5,10,0:2:0:0:
220,354,66074,1,0,1:2:0:0:
110,107,66236,1,8,0:2:0:0:
256,241,66398,6,0,B|373:209|338:326|481:271,1,215.999993408203,6|2,1:2|1:2,0:0:0:0:
459,103,66885,2,0,P|421:153|426:203,1,107.999996704102,10|2,0:2|1:2,0:0:0:0:
501,21,67209,2,0,L|382:6,1,107.999996704102,10|0,0:2|0:0,0:0:0:0:
200,124,67534,2,0,L|319:109,1,107.999996704102,8|0,0:2|1:2,0:0:0:0:
174,38,67858,6,0,P|117:73|107:124,1,107.999996704102,14|0,0:2|1:0,0:0:0:0:
228,218,68182,2,0,P|226:151|187:116,1,107.999996704102,10|0,0:2|1:0,0:0:0:0:
44,169,68507,2,0,P|102:200|151:184,1,107.999996704102,10|0,0:2|1:2,0:0:0:0:
174,38,68831,1,8,0:2:0:0:
327,275,68993,6,0,B|236:311|180:254|180:254|218:226|257:254,1,215.999993408203,6|2,1:2|1:2,0:0:0:0:
389,350,69480,2,0,P|440:370|491:348,1,107.999996704102,10|2,0:2|1:2,0:0:0:0:
431,163,69804,2,0,L|436:294,1,107.999996704102,10|0,0:2|1:2,0:0:0:0:
262,203,70128,2,0,L|267:96,1,107.999996704102,8|0,0:2|0:0,0:0:0:0:
473,73,70453,5,14,0:2:0:0:
266,3,70615,1,0,1:0:0:0:
340,216,70777,5,10,0:2:0:0:
381,7,70939,1,0,1:0:0:0:
230,234,71101,5,10,0:2:0:0:
167,4,71263,1,0,1:0:0:0:
365,84,71426,1,8,0:2:0:0:
138,185,71588,6,0,B|81:201|22:216|-7:160|-6:98|87:102,1,215.999993408203,6|2,1:2|1:2,0:0:0:0:
230,234,72074,2,0,P|189:278|135:287,1,107.999996704102,10|2,0:2|1:2,0:0:0:0:
207,116,72398,2,0,B|262:102|262:102|310:125,1,107.999996704102,10|0,0:2|1:2,0:0:0:0:
423,246,72723,2,0,B|368:260|368:260|320:237,1,107.999996704102,8|0,0:2|1:2,0:0:0:0:
495,161,73047,6,0,L|506:46,1,107.999996704102,6|0,1:2|1:0,0:0:0:0:
297,16,73371,2,0,L|308:131,1,107.999996704102,10|0,0:2|0:0,0:0:0:0:
468,176,73696,2,0,L|479:61,1,107.999996704102,2|0,1:2|1:2,0:0:0:0:
276,145,74020,1,8,0:0:0:0:
474,317,74182,1,2,1:2:0:0:
375,160,74344,5,0,1:0:0:0:
254,345,74507,1,10,0:2:0:0:
213,363,74588,1,8,0:2:0:0:
169,358,74669,1,10,1:2:0:0:
135,330,74750,1,8,0:2:0:0:
120,288,74831,1,10,0:2:0:0:
131,245,74912,1,8,0:2:0:0:
154,207,74993,5,10,1:2:0:0:
185,161,75074,1,8,0:2:0:0:
185,105,75155,1,10,0:2:0:0:
154,60,75236,1,8,0:2:0:0:
102,40,75317,1,10,1:2:0:0:
48,53,75398,1,8,0:2:0:0:
11,94,75479,1,10,1:2:0:0:
13,151,75561,1,8,0:0:0:0:
46,196,75642,5,14,1:2:0:0:
301,52,75804,1,0,0:0:0:0:
101,132,75966,5,10,0:2:0:0:
329,224,76128,1,0,1:0:0:0:
55,296,76290,5,10,0:2:0:0:
199,91,76453,1,0,1:0:0:0:
341,314,76615,1,10,0:2:0:0:
154,207,76777,6,0,B|246:189|246:189|262:160|262:160|354:142,1,215.999993408203,6|2,1:2|1:2,0:0:0:0:
446,291,77263,2,0,L|322:318,1,107.999996704102,10|2,0:2|1:2,0:0:0:0:
370,56,77588,2,0,P|423:86|440:136,1,107.999996704102,10|0,0:2|1:2,0:0:0:0:
280,223,77912,1,8,0:2:0:0:
480,128,78074,1,0,1:2:0:0:
265,41,78236,6,0,P|204:12|148:28,1,107.999996704102,14|0,1:2|1:0,0:0:0:0:
131,189,78561,2,0,P|186:150|200:94,1,107.999996704102,10|0,0:2|1:0,0:0:0:0:
71,0,78885,2,0,P|76:67|118:107,1,107.999996704102,10|0,0:2|1:2,0:0:0:0:
280,223,79209,1,10,0:2:0:0:
29,336,79371,6,0,B|106:300|106:300|71:156,1,215.999993408203,6|2,1:2|1:2,0:0:0:0:
221,317,79858,2,0,P|291:338|343:312,1,107.999996704102,10|2,0:2|1:2,0:0:0:0:
448,261,80182,2,0,L|437:393,1,107.999996704102,10|0,0:2|1:2,0:0:0:0:
280,223,80507,2,0,L|269:91,1,107.999996704102,8|2,0:2|1:2,0:0:0:0:
491,28,80831,5,14,0:0:0:0:
370,207,80993,1,0,0:0:0:0:
255,6,81155,5,10,0:0:0:0:
473,110,81317,1,2,1:2:0:0:
161,168,81480,5,10,0:2:0:0:
362,60,81642,1,2,1:2:0:0:
121,5,81804,5,8,0:2:0:0:
313,140,81966,1,2,1:2:0:0:
58,242,82128,6,0,L|51:125,1,107.999996704102,10|2,0:2|1:2,0:0:0:0:
240,22,82453,2,0,L|233:139,1,107.999996704102,10|0,0:2|1:2,0:0:0:0:
121,327,82777,2,0,P|56:352|1:329,1,107.999996704102,10|0,0:2|1:2,0:0:0:0:
232,236,83101,2,0,P|297:211|352:234,1,107.999996704102,10|0,0:2|0:2,0:0:0:0:
480,333,83426,6,0,P|389:327|429:268,1,198.000006042481,6|10,1:2|0:2,0:0:0:0:
265,357,83912,1,0,1:2:0:0:
507,255,84074,1,2,0:2:0:0:
289,134,84236,1,2,1:2:0:0:
289,134,84317,1,0,1:0:0:0:
289,134,84398,1,10,0:2:0:0:
376,319,84561,1,0,0:2:0:0:
486,84,84723,6,0,L|381:66,2,99.0000030212403,2|2|10,1:2|1:2|0:2,0:0:0:0:
257,225,85209,2,0,L|362:207,1,99.0000030212403,2|0,0:2|1:2,0:0:0:0:
243,26,85534,1,10,0:2:0:0:
197,6,85615,1,8,0:0:0:0:
148,6,85696,1,10,1:2:0:0:
103,25,85777,1,8,0:2:0:0:
70,61,85858,1,10,0:2:0:0:
53,108,85939,1,8,0:2:0:0:
57,157,86020,6,0,B|149:106|168:209|265:140,1,198.000006042481,6|8,1:2|0:2,0:0:0:0:
107,241,86507,2,0,P|90:292|114:348,1,99.0000030212403,6|0,1:2|0:0,0:0:0:0:
292,335,86831,6,0,P|259:294|188:291,1,126,6|6,1:2|1:2,0:0:0:0:
500,16,97047,5,14,0:2:0:0:
424,117,97209,1,0,1:0:0:0:
424,117,97290,1,0,1:0:0:0:
424,117,97371,1,8,0:0:0:0:
241,13,97533,1,0,1:0:0:0:
278,13,97614,1,0,1:0:0:0:
311,32,97695,1,0,1:0:0:0:
329,65,97776,1,0,1:0:0:0:
329,103,97857,1,0,1:0:0:0:
158,103,98020,2,0,L|260:95,1,76.5000014591217,10|0,0:0|0:0,0:0:0:0:
401,209,98344,6,0,L|308:198,1,90,6|2,1:2|1:2,0:0:0:0:
174,125,98668,1,10,0:2:0:0:
244,345,98830,1,0,1:2:0:0:
244,345,98911,1,0,1:0:0:0:
244,345,98993,2,0,L|239:251,2,90,2|2|8,1:2|1:2|0:2,0:0:0:0:
136,219,99479,1,2,1:2:0:0:
136,219,99560,1,0,1:0:0:0:
136,219,99641,6,0,L|141:313,2,90,0|0|8,1:0|1:0|0:2,0:0:0:0:
37,355,100128,1,2,1:2:0:0:
37,355,100209,1,0,1:0:0:0:
37,355,100291,2,0,L|32:261,1,90,0|2,1:0|1:2,0:0:0:0:
187,135,100614,1,10,0:2:0:0:
120,339,100776,1,0,1:2:0:0:
1,131,100938,6,0,L|91:121,1,90,2|2,1:2|1:2,0:0:0:0:
274,187,101263,1,10,0:2:0:0:
158,17,101425,1,2,1:2:0:0:
136,219,101587,1,2,1:2:0:0:
296,83,101749,2,0,P|237:85|201:118,1,90,2|8,1:2|0:2,0:0:0:0:
264,320,102074,6,0,B|340:310|340:310|366:329|366:329|447:315,1,180,2|2,1:2|1:2,0:0:0:0:
274,187,102560,1,10,0:2:0:0:
163,368,102722,2,0,L|67:359,1,90,2|0,1:2|1:0,0:0:0:0:
187,237,103047,2,0,L|283:228,1,90,2|8,1:2|0:0,0:0:0:0:
160,341,103371,1,8,0:0:0:0:
43,101,103533,6,0,P|97:115|114:167,1,90,6|0,1:2|0:0,0:0:0:0:
83,251,103857,1,10,0:2:0:0:
191,44,104020,1,2,1:2:0:0:
191,44,104101,1,0,1:0:0:0:
191,44,104182,2,0,L|290:32,2,90,2|2|8,1:2|1:2|0:2,0:0:0:0:
338,128,104668,1,2,1:2:0:0:
338,128,104749,1,0,1:0:0:0:
338,128,104830,6,0,L|248:138,2,90,0|2|8,1:0|1:2|0:2,0:0:0:0:
216,246,105317,1,2,1:2:0:0:
216,246,105398,1,0,1:0:0:0:
216,246,105479,2,0,L|315:234,1,90,0|2,1:0|1:2,0:0:0:0:
398,296,105803,1,10,0:2:0:0:
220,144,105965,1,0,1:2:0:0:
464,33,106128,6,0,P|414:52|391:104,1,90,6|2,1:2|1:2,0:0:0:0:
481,205,106452,2,0,P|489:152|456:106,1,90,14|0,0:2|1:2,0:0:0:0:
322,143,106776,2,0,P|363:176|419:170,1,90,2|6,1:2|0:2,0:0:0:0:
342,35,107101,1,8,0:2:0:0:
237,216,107263,1,2,1:2:0:0:
147,23,107425,5,4,1:2:0:0:
10,203,107587,1,2,1:2:0:0:
53,193,107668,1,0,1:2:0:0:
97,202,107749,1,2,1:2:0:0:
134,228,107830,1,0,1:2:0:0:
157,266,107912,1,2,1:2:0:0:
181,304,107993,1,0,1:3:0:0:
217,328,108074,5,0,1:0:0:0:
261,338,108155,1,0,1:0:0:0:
305,330,108236,1,2,1:2:0:0:
343,305,108317,1,0,1:0:0:0:
368,268,108398,5,2,1:2:0:0:
382,251,108479,1,4,1:3:0:0:
401,240,108560,1,2,1:2:0:0:
423,235,108641,1,4,1:3:0:0:
445,239,108722,6,0,B|455:180|455:180|430:146|430:146|438:86,1,153.000002918243,6|8,1:2|0:2,0:0:0:0:
240,40,109209,1,0,1:0:0:0:
240,40,109290,1,0,1:2:0:0:
240,40,109371,2,0,P|309:11|382:50,1,153.000002918243,0|8,1:2|0:0,0:0:0:0:
299,182,109857,6,0,L|307:93,2,76.5000014591217,2|0|0,0:2|1:0|1:2,0:0:0:0:
200,350,110344,1,10,0:2:0:0:
249,266,110506,1,0,0:0:0:0:
87,291,110668,2,0,L|176:277,1,76.5000014591217,2|0,1:2|1:2,0:0:0:0:
96,179,110993,2,0,L|7:193,1,76.5000014591217,10|0,0:2|0:2,0:0:0:0:
112,86,111317,6,0,P|161:106|184:209,1,153.000002918243,2|8,1:2|0:2,0:0:0:0:
96,179,111803,1,2,0:2:0:0:
263,42,111965,2,0,P|299:26|350:35,2,76.5000014591217,2|0|10,1:2|1:2|0:2,0:0:0:0:
318,139,112452,1,2,0:0:0:0:
454,71,112614,6,0,L|461:150,1,76.5000014591217,0|0,1:0|1:0,0:0:0:0:
464,361,112938,1,10,0:2:0:0:
391,196,113101,1,0,1:2:0:0:
260,356,113263,1,14,0:2:0:0:
380,179,113425,1,0,1:0:0:0:
238,368,113587,1,14,0:2:0:0:
171,129,113749,1,0,0:0:0:0:
25,340,113911,6,0,P|106:361|157:312,1,153.000002918243,6|8,1:2|0:2,0:0:0:0:
28,126,114398,1,0,1:2:0:0:
82,279,114560,1,0,1:2:0:0:
82,279,114722,1,0,1:2:0:0:
162,54,114884,1,8,0:2:0:0:
293,212,115047,6,0,B|232:207|232:207|207:228|207:228|141:220,1,153.000002918243,2|0,1:2|1:2,0:0:0:0:
270,102,115533,2,0,L|346:108,1,76.5000014591217,10|0,0:2|1:2,0:0:0:0:
404,315,115857,2,0,L|327:308,1,76.5000014591217,2|0,1:2|1:2,0:0:0:0:
255,125,116182,1,10,0:2:0:0:
205,343,116344,1,0,1:2:0:0:
205,343,116425,1,0,1:0:0:0:
205,343,116506,6,0,P|267:362|330:283,1,153.000002918243,2|10,1:2|0:2,0:0:0:0:
181,189,116993,1,2,0:2:0:0:
74,370,117155,2,0,B|122:339|122:339|115:222,1,153.000002918243,2|10,1:2|0:2,0:0:0:0:
17,163,117641,1,2,1:2:0:0:
244,82,117803,5,0,1:0:0:0:
8,184,117965,1,8,0:2:0:0:
287,233,118128,1,8,0:2:0:0:
82,31,118290,2,0,B|77:88|77:88|104:120|104:120|101:179,1,153.000002918243,6|2,1:2|1:2,0:0:0:0:
187,14,118776,1,10,0:2:0:0:
222,0,118857,1,8,0:2:0:0:
260,0,118938,1,10,0:2:0:0:
295,14,119019,1,8,0:2:0:0:
322,40,119101,6,0,B|327:159|327:159|294:119,1,153.000002918243,6|8,1:2|0:2,0:0:0:0:
403,220,119587,1,0,1:0:0:0:
403,220,119668,1,0,1:0:0:0:
403,220,119749,2,0,P|341:260|271:239,1,153.000002918243,0|8,1:2|0:2,0:0:0:0:
183,197,120236,6,0,L|192:288,2,76.5000014591217,2|0|0,0:2|1:0|1:2,0:0:0:0:
101,248,120722,2,0,L|110:339,1,76.5000014591217,10|0,0:2|0:0,0:0:0:0:
4,119,121047,1,2,1:2:0:0:
88,166,121209,1,0,1:2:0:0:
168,21,121371,1,10,0:2:0:0:
84,68,121533,1,0,0:2:0:0:
307,128,121695,6,0,B|240:131|240:131|220:115|220:115|145:118,1,153.000002918243,2|8,1:2|0:2,0:0:0:0:
272,37,122182,1,2,0:2:0:0:
339,218,122344,2,0,L|246:225,2,76.5000014591217,2|0|10,1:2|1:2|0:2,0:0:0:0:
410,131,122830,1,2,0:0:0:0:
307,310,122993,6,0,L|214:317,1,76.5000014591217,0|0,1:0|1:0,0:0:0:0:
35,164,123317,1,10,0:2:0:0:
135,376,123479,1,0,1:2:0:0:
208,112,123641,1,14,0:2:0:0:
66,317,123803,1,0,1:0:0:0:
17,33,123965,1,14,0:2:0:0:
170,257,124128,1,0,0:0:0:0:
255,24,124290,6,0,B|295:68|295:68|399:51,1,153.000002918243,6|8,1:2|0:2,0:0:0:0:
511,26,124776,1,0,0:2:0:0:
317,195,124938,1,0,1:2:0:0:
317,195,125101,1,0,1:2:0:0:
401,0,125263,1,8,0:2:0:0:
498,224,125425,6,0,B|439:216|439:216|413:233|413:233|335:220,1,153.000002918243,2|0,0:2|1:0,0:0:0:0:
266,128,125911,1,10,0:2:0:0:
337,347,126074,1,2,1:2:0:0:
184,181,126236,2,0,L|173:267,1,76.5000014591217,2|0,1:2|1:2,0:0:0:0:
58,343,126560,2,0,L|47:257,1,76.5000014591217,10|0,0:2|1:2,0:0:0:0:
13,17,126884,5,14,0:2:0:0:
101,192,127047,1,2,1:2:0:0:
238,12,127209,5,14,0:2:0:0:
37,100,127371,1,2,1:2:0:0:
302,216,127533,5,14,0:2:0:0:
140,85,127695,1,2,1:2:0:0:
412,40,127857,5,14,0:2:0:0:
224,144,128020,1,2,1:2:0:0:
466,269,128182,6,0,L|464:218,1,45,12|8,0:2|0:0,0:0:0:0:
427,185,128344,2,0,L|429:236,1,45,10|8,0:2|0:2,0:0:0:0:
384,299,128506,2,0,L|382:248,1,45,8|8,1:2|0:2,0:0:0:0:
322,137,128668,2,0,L|324:188,1,45,10|8,0:2|0:2,0:0:0:0:
284,354,128830,2,0,L|280:256,1,90,2|4,1:2|1:3,0:0:0:0:
179,66,129155,1,2,1:2:0:0:
138,48,129236,1,8,1:3:0:0:
93,52,129317,1,8,1:3:0:0:
56,76,129398,1,4,1:3:0:0:
36,116,129479,5,6,1:2:0:0:
221,211,129641,1,2,1:2:0:0:
6,370,130128,5,6,1:2:0:0:
100,191,130290,1,2,1:2:0:0:
284,354,130614,6,0,B|223:342|223:342|193:359|193:359|123:344,1,153.000002918243,6|0,1:2|1:2,0:0:0:0:
267,169,131101,1,10,0:2:0:0:
375,370,131263,1,2,1:2:0:0:
489,132,131425,2,0,P|448:119|403:139,1,76.5000014591217,10|2,0:2|1:2,0:0:0:0:
229,243,131749,2,0,P|270:256|315:236,1,76.5000014591217,10|0,0:2|1:2,0:0:0:0:
300,34,132074,5,6,1:2:0:0:
407,268,132236,1,2,1:2:0:0:
200,105,132722,5,6,1:2:0:0:
146,322,132884,1,2,1:2:0:0:
48,30,133209,6,0,B|86:28|115:63|115:63|140:27|177:21,1,153.000002918243,6|2,1:2|1:2,0:0:0:0:
217,24,133614,1,0,1:0:0:0:
217,24,133695,1,10,0:2:0:0:
251,242,133857,1,0,1:2:0:0:
389,41,134020,2,0,L|479:37,1,76.5000014591217,10|2,1:2|1:2,0:0:0:0:
317,119,134263,2,0,L|227:115,1,76.5000014591217,8|0,0:2|2:0,0:0:0:0:
406,179,134506,2,0,L|455:176,1,38.2500007295609,8|0,0:2|0:0,0:0:0:0:
365,261,134668,5,6,1:2:0:0:
304,27,134830,1,2,1:2:0:0:
132,304,135317,5,6,1:2:0:0:
406,179,135479,1,2,1:2:0:0:
80,157,135803,6,0,B|167:140|149:203|230:183,1,153.000002918243,4|0,1:2|1:2,0:0:0:0:
254,159,136209,1,2,1:2:0:0:
254,159,136290,1,10,0:2:0:0:
34,265,136452,1,0,1:2:0:0:
175,354,136614,2,0,L|182:284,2,51.0000009727478,10|0|0,1:2|1:0|1:0,0:0:0:0:
273,188,136938,2,0,L|280:258,2,51.0000009727478,10|0|0,1:2|1:0|1:0,0:0:0:0:
414,356,137263,6,0,B|368:318|368:318|382:212,1,161.999995056153,2|0,1:2|0:0,0:0:0:0:
461,139,138398,1,2,1:2:0:0:
461,139,138560,2,0,P|399:172|322:130,1,161.999995056153,2|2,1:2|0:2,0:0:0:0:
249,12,139857,5,10,0:2:0:0:
312,247,140020,1,0,1:2:0:0:
312,247,140182,1,0,1:2:0:0:
168,73,140344,5,8,0:2:0:0:
103,319,140506,1,0,1:2:0:0:
223,188,140668,1,0,1:2:0:0:
223,188,140749,1,0,1:0:0:0:
223,188,140830,1,0,1:2:0:0:
400,349,140993,5,6,1:2:0:0:
387,370,141317,1,6,1:2:0:0:
442,107,141479,1,0,1:2:0:0:
278,321,141641,1,0,1:2:0:0:
240,48,141803,5,2,1:2:0:0:
391,260,141965,1,0,1:2:0:0:
391,260,142047,1,0,1:0:0:0:
391,260,142128,2,0,L|401:202,1,45,10|8,0:2|0:0,0:0:0:0:
262,35,142290,2,0,L|272:93,1,45,8|8,0:0|0:0,0:0:0:0:
189,283,142452,5,14,0:2:0:0:
104,60,142614,1,0,1:0:0:0:
32,356,142776,5,10,0:2:0:0:
160,129,142938,1,0,1:0:0:0:
296,348,143101,5,10,0:2:0:0:
39,258,143263,1,0,1:2:0:0:
297,163,143425,1,8,0:2:0:0:
136,362,143587,6,0,B|147:275|147:275|124:241|124:241|138:132,1,215.999993408203,6|2,1:2|1:2,0:0:0:0:
310,55,144074,2,0,L|296:168,1,107.999996704102,10|2,0:2|1:2,0:0:0:0:
84,78,144398,2,0,P|137:60|194:88,1,107.999996704102,10|0,0:2|1:2,0:0:0:0:
345,248,144722,2,0,P|292:266|235:238,1,107.999996704102,8|0,0:2|1:2,0:0:0:0:
454,94,145047,6,0,L|461:209,1,107.999996704102,14|0,0:2|1:0,0:0:0:0:
338,355,145371,2,0,L|345:240,1,107.999996704102,10|0,0:2|1:0,0:0:0:0:
473,78,145695,2,0,L|480:193,1,107.999996704102,10|0,0:2|1:2,0:0:0:0:
361,336,146020,1,8,0:2:0:0:
276,77,146182,6,0,P|329:88|250:132,1,215.999993408203,6|2,1:2|1:2,0:0:0:0:
69,25,146668,2,0,L|177:36,1,107.999996704102,10|2,0:2|1:2,0:0:0:0:
12,226,146993,2,0,P|-8:174|19:113,1,107.999996704102,10|0,0:2|1:2,0:0:0:0:
167,260,147317,2,0,P|187:312|160:373,1,107.999996704102,8|0,0:2|0:0,0:0:0:0:
94,170,147641,5,14,0:2:0:0:
332,232,147803,1,0,1:0:0:0:
95,312,147965,5,10,0:2:0:0:
196,95,148128,1,0,1:0:0:0:
336,365,148290,5,10,0:2:0:0:
266,157,148452,1,0,1:0:0:0:
171,359,148614,1,8,0:2:0:0:
376,144,148776,6,0,B|447:193|447:193|403:329,1,215.999993408203,6|2,1:2|1:2,0:0:0:0:
253,361,149263,2,0,L|290:247,1,107.999996704102,10|2,0:2|1:2,0:0:0:0:
321,71,149587,2,0,P|385:50|436:79,1,107.999996704102,10|0,0:2|1:2,0:0:0:0:
266,157,149911,2,0,P|202:178|151:149,1,107.999996704102,8|0,0:2|1:2,0:0:0:0:
36,24,150236,6,0,L|24:151,1,107.999996704102,6|0,1:2|1:0,0:0:0:0:
176,271,150560,2,0,L|164:144,1,107.999996704102,10|0,0:2|0:0,0:0:0:0:
48,51,150884,2,0,L|36:178,1,107.999996704102,2|0,1:2|1:2,0:0:0:0:
195,296,151209,1,8,0:0:0:0:
63,134,151371,1,2,1:2:0:0:
0,362,151533,5,0,1:0:0:0:
253,227,151695,1,10,0:2:0:0:
297,214,151776,1,8,0:2:0:0:
344,217,151857,1,10,1:2:0:0:
387,235,151938,1,8,0:2:0:0:
421,267,152019,1,10,0:2:0:0:
442,309,152100,1,8,0:2:0:0:
448,355,152181,5,10,1:2:0:0:
398,329,152263,1,8,0:2:0:0:
370,281,152344,1,10,0:2:0:0:
373,226,152425,1,8,0:2:0:0:
405,180,152506,1,10,1:2:0:0:
454,154,152587,1,8,0:2:0:0:
482,106,152668,1,10,1:2:0:0:
479,51,152749,1,8,0:0:0:0:
447,5,152830,5,14,1:2:0:0:
192,146,152993,1,0,0:0:0:0:
402,84,153155,5,10,0:2:0:0:
172,2,153317,1,0,1:0:0:0:
276,254,153479,5,10,0:2:0:0:
324,25,153641,1,0,1:0:0:0:
192,230,153803,1,10,0:2:0:0:
79,54,153965,6,0,P|172:44|175:162,1,215.999993408203,6|0,1:2|1:2,0:0:0:0:
39,250,154452,2,0,L|39:119,1,107.999996704102,10|2,0:2|1:2,0:0:0:0:
167,326,154776,2,0,P|112:349|58:321,1,107.999996704102,10|0,0:2|1:2,0:0:0:0:
192,230,155101,2,0,P|247:207|301:235,1,107.999996704102,8|0,0:2|1:2,0:0:0:0:
418,360,155425,6,0,P|396:319|410:259,1,107.999996704102,14|0,1:2|1:0,0:0:0:0:
504,117,155749,2,0,P|479:156|420:174,1,107.999996704102,10|0,0:2|1:0,0:0:0:0:
318,43,156074,1,10,0:2:0:0:
383,241,156236,1,0,1:2:0:0:
465,16,156398,1,10,0:2:0:0:
265,152,156560,6,0,B|192:203|123:161|123:161|140:132|188:155,1,215.999993408203,6|2,1:2|1:2,0:0:0:0:
223,276,157047,1,10,0:2:0:0:
148,60,157209,1,2,1:2:0:0:
8,238,157371,2,0,L|114:216,1,107.999996704102,10|0,0:2|1:2,0:0:0:0:
242,306,157695,2,0,L|136:328,1,107.999996704102,8|2,0:2|1:2,0:0:0:0:
296,180,158020,5,14,0:0:0:0:
375,375,158182,1,0,0:0:0:0:
481,118,158344,5,10,0:0:0:0:
447,308,158506,1,2,1:2:0:0:
314,55,158668,5,10,0:2:0:0:
469,212,158830,1,2,1:2:0:0:
188,196,158993,5,8,0:2:0:0:
401,86,159155,1,2,1:2:0:0:
139,19,159317,6,0,P|121:78|144:132,1,107.999996704102,10|2,0:2|1:2,0:0:0:0:
268,256,159641,2,0,P|285:196|263:143,1,107.999996704102,10|0,0:2|1:2,0:0:0:0:
35,222,159965,2,0,L|160:204,1,107.999996704102,10|0,0:2|1:2,0:0:0:0:
268,348,160290,2,0,L|143:330,1,107.999996704102,10|0,0:2|0:2,0:0:0:0:
410,242,160614,6,0,P|400:327|348:262,1,198.000006042481,6|10,1:2|0:2,0:0:0:0:
487,153,161101,1,0,1:2:0:0:
256,53,161263,1,2,1:2:0:0:
336,197,161425,1,0,1:2:0:0:
425,23,161587,1,10,0:2:0:0:
425,23,161668,1,8,0:2:0:0:
425,23,161749,1,10,0:2:0:0:
167,181,162722,6,0,L|216:177,2,33.0000010070801,2|0|0,1:2|1:0|1:0,0:0:0:0:
137,158,162884,2,0,L|25:174,1,99.0000030212403,10|0,0:0|0:0,0:0:0:0:
192,18,163209,5,4,0:0:0:0:
447,327,168236,5,8,0:0:0:0:
447,327,168317,1,8,0:0:0:0:
447,327,168398,2,0,L|363:333,2,76.5000014591217,6|2|10,1:2|1:2|0:2,0:0:0:0:
412,237,168884,1,2,0:0:0:0:
412,237,168965,1,0,1:0:0:0:
412,237,169046,2,0,L|328:243,2,76.5000014591217,2|2|8,1:2|1:2|0:0,0:0:0:0:
235,142,169533,5,2,1:2:0:0:
235,142,169614,1,0,1:0:0:0:
235,142,169695,2,0,L|319:148,2,76.5000014591217,0|2|10,1:0|1:2|0:2,0:0:0:0:
270,52,170181,1,2,1:2:0:0:
270,52,170263,1,0,1:0:0:0:
270,52,170343,2,0,L|354:58,2,76.5000014591217,0|2|10,1:0|1:2|0:2,0:0:0:0:
164,192,170830,1,0,0:0:0:0:
50,48,170993,5,2,1:2:0:0:
129,269,171155,1,10,0:2:0:0:
151,26,171317,1,10,0:2:0:0:
6,240,171479,1,10,0:2:0:0:
262,133,171641,1,10,0:2:0:0:
283,163,171722,1,10,0:2:0:0:
278,200,171803,1,10,0:2:0:0:
250,225,171884,1,10,0:2:0:0:
213,224,171965,1,10,0:2:0:0:
186,198,172046,1,10,0:2:0:0:
183,161,172127,5,4,1:2:0:0:
471,20,172938,5,8,0:0:0:0:
473,58,173019,1,8,0:0:0:0:
476,96,173100,1,8,0:0:0:0:
478,134,173181,1,8,0:0:0:0:
456,161,173263,5,8,0:0:0:0:
458,199,173344,1,8,0:0:0:0:
461,238,173425,1,8,0:0:0:0:
464,276,173506,1,8,0:0:0:0:
484,310,173587,6,0,L|392:319,1,90,10|2,1:2|1:2,0:0:0:0:
279,211,173911,2,0,L|371:220,1,90,2|2,0:2|1:2,0:0:0:0:
238,345,174236,1,10,0:2:0:0:
186,183,174398,1,2,1:2:0:0:
186,183,174479,1,0,0:0:0:0:
186,183,174560,1,2,0:2:0:0:
93,344,174722,1,2,1:2:0:0:
13,166,174884,6,0,P|41:211|81:225,1,90,10|8,0:2|0:0,0:0:0:0:
207,101,175209,2,0,P|154:102|121:130,1,90,2|2,1:2|1:2,0:0:0:0:
200,271,175533,2,0,L|192:209,2,45,10|0|2,0:2|1:0|1:2,0:0:0:0:
300,321,175857,2,0,L|290:212,1,90,2|2,1:2|0:2,0:0:0:0:
362,165,176101,1,2,0:2:0:0:
362,165,176182,6,0,L|355:95,2,45,2|0|2,1:2|1:0|1:2,0:0:0:0:
435,221,176506,1,2,0:2:0:0:
264,158,176668,1,2,1:2:0:0:
264,158,176749,1,2,1:2:0:0:
264,158,176830,2,0,L|257:88,2,45,10|0|2,0:2|0:0|1:2,0:0:0:0:
170,241,177155,2,0,L|180:350,1,90,2|2,0:2|1:2,0:0:0:0:
82,153,177479,5,2,1:2:0:0:
253,243,177641,1,10,0:2:0:0:
28,258,177803,1,2,1:2:0:0:
178,144,177965,1,2,1:2:0:0:
178,144,178046,1,2,0:2:0:0:
178,144,178127,2,0,L|172:64,2,60,10|0|2,0:2|0:0|1:2,0:0:0:0:
42,37,178452,2,0,L|52:146,1,90,10|2,0:2|0:2,0:0:0:0:
234,32,178776,6,0,P|181:4|131:18,1,90,2|0,1:2|1:2,0:0:0:0:
305,128,179101,1,2,0:2:0:0:
320,23,179263,1,0,1:2:0:0:
507,181,179425,2,0,L|493:81,1,90,10|0,0:2|1:2,0:0:0:0:
302,147,179749,1,2,0:2:0:0:
317,42,179911,1,2,1:2:0:0:
374,199,180074,6,0,P|331:233|281:231,1,90,2|10,0:2|0:2,0:0:0:0:
169,143,180398,2,0,P|209:185|208:231,1,90,2|0,0:2|1:2,0:0:0:0:
166,302,180641,1,0,1:0:0:0:
166,302,180722,2,0,L|70:307,1,90,10|2,0:2|1:2,0:0:0:0:
8,201,181047,2,0,L|104:196,1,90,2|2,1:2|0:2,0:0:0:0:
237,335,181371,6,0,B|281:319|281:319|330:337,1,90,2|0,1:2|1:2,0:0:0:0:
403,286,181695,1,2,0:2:0:0:
423,377,181857,1,2,1:2:0:0:
512,234,182020,2,0,L|395:241,1,90,10|2,0:2|1:2,0:0:0:0:
375,138,182344,2,0,L|465:133,1,90,2|0,0:2|1:2,0:0:0:0:
346,42,182668,6,0,P|288:55|264:87,1,90,2|8,0:2|0:0,0:0:0:0:
223,238,182993,2,0,P|240:181|225:144,1,90,2|0,0:2|1:2,0:0:0:0:
164,61,183236,1,0,1:2:0:0:
164,61,183317,2,0,L|54:55,1,90,10|0,0:2|1:2,0:0:0:0:
0,173,183641,2,0,L|110:167,1,90,10|0,0:2|0:0,0:0:0:0:
271,308,183965,6,0,P|181:316|143:224,1,182.250000695229,2|0,1:2|2:0,0:0:0:0:
140,244,184290,2,0,L|191:242,1,47.2499985580445,10|0,0:2|0:0,0:0:0:0:
296,207,184614,6,0,P|386:215|424:123,1,182.250000695229,10|0,0:2|2:0,0:0:0:0:
426,143,184938,2,0,L|375:140,1,47.2499985580445,10|0,0:2|0:0,0:0:0:0:
311,51,185263,6,0,B|232:55|232:55|214:72|214:72|111:77,1,182.250000695229,2|0,1:2|2:0,0:0:0:0:
135,75,185587,2,0,P|118:56|92:44,1,47.2499985580445,2|0,1:2|0:0,0:0:0:0:
45,145,185911,6,0,B|49:224|49:224|66:242|66:242|71:345,1,182.250000695229,10|0,0:2|2:0,0:0:0:0:
69,320,186236,2,0,P|49:337|37:363,1,47.2499985580445,10|0,0:2|0:0,0:0:0:0:
160,384,186560,6,0,P|199:320|141:236,1,182.250000695229,2|0,1:2|2:0,0:0:0:0:
146,237,186884,2,0,L|203:220,1,47.2499985580445,10|0,0:2|0:0,0:0:0:0:
291,286,187209,6,0,P|330:222|272:138,1,182.250000695229,10|0,0:2|2:0,0:0:0:0:
277,140,187533,2,0,L|333:122,1,47.2499985580445,10|0,0:2|0:0,0:0:0:0:
365,22,187857,6,0,L|181:77,1,182.250000695229,2|0,0:2|2:0,0:0:0:0:
190,74,188182,2,0,P|170:57|147:51,1,47.2499985580445,2|0,0:2|0:0,0:0:0:0:
65,134,188506,6,0,L|135:126,1,60.7500002317429,2|0,1:2|0:0,0:0:0:0:
59,156,188668,6,0,L|129:148,1,60.7500002317429,2|0,1:2|0:0,0:0:0:0:
53,178,188830,6,0,L|123:170,1,60.7500002317429,2|0,1:2|0:0,0:0:0:0:
47,200,188993,6,0,L|117:192,1,60.7500002317429,2|0,1:2|0:0,0:0:0:0:
209,294,189155,6,0,L|98:306,1,90,10|2,1:2|1:2,0:0:0:0:
226,195,189479,2,0,L|337:207,1,90,2|2,0:2|1:2,0:0:0:0:
203,312,189803,2,0,L|92:324,1,90,10|2,0:2|1:2,0:0:0:0:
239,212,190128,2,0,L|350:224,1,90,2|2,0:2|1:2,0:0:0:0:
461,30,190452,6,0,P|401:44|376:85,1,90,2|10,0:2|0:2,0:0:0:0:
444,201,190776,2,0,P|461:142|438:99,1,90,2|2,1:2|1:2,0:0:0:0:
303,107,191101,2,0,P|345:151|393:153,1,90,10|2,0:2|1:2,0:0:0:0:
252,24,191425,2,0,L|190:31,2,45,2|0|2,1:2|0:0|0:2,0:0:0:0:
197,125,191749,5,10,0:2:0:0:
96,40,191911,1,2,1:2:0:0:
185,214,192074,5,10,0:2:0:0:
96,40,192236,1,2,1:2:0:0:
2,264,192398,5,10,0:2:0:0:
110,123,192560,1,2,1:2:0:0:
187,335,192722,5,10,0:2:0:0:
111,243,192884,1,2,1:2:0:0:
111,243,192965,1,0,1:0:0:0:
111,243,193047,6,0,L|175:236,3,45,10|8|8|8,0:2|0:0|0:0|0:0,0:0:0:0:
264,352,193371,2,0,L|200:359,3,45,10|8|8|8,0:2|0:0|0:0|0:0,0:0:0:0:
435,334,193695,5,10,0:2:0:0:
461,298,193776,1,8,0:0:0:0:
470,254,193857,1,8,0:0:0:0:
458,211,193938,1,8,0:0:0:0:
429,178,194019,5,10,0:2:0:0:
402,142,194101,1,8,0:0:0:0:
393,98,194182,1,8,0:0:0:0:
405,55,194263,1,8,0:0:0:0:
434,22,194344,6,0,P|395:80|280:44,1,198.000006042481,10|10,1:2|0:2,0:0:0:0:
497,100,194830,2,0,P|418:167|310:173,1,198.000006042481,2|2,1:2|1:2,0:0:0:0:
73,168,195317,6,0,P|112:110|227:146,1,198.000006042481,10|2,0:2|1:2,0:0:0:0:
10,90,195803,2,0,P|89:23|197:17,1,198.000006042481,2|2,1:2|1:2,0:0:0:0:
152,236,196290,1,2,1:2:0:0:
152,236,196371,1,2,0:2:0:0:
152,236,196452,2,0,L|158:162,1,49.5000015106202,2|0,1:2|0:0,0:0:0:0:
237,276,196614,2,0,L|246:159,1,99.0000030212403,10|0,0:2|1:2,0:0:0:0:
348,32,196938,5,2,2:2:0:0:
395,21,197019,1,2,0:2:0:0:
442,35,197100,1,2,1:2:0:0:
476,71,197181,1,2,0:2:0:0:
487,118,197263,2,0,L|431:111,3,49.5000015106202,10|0|2|0,0:2|0:0|1:2|1:0,0:0:0:0:
278,94,197587,5,0,1:2:0:0:
228,100,197668,1,0,0:0:0:0:
179,106,197749,1,2,1:2:0:0:
130,112,197830,1,0,0:0:0:0:
81,120,197911,2,0,L|70:64,3,49.5000015106202,10|0|2|0,0:2|0:0|1:2|0:0,0:0:0:0:
23,216,198236,5,2,1:2:0:0:
71,222,198317,1,0,0:0:0:0:
110,252,198398,1,2,1:2:0:0:
128,297,198479,1,0,0:0:0:0:
120,346,198560,2,0,L|61:341,3,49.5000015106202,10|0|2|2,0:2|0:0|1:2|1:2,0:0:0:0:
222,263,198885,5,2,1:2:0:0:
266,241,198966,1,0,0:0:0:0:
315,244,199047,1,2,1:2:0:0:
356,270,199128,1,0,0:0:0:0:
393,304,199210,5,8,0:0:0:0:
457,305,199291,1,8,0:0:0:0:
501,258,199372,1,8,0:0:0:0:
508,195,199453,1,8,0:0:0:0:
483,137,199533,6,0,L|374:128,1,99.0000030212403,6|0,1:2|0:0,0:0:0:0:
296,19,199857,2,0,L|405:9,1,99.0000030212403,8|2,0:2|1:2,0:0:0:0:
438,34,200101,1,0,1:2:0:0:
438,34,200182,1,0,1:2:0:0:
336,210,200344,1,0,1:0:0:0:
219,80,200506,2,0,P|176:41|110:37,1,99.0000030212403,10|0,0:2|0:0,0:0:0:0:
59,178,200749,1,0,1:2:0:0:
59,178,200830,6,0,P|114:160|150:105,1,99.0000030212403,0|2,1:2|1:2,0:0:0:0:
38,57,201155,1,8,0:0:0:0:
237,190,201317,1,0,0:0:0:0:
59,34,201479,1,2,1:2:0:0:
10,281,201641,2,0,B|133:259|81:345|207:317,1,198.000006042481,0|0,1:2|1:2,0:0:0:0:
392,149,202128,5,10,0:2:0:0:
481,325,202290,1,10,0:2:0:0:
481,325,202371,1,10,0:2:0:0:
481,325,202452,2,0,L|372:318,1,99.0000030212403,2|2,1:2|1:2,0:0:0:0:
205,205,202776,5,10,0:2:0:0:
201,155,202857,1,8,0:2:0:0:
197,106,202938,1,8,0:2:0:0:
193,56,203019,1,8,0:2:0:0:
188,7,203101,2,0,L|249:15,3,49.5000015106202,10|8|8|8,0:2|0:2|0:2|0:2,0:0:0:0:
46,98,203425,5,10,0:2:0:0:
47,147,203506,1,8,0:2:0:0:
49,196,203587,1,8,0:2:0:0:
51,246,203668,1,8,0:2:0:0:
54,295,203749,5,10,0:2:0:0:
93,324,203830,1,8,0:2:0:0:
141,334,203911,1,8,0:2:0:0:
188,321,203992,1,8,0:2:0:0:
225,288,204074,5,10,0:2:0:0:
264,258,204155,1,8,0:2:0:0:
312,248,204236,1,8,0:2:0:0:
359,261,204317,1,8,0:2:0:0:
396,294,204398,5,10,0:2:0:0:
400,232,204479,1,10,0:2:0:0:
404,170,204560,1,10,0:2:0:0:
408,108,204641,1,10,0:2:0:0:
412,45,204722,5,14,0:2:0:0:
256,192,204803,12,0,207317,0:0:0:0:
454,27,212506,5,8,0:0:0:0:
491,256,212668,1,0,1:2:0:0:
438,46,212830,1,0,1:2:0:0:
255,256,212993,5,8,0:0:0:0:
494,153,213155,1,0,1:2:0:0:
274,60,213317,1,0,1:2:0:0:
363,164,213479,1,8,0:0:0:0:
363,164,213560,1,8,0:0:0:0:
363,164,213641,1,8,0:0:0:0:
111,27,214614,5,0,1:0:0:0:
111,27,214695,1,0,1:0:0:0:
111,27,214776,2,0,L|120:93,1,45,8|0,0:0|0:0,0:0:0:0:
0,178,214938,2,0,L|9:112,1,45,0|0,1:0|0:0,0:0:0:0:
230,195,215101,5,14,1:2:0:0:
0,282,215263,1,0,0:0:0:0:
270,338,215425,5,10,0:2:0:0:
97,168,215587,1,0,1:0:0:0:
329,101,215749,5,10,0:2:0:0:
149,316,215911,1,0,1:0:0:0:
245,68,216074,1,10,0:2:0:0:
379,300,216236,6,0,P|443:327|489:198,1,215.999993408203,6|0,1:2|1:2,0:0:0:0:
307,219,216722,2,0,L|195:231,1,107.999996704102,10|2,0:2|1:2,0:0:0:0:
328,64,217047,2,0,L|440:76,1,107.999996704102,10|0,0:2|1:2,0:0:0:0:
307,248,217371,1,8,0:2:0:0:
210,23,217533,1,0,1:2:0:0:
29,215,217695,6,0,P|96:235|141:213,1,107.999996704102,14|0,1:2|1:0,0:0:0:0:
143,66,218020,2,0,P|91:114|88:164,1,107.999996704102,10|0,0:2|1:0,0:0:0:0:
223,230,218344,2,0,P|206:161|165:133,1,107.999996704102,10|0,0:2|0:0,0:0:0:0:
93,315,218668,1,10,0:2:0:0:
300,154,218830,6,0,B|426:144|371:239|513:221,1,215.999993408203,6|2,1:2|1:2,0:0:0:0:
313,357,219317,2,0,L|321:250,1,107.999996704102,10|2,0:2|1:2,0:0:0:0:
174,74,219641,2,0,L|167:182,1,107.999996704102,10|0,0:2|1:2,0:0:0:0:
286,347,219965,2,0,L|294:240,1,107.999996704102,8|2,0:2|1:2,0:0:0:0:
0,357,220290,5,14,0:0:0:0:
216,263,220452,1,0,0:0:0:0:
7,106,220614,5,10,0:0:0:0:
111,313,220776,1,2,1:2:0:0:
254,80,220938,6,0,L|137:68,1,107.999996704102,10|2,0:2|1:2,0:0:0:0:
12,232,221263,2,0,L|129:220,1,107.999996704102,8|2,0:2|1:2,0:0:0:0:
303,374,221587,5,10,0:2:0:0:
201,151,221749,1,2,1:2:0:0:
162,381,221911,5,10,0:2:0:0:
322,127,222074,1,0,1:2:0:0:
492,348,222236,2,0,P|436:366|380:340,1,107.999996704102,10|0,0:2|1:2,0:0:0:0:
168,247,222560,2,0,P|224:265|280:239,1,107.999996704102,10|0,0:2|0:2,0:0:0:0:
443,82,222884,6,0,B|454:162|454:162|432:191|432:191|440:279,1,198.000006042481,6|10,1:2|0:2,0:0:0:0:
322,127,223371,1,0,1:2:0:0:
233,362,223533,1,2,0:2:0:0:
143,122,223695,1,2,1:2:0:0:
143,122,223776,1,0,1:0:0:0:
143,122,223857,1,10,0:2:0:0:
349,247,224020,1,0,0:2:0:0:
81,281,224182,6,0,P|132:290|183:262,2,99.0000030212403,2|2|10,1:2|1:2|0:2,0:0:0:0:
16,79,224668,2,0,L|22:200,1,99.0000030212403,2|0,0:2|1:2,0:0:0:0:
261,51,224993,1,10,0:2:0:0:
218,26,225074,1,8,0:0:0:0:
171,36,225155,1,10,1:2:0:0:
141,74,225236,1,8,0:2:0:0:
143,122,225317,1,10,0:2:0:0:
176,157,225398,1,8,0:2:0:0:
224,163,225479,6,0,P|319:134|390:195,1,198.000006042481,6|8,1:2|0:2,0:0:0:0:
274,323,225965,2,0,P|277:249|309:217,1,99.0000030212403,6|0,1:2|0:0,0:0:0:0:
457,287,226290,6,0,P|403:306|354:284,1,108,6|0,1:2|0:0,0:0:0:0:
456,123,227425,5,6,1:2:0:0:
494,371,227587,1,6,1:2:0:0:
