osu file format v14

[General]
AudioFilename: audio.mp3
AudioLeadIn: 0
PreviewTime: 55528
Countdown: 0
SampleSet: Soft
StackLeniency: 0.7
Mode: 0
LetterboxInBreaks: 0
WidescreenStoryboard: 1

[Editor]
DistanceSpacing: 1
BeatDivisor: 4
GridSize: 4
TimelineZoom: 2.1

[Metadata]
Title:Hajimariiro Splash
TitleUnicode:はじまりいろスプラッシュ
Artist:Oomiya Shinobu (CV: Nishi Asuka)
ArtistUnicode:大宮 忍(CV:西 明日香)
Creator:moonlightleaf
Version:Normal
Source:ハロー!!きんいろモザイク
Tags:Music Palette 1 忍*アリス 黄金拼图 Hello!! Kiniro Mosaic
BeatmapID:1094021
BeatmapSetID:515141

[Difficulty]
HPDrainRate:4
CircleSize:3
OverallDifficulty:4
ApproachRate:5
SliderMultiplier:1.2
SliderTickRate:1

[Events]
//Background and Video events
0,0,"bg.jpg",0,0
//Break Periods
2,90304,99751
2,184541,190599
//Storyboard Layer 0 (Background)
//Storyboard Layer 1 (Fail)
//Storyboard Layer 2 (Pass)
//Storyboard Layer 3 (Foreground)
//Storyboard Sound Samples

[TimingPoints]
613,338.983050847458,4,2,1,60,1,0
32646,-100,4,2,1,40,0,0
57392,-100,4,2,1,75,0,1
79257,-100,4,2,1,60,0,0
84680,-100,4,2,1,60,0,0
111290,-100,4,2,1,40,0,0
136036,-100,4,2,1,75,0,1
157901,-100,4,2,1,60,0,0
161968,-100,4,2,1,50,0,0
162646,-100,4,2,1,65,0,0
192307,-100,4,2,1,75,0,1
208748,-100,4,2,1,60,0,0
211460,-100,4,2,1,45,0,0
212816,-100,4,2,1,55,0,0
214511,-100,4,2,1,60,0,0
219935,-100,4,2,1,50,0,0
220274,-100,4,2,1,40,0,0
220613,-100,4,2,1,30,0,0
220867,-100,4,2,1,5,0,0

[Colours]
Combo1 : 255,172,214
Combo2 : 222,234,0
Combo3 : 132,0,66
Combo4 : 255,98,98

[HitObjects]
441,90,613,6,0,L|449:209,1,120,4|0,2:1|0:0,0:0:0:0:
411,256,1121,2,0,P|353:267|295:246,2,120,2|2|2,0:0|0:0|0:0,0:0:0:0:
360,146,2138,1,2,0:0:0:0:
360,146,2307,2,0,L|240:133,2,120,2|0|2,0:0|0:0|2:0,0:0:0:0:
293,45,3324,6,0,P|206:38|144:99,1,180,2|2,0:0|0:0,0:0:0:0:
146,220,4172,2,0,L|166:338,2,120,2|4|0,0:0|2:1|0:0,0:0:0:0:
251,161,5189,2,0,L|371:174,1,120,0|0,0:0|2:3,0:0:0:0:
430,180,5697,1,0,0:0:0:0:
468,293,6036,6,0,P|420:326|361:331,1,120,4|8,2:1|0:0,0:0:0:0:
253,277,6714,2,0,L|124:305,1,120,2|10,0:0|0:0,0:0:0:0:
76,314,7223,1,2,0:0:0:0:
52,196,7562,2,0,L|39:120,2,60,2|10|2,0:0|0:0|0:0,0:0:0:0:
137,110,8240,2,0,L|182:52,1,60,0|10,0:0|0:0,0:0:0:0:
293,75,8748,6,0,P|343:92|424:75,2,120,2|10|2,0:0|0:0|0:0,0:0:0:0:
245,185,9765,2,0,L|252:244,1,60,2|4,0:0|0:1,0:0:0:0:
274,361,10274,2,0,P|327:336|385:346,1,120,0|2,0:0|0:0,0:0:0:0:
487,282,10951,2,0,L|484:341,2,60,0|0|0,0:0|0:0|0:0,0:0:0:0:
488,221,11460,5,4,0:1:0:0:
493,100,11799,2,0,P|437:81|378:86,1,120,2|2,0:0|0:0,0:0:0:0:
322,108,12307,1,2,0:0:0:0:
257,209,12646,2,0,P|271:267|264:326,2,120,4|2|2,2:1|0:0|0:0,0:0:0:0:
181,115,13663,2,0,L|58:135,1,120,2|2,0:0|0:0,0:0:0:0:
2,144,14172,5,4,2:1:0:0:
10,263,14511,2,0,P|68:273|125:257,1,120,2|2,0:0|0:0,0:0:0:0:
179,231,15019,1,2,0:0:0:0:
261,316,15358,2,0,P|290:265|290:206,1,120,4|2,2:1|0:0,0:0:0:0:
271,148,15867,2,0,L|403:125,2,120,2|0|2,0:0|0:0|0:0,0:0:0:0:
155,113,16884,5,4,2:1:0:0:
250,40,17223,2,0,L|369:37,1,120,2|2,0:0|0:0,0:0:0:0:
430,39,17731,1,2,0:0:0:0:
461,154,18070,2,0,B|466:191|466:191|456:231|461:273,2,120,4|2|2,2:1|0:0|0:0,0:0:0:0:
339,156,19087,2,0,P|283:174|223:173,1,120,2|0,0:0|0:0,0:0:0:0:
175,210,19596,6,0,P|194:265|183:324,1,120,4|0,2:1|0:0,0:0:0:0:
74,273,20274,2,0,P|62:214|82:158,1,120,2|2,0:0|0:0,0:0:0:0:
118,110,20782,2,0,L|0:91,2,120,4|0|2,0:1|0:0|0:0,0:0:0:0:
237,127,21799,2,0,B|249:68,1,60,0|0,0:0|0:0,0:0:0:0:
360,23,22307,6,0,L|370:142,1,120,4|2,2:1|0:0,0:0:0:0:
370,263,22985,2,0,P|358:290|354:319,1,60,2|2,0:0|0:0,0:0:0:0:
236,344,23494,2,0,B|197:351|197:351|117:342,2,120,4|2|2,2:1|0:0|0:0,0:0:0:0:
279,231,24511,2,0,L|287:111,1,120,2|0,0:0|2:3,0:0:0:0:
263,55,25019,6,0,P|207:72|147:65,1,120,4|2,2:1|0:0,0:0:0:0:
92,40,25528,2,0,L|85:176,1,120,2|2,0:0|0:0,0:0:0:0:
83,280,26206,2,0,P|139:263|190:292,1,120,4|2,2:1|0:0,0:0:0:0:
234,332,26714,2,0,L|350:302,1,120,2|0,0:0|2:3,0:0:0:0:
460,253,27392,6,0,P|468:189|501:128,1,120,2|4,0:0|2:1,0:0:0:0:
439,31,28070,2,0,P|381:47|323:37,1,120,0|0,0:0|0:0,0:0:0:0:
263,24,28579,2,0,P|244:80|254:139,1,120,2|2,0:0|0:0,0:0:0:0:
280,193,29087,1,4,2:1:0:0:
369,271,29426,2,0,P|398:218|397:159,2,120,2|4|2,0:0|2:1|0:0,0:0:0:0:
271,340,30443,6,0,B|243:320|243:320|158:336,1,120,4|0,2:1|0:0,0:0:0:0:
49,285,31121,2,0,P|56:226|43:168,1,120,2|0,0:0|0:0,0:0:0:0:
12,117,31629,2,0,L|137:82,1,120,4|0,2:1|0:0,0:0:0:0:
186,70,32138,2,0,P|204:126|207:186,2,120,0|0|2,0:0|0:0|0:0,0:0:0:0:
304,46,33155,6,0,L|437:52,1,120,4|2,2:1|0:0,0:0:0:0:
486,154,33833,2,0,L|496:220,1,60,4|2,0:1|0:0,0:0:0:0:
470,329,34341,2,0,P|420:298|388:248,1,120,2|2,0:0|0:0,0:0:0:0:
342,136,35019,2,0,P|293:167|267:221,1,120,2|2,0:0|0:0,0:0:0:0:
129,339,35867,6,0,L|111:220,1,120,4|2,2:1|0:0,0:0:0:0:
102,100,36545,2,0,P|121:76|145:59,1,60,0|2,2:3|0:0,0:0:0:0:
263,84,37053,2,0,P|322:81|370:47,2,120,2|0|0,0:0|0:0|0:0,0:0:0:0:
229,134,37901,2,0,L|237:206,1,60,4|4,2:1|2:1,0:0:0:0:
351,226,38409,6,0,P|265:206|188:248,1,180,4|2,2:1|0:0,0:0:0:0:
235,358,39257,2,0,L|188:248,1,120,2|2,0:0|0:0,0:0:0:0:
171,196,39765,2,0,L|37:215,2,120,2|2|2,0:0|0:0|0:0,0:0:0:0:
266,122,40782,2,0,L|399:136,1,120,2|0,0:0|0:0,0:0:0:0:
439,162,41290,6,0,P|431:221|445:279,2,120,4|0|0,2:1|0:0|0:0,0:0:0:0:
503,60,42307,2,0,L|415:48,1,60,0|4,0:0|0:1,0:0:0:0:
323,49,42816,2,0,L|263:58,2,60,0|0|0,0:0|0:0|0:0,0:0:0:0:
313,168,43494,2,0,L|253:177,2,60,2|2|2,0:0|0:0|0:0,0:0:0:0:
372,178,44002,6,0,L|359:318,1,120,4|2,2:1|0:0,0:0:0:0:
248,339,44680,2,0,L|187:340,1,60,2|2,0:0|0:0,0:0:0:0:
75,298,45189,2,0,P|73:238|44:186,1,120,2|2,0:0|0:0,0:0:0:0:
57,67,45867,2,0,P|116:74|172:54,1,120,2|2,0:0|0:0,0:0:0:0:
234,156,46545,6,0,P|275:114|288:56,1,120,2|0,0:0|0:0,0:0:0:0:
347,42,47053,2,0,L|451:101,1,120,2|2,0:0|0:0,0:0:0:0:
503,132,47562,1,2,0:0:0:0:
464,244,47901,2,0,P|456:301|490:348,2,120,4|2|2,2:1|0:0|0:0,0:0:0:0:
364,177,48918,2,0,P|334:176|304:172,2,60,0|2|2,2:3|0:0|0:0,0:0:0:0:
423,168,49426,6,0,L|429:48,1,120,4|2,0:0|0:0,0:0:0:0:
368,53,49935,2,0,L|239:68,1,120,2|2,0:0|0:0,0:0:0:0:
188,171,50613,2,0,L|186:230,1,60,2|2,0:0|0:0,0:0:0:0:
92,306,51121,2,0,L|90:246,1,60,2|2,0:0|0:0,0:0:0:0:
87,125,51629,2,0,P|122:78|178:60,1,120,0|0,0:0|2:3,0:0:0:0:
238,68,52138,6,0,L|417:49,2,180,4|4|4,0:0|0:0|0:0,0:0:0:0:
245,248,53663,2,0,L|424:229,2,180,4|4|2,0:0|0:0|0:0,0:0:0:0:
184,253,54850,5,4,0:0:0:0:
96,314,55528,6,0,P|89:201|192:145,2,240,0|2|0,0:0|0:0|0:0,0:0:0:0:
277,328,57392,6,0,B|320:302|320:302|388:338|445:311,1,180,2|10,0:0|0:0,0:0:0:0:
480,196,58240,2,0,L|488:129,1,60,2|0,0:0|0:0,0:0:0:0:
373,97,58748,2,0,L|381:216,2,120,2|0|2,0:0|0:0|0:0,0:0:0:0:
262,145,59765,2,0,L|266:204,2,60,2|8|2,0:0|0:0|0:0,0:0:0:0:
223,97,60274,6,0,P|137:113|58:74,1,180,2|2,0:0|0:0,0:0:0:0:
35,192,61121,2,0,B|30:230|30:230|38:311,1,120,2|2,0:0|0:0,0:0:0:0:
87,345,61629,2,0,P|170:317|253:346,1,180,0|0,0:0|0:0,0:0:0:0:
375,323,62477,2,0,L|433:336,2,60,0|10|2,0:0|0:0|0:0,0:0:0:0:
326,287,62985,6,0,L|318:155,1,120,4|10,0:0|0:0,0:0:0:0:
431,124,63663,2,0,L|433:183,1,60,2|2,0:0|0:0,0:0:0:0:
507,88,64172,2,0,P|468:46|409:40,1,120,2|2,0:0|0:0,0:0:0:0:
301,96,64850,2,0,L|175:111,1,120,2|0,0:0|0:0,0:0:0:0:
86,183,65528,1,2,0:0:0:0:
86,183,65697,6,0,P|96:241|81:298,2,120,4|8|2,2:1|0:0|0:0,0:0:0:0:
34,74,66714,1,10,0:0:0:0:
94,72,66884,2,0,L|277:64,1,180,0|8,0:0|0:0,0:0:0:0:
334,63,67562,1,4,2:1:0:0:
405,161,67901,2,0,L|410:280,1,120,0|8,0:0|0:0,0:0:0:0:
382,333,68409,6,0,P|325:319|266:328,1,120,0|10,0:0|0:0,0:0:0:0:
147,349,69087,2,0,L|134:290,1,60,0|2,0:0|0:0,0:0:0:0:
159,171,69596,2,0,P|100:174|50:206,2,120,2|0|2,0:0|0:0|0:0,0:0:0:0:
263,233,70613,2,0,L|272:292,1,60,2|10,0:0|0:0,0:0:0:0:
383,336,71121,6,0,L|401:217,1,120,4|10,2:1|0:0,0:0:0:0:
411,158,71629,2,0,L|389:31,1,120,2|2,0:0|0:0,0:0:0:0:
286,100,72307,2,0,P|226:107|169:89,1,120,2|2,0:0|0:0,0:0:0:0:
55,48,72985,2,0,P|50:107|68:164,1,120,4|2,2:1|0:0,0:0:0:0:
184,302,73833,6,0,P|125:308|78:344,2,120,4|10|2,2:1|0:0|0:0,0:0:0:0:
241,318,74680,2,0,B|300:338|300:338|354:319,1,120,0|2,0:0|0:0,0:0:0:0:
477,186,75528,2,0,L|481:66,2,120,10|2|10,0:0|0:0|0:0,0:0:0:0:
358,205,76545,6,0,L|336:81,2,120,4|8|2,2:1|0:0|0:0,0:0:0:0:
379,323,77562,1,10,0:0:0:0:
272,267,77901,2,0,L|153:287,2,120,10|10|2,0:0|0:0|0:0,0:0:0:0:
331,257,78748,2,0,L|337:127,1,120,0|2,0:0|0:0,0:0:0:0:
341,76,79257,5,4,2:1:0:0:
103,42,79935,2,0,L|127:160,1,120,0|0,2:3|2:3,0:0:0:0:
138,219,80443,1,4,2:1:0:0:
271,339,80951,2,0,L|331:335,1,60,2|2,0:0|0:0,0:0:0:0:
319,155,81629,2,0,L|259:150,1,60,2|2,0:0|0:0,0:0:0:0:
200,144,81968,6,0,P|96:192|95:306,2,240,2|2|2,0:0|0:0|0:0,0:0:0:0:
263,246,83663,2,0,P|321:257|380:246,1,120,8|8,0:0|0:0,0:0:0:0:
466,162,84341,6,0,P|495:214|496:273,2,120,8|2|10,0:0|0:0|0:0,0:0:0:0:
385,73,85358,2,0,L|266:88,1,120,2|8,0:0|0:0,0:0:0:0:
205,95,85867,1,10,0:0:0:0:
154,203,86206,2,0,L|162:266,2,60,2|8|10,0:0|0:0|0:0,0:0:0:0:
39,166,86884,2,0,L|47:229,1,60,2|10,0:0|0:0,0:0:0:0:
97,332,87392,6,0,P|181:355|247:299,1,180,4|0,0:0|0:0,0:0:0:0:
276,247,88070,2,0,P|342:191|425:213,1,180,2|4,0:0|0:0,0:0:0:0:
472,102,88918,2,0,L|483:43,2,60,2|10|2,0:0|0:0|0:0,0:0:0:0:
413,114,89426,2,0,B|372:106|372:106|275:121|275:121|236:111,1,180,8|8,0:0|0:0,0:0:0:0:
180,89,90104,5,6,0:0:0:0:
141,112,100951,6,0,L|148:231,1,120,4|8,0:1|0:0,0:0:0:0:
227,322,101629,2,0,L|289:306,1,60,4|2,0:1|0:0,0:0:0:0:
398,267,102138,2,0,L|412:145,1,120,2|2,0:0|0:0,0:0:0:0:
330,58,102816,2,0,L|210:51,2,120,0|0|8,0:0|0:0|0:0,0:0:0:0:
389,63,103663,5,4,0:0:0:0:
422,178,104002,2,0,L|425:253,1,60,8|2,0:0|0:0,0:0:0:0:
326,308,104511,2,0,P|268:324|209:316,2,120,8|2|8,0:0|0:0|0:0,0:0:0:0:
386,312,105358,2,0,P|415:322|445:321,2,60,8|2|8,0:0|0:0|0:0,0:0:0:0:
336,202,106036,6,0,L|331:82,1,120,8|4,0:0|2:1,0:0:0:0:
217,42,106714,2,0,L|104:82,1,120,8|2,0:0|0:0,0:0:0:0:
77,137,107223,2,0,L|77:197,2,60,0|8|8,0:0|0:0|0:0,0:0:0:0:
72,317,108070,1,2,0:0:0:0:
191,331,108409,2,0,L|328:302,1,120,4|8,2:1|0:0,0:0:0:0:
408,244,109087,6,0,P|428:300|416:358,2,120,4|8|2,0:0|0:0|0:0,0:0:0:0:
329,154,110104,2,0,L|269:145,1,60,8|2,0:0|0:0,0:0:0:0:
192,237,110613,2,0,L|193:296,2,60,2|8|2,0:0|0:0|0:0,0:0:0:0:
104,155,111290,2,0,L|49:179,2,60,4|0|0,0:0|0:0|0:0,0:0:0:0:
156,124,111799,6,0,P|215:119|269:144,1,120,4|8,2:1|0:0,0:0:0:0:
318,254,112477,2,0,L|314:315,1,60,8|2,0:0|0:0,0:0:0:0:
421,367,112985,2,0,L|429:247,1,120,4|0,2:1|0:0,0:0:0:0:
508,156,113663,2,0,P|456:128|397:128,1,120,0|2,0:0|0:0,0:0:0:0:
241,221,114511,6,0,P|183:225|132:194,2,120,4|2|2,2:1|0:0|0:0,0:0:0:0:
299,203,115358,1,2,0:0:0:0:
372,107,115697,2,0,P|289:82|210:120,1,180,0|2,0:0|0:0,0:0:0:0:
116,196,116545,2,0,L|56:201,2,60,8|8|0,0:0|0:0|0:0,0:0:0:0:
176,197,117053,6,0,P|212:277|186:361,1,180,4|8,2:1|0:0,0:0:0:0:
92,285,117901,2,0,L|32:289,2,60,2|2|8,0:0|0:0|0:0,0:0:0:0:
152,283,118409,2,0,L|271:271,1,120,0|2,0:0|0:0,0:0:0:0:
372,335,119087,2,0,P|390:278|378:220,1,120,2|2,0:0|0:0,0:0:0:0:
340,173,119596,1,8,0:0:0:0:
220,187,119935,6,0,L|100:198,2,120,4|8|2,0:0|0:0|0:0,0:0:0:0:
340,173,120951,2,0,L|399:165,1,60,8|4,0:0|0:0,0:0:0:0:
314,80,121460,2,0,L|254:72,2,60,10|0|2,0:0|0:0|0:0,0:0:0:0:
433,66,122138,2,0,L|492:58,2,60,2|8|2,0:0|0:0|0:0,0:0:0:0:
406,120,122646,6,0,L|409:251,1,120,4|8,2:1|0:0,0:0:0:0:
318,320,123324,2,0,L|304:261,1,60,2|2,0:0|0:0,0:0:0:0:
184,247,123833,2,0,P|128:263|72:243,1,120,2|2,0:0|0:0,0:0:0:0:
131,138,124511,2,0,P|187:121|243:141,1,120,2|2,0:0|0:0,0:0:0:0:
331,223,125189,6,0,P|386:242|443:226,1,120,2|2,0:0|0:0,0:0:0:0:
483,181,125697,2,0,L|491:300,1,120,8|2,0:0|0:0,0:0:0:0:
494,361,126206,1,2,0:0:0:0:
377,333,126545,2,0,L|258:348,1,120,10|10,0:0|0:0,0:0:0:0:
138,334,127223,2,0,L|112:194,1,120,10|0,0:0|0:0,0:0:0:0:
109,156,127731,6,0,P|163:159|247:131,1,120,8|4,0:0|2:1,0:0:0:0:
316,62,128409,2,0,L|335:193,1,120,8|0,0:0|0:0,0:0:0:0:
344,240,128918,1,2,0:0:0:0:
451,186,129257,1,8,0:0:0:0:
451,186,129426,2,0,L|468:304,2,120,4|8|8,2:1|0:0|0:0,0:0:0:0:
443,126,130274,2,0,P|394:94|335:95,1,120,8|8,0:0|0:0,0:0:0:0:
275,106,130782,6,0,L|95:118,2,180,4|4|4,0:0|0:0|0:0,0:0:0:0:
227,279,132307,2,0,L|47:291,2,180,4|4|2,0:0|0:0|0:0,0:0:0:0:
287,274,133494,5,4,2:1:0:0:
391,319,134172,6,0,B|432:240|356:156|406:84,2,240,2|2|8,0:0|0:0|0:0,0:0:0:0:
212,340,136036,6,0,B|169:314|169:314|101:350|44:323,1,180,4|8,2:1|0:0,0:0:0:0:
96,214,136884,2,0,L|88:147,1,60,2|2,0:0|0:0,0:0:0:0:
145,47,137392,2,0,P|199:25|258:32,2,120,2|2|2,0:0|0:0|0:0,0:0:0:0:
218,143,138409,2,0,L|214:202,2,60,2|8|0,0:0|0:0|0:0,0:0:0:0:
271,115,138918,6,0,B|311:128|311:128|361:80|440:104,1,180,4|2,0:1|0:0,0:0:0:0:
503,205,139765,1,2,0:0:0:0:
485,323,140104,2,0,P|429:301|395:253,1,120,2|2,0:0|0:0,0:0:0:0:
355,208,140613,2,0,L|295:209,1,60,0|2,0:0|0:0,0:0:0:0:
192,271,141121,2,0,P|162:268|133:260,2,60,2|2|2,0:0|0:0|0:0,0:0:0:0:
217,216,141629,6,0,L|216:96,1,120,4|10,0:1|0:0,0:0:0:0:
329,141,142307,2,0,L|331:200,1,60,2|10,0:0|0:0,0:0:0:0:
405,105,142816,2,0,P|366:63|307:57,1,120,2|2,0:0|0:0,0:0:0:0:
195,103,143494,2,0,L|75:88,1,120,2|2,0:0|0:0,0:0:0:0:
34,202,144172,1,2,0:0:0:0:
34,202,144341,6,0,L|46:321,2,120,4|8|2,0:1|0:0|0:0,0:0:0:0:
75,88,145358,1,10,0:0:0:0:
195,103,145697,2,0,L|314:92,1,120,4|8,2:1|0:0,0:0:0:0:
375,91,146206,1,2,0:0:0:0:
344,207,146545,2,0,L|339:326,1,120,2|8,0:0|0:0,0:0:0:0:
285,354,147053,6,0,P|226:344|168:358,1,120,4|8,2:1|0:0,0:0:0:0:
115,250,147731,2,0,L|102:191,1,60,2|2,0:0|0:0,0:0:0:0:
127,72,148240,2,0,P|68:75|18:107,2,120,2|2|2,0:0|0:0|0:0,0:0:0:0:
220,148,149257,2,0,L|211:207,1,60,2|8,0:0|0:0,0:0:0:0:
304,282,149765,6,0,L|322:163,1,120,4|8,2:1|0:0,0:0:0:0:
297,108,150274,2,0,L|415:127,1,120,2|2,0:0|0:0,0:0:0:0:
464,236,150951,2,0,L|345:216,1,120,4|2,2:1|0:0,0:0:0:0:
225,227,151629,2,0,P|229:286|211:343,1,120,2|2,0:0|0:0,0:0:0:0:
139,177,152477,6,0,P|80:171|32:134,2,120,4|2|2,2:1|0:0|0:0,0:0:0:0:
193,151,153324,2,0,B|195:91,2,60,2|8|4,0:0|0:0|2:1,0:0:0:0:
334,262,154172,2,0,L|453:274,2,120,2|10|10,0:0|0:0|0:0,0:0:0:0:
284,152,155189,6,0,L|306:28,2,120,4|2|2,2:1|0:0|0:0,0:0:0:0:
256,269,156206,1,2,0:0:0:0:
153,332,156545,2,0,P|97:349|38:339,2,120,2|2|2,0:0|0:0|0:0,0:0:0:0:
173,275,157392,2,0,L|167:145,1,120,2|2,0:0|0:0,0:0:0:0:
163,94,157901,5,4,2:1:0:0:
398,48,158579,2,0,L|374:166,1,120,2|2,0:0|0:0,0:0:0:0:
359,223,159087,1,4,2:1:0:0:
213,329,159595,2,0,L|153:325,1,60,2|2,0:0|0:0,0:0:0:0:
45,180,160273,2,0,L|105:175,1,60,2|2,0:0|0:0,0:0:0:0:
256,192,160612,12,0,161968,2:3:0:0:
326,48,162646,6,0,L|281:160,1,120,4|0,0:0|0:0,0:0:0:0:
194,243,163324,6,0,P|145:212|123:157,2,120,2|0|2,0:0|0:0|0:0,0:0:0:0:
364,306,164511,1,2,0:0:0:0:
364,306,164680,2,0,L|374:165,2,120,2|0|2,0:0|0:0|0:0,0:0:0:0:
466,242,165697,2,0,L|470:182,1,60,2|2,0:0|0:0,0:0:0:0:
440,65,166206,6,0,L|318:59,1,120,10|2,0:0|0:0,0:0:0:0:
263,80,166714,2,0,P|271:150|261:204,2,120,2|2|2,0:0|0:0|0:0,0:0:0:0:
141,68,167731,2,0,L|70:64,1,60,0|0,2:3|2:3,0:0:0:0:
39,108,168070,2,0,L|38:249,1,120,2|0,0:0|0:0,0:0:0:0:
138,295,168748,6,0,L|137:175,1,120,2|0,0:0|0:0,0:0:0:0:
175,128,169257,1,2,0:0:0:0:
175,128,169426,2,0,L|294:130,1,120,2|0,0:0|0:0,0:0:0:0:
348,158,169935,1,2,0:0:0:0:
348,158,170104,2,0,L|347:278,2,120,2|0|4,0:0|0:0|0:1,0:0:0:0:
442,232,171121,2,0,L|440:291,1,60,2|2,0:0|0:0,0:0:0:0:
348,371,171629,6,0,P|292:354|259:306,1,120,2|2,0:0|0:0,0:0:0:0:
211,194,172307,1,2,0:0:0:0:
211,194,172477,2,0,L|93:217,2,120,2|2|0,0:0|0:0|0:0,0:0:0:0:
312,129,173494,6,0,L|438:135,2,120,2|0|2,0:0|0:0|0:0,0:0:0:0:
231,39,174511,2,0,L|162:19,2,60,0|2|2,0:0|0:0|0:0,0:0:0:0:
198,154,175189,2,0,L|179:213,1,60,2|2,0:0|0:0,0:0:0:0:
135,252,175528,6,0,L|15:210,1,120,2|0,0:0|0:0,0:0:0:0:
85,110,176206,2,0,P|142:44|230:38,1,180,2|2,0:0|0:0,0:0:0:0:
280,72,176884,2,0,P|364:97|447:67,1,180,2|2,0:0|0:0,0:0:0:0:
492,26,177562,2,0,L|503:210,1,180,2|2,0:0|0:0,0:0:0:0:
476,259,178240,6,0,P|394:228|310:257,1,180,2|2,0:0|0:0,0:0:0:0:
258,289,178918,2,0,P|204:313|145:311,1,120,2|2,0:0|0:0,0:0:0:0:
50,236,179596,2,0,L|35:116,1,120,2|2,0:0|0:0,0:0:0:0:
151,85,180274,2,0,P|209:94|265:73,1,120,2|2,0:0|0:0,0:0:0:0:
383,96,180951,6,0,L|384:215,1,120,2|2,0:0|0:0,0:0:0:0:
385,276,181460,1,0,0:0:0:0:
385,276,181629,2,0,L|265:267,1,120,4|0,2:1|0:0,0:0:0:0:
176,186,182307,2,0,P|147:238|148:297,2,120,0|0|2,0:0|0:0|0:0,0:0:0:0:
256,108,184172,6,0,L|256:78,2,30,2|2|2,0:0|0:0|0:0,0:0:0:0:
423,305,191799,6,0,L|304:284,1,120,8|8,0:0|0:0,0:0:0:0:
245,273,192307,1,4,2:1:0:0:
175,175,192646,2,0,L|167:115,1,60,2|10,0:0|0:0,0:0:0:0:
69,184,193155,2,0,L|61:243,1,60,2|10,0:0|0:0,0:0:0:0:
128,342,193663,2,0,P|72:361|14:351,2,120,2|0|0,0:0|0:0|0:0,0:0:0:0:
230,277,194680,6,0,P|276:277|353:311,1,120,2|2,0:0|0:0,0:0:0:0:
391,341,195189,2,0,L|419:224,2,120,4|10|2,0:1|0:0|0:0,0:0:0:0:
496,282,196206,2,0,L|508:223,1,60,10|10,0:0|0:0,0:0:0:0:
483,106,196714,2,0,P|429:85|366:104,1,120,0|2,0:0|0:0,0:0:0:0:
253,72,197392,6,0,L|253:12,2,60,0|10|2,0:0|0:0|0:0,0:0:0:0:
161,150,198070,1,0,0:0:0:0:
161,150,198240,2,0,P|105:137|61:175,2,120,10|2|8,0:0|0:0|0:0,0:0:0:0:
178,209,199087,2,0,L|178:329,2,120,2|2|10,0:0|0:0|0:0,0:0:0:0:
62,175,200104,6,0,L|61:234,1,60,0|10,0:0|0:0,0:0:0:0:
68,355,200613,2,0,P|119:325|178:329,1,120,4|10,2:1|0:0,0:0:0:0:
235,346,201121,2,0,P|293:353|350:333,1,120,2|2,0:0|0:0,0:0:0:0:
443,258,201799,2,0,L|452:138,1,120,10|2,0:0|0:0,0:0:0:0:
338,97,202477,2,0,L|328:216,2,120,2|2|2,0:0|0:0|0:0,0:0:0:0:
297,51,203324,6,0,P|239:62|181:47,1,120,4|10,0:1|0:0,0:0:0:0:
61,57,204002,1,2,0:0:0:0:
50,176,204341,2,0,L|56:307,2,120,10|0|10,0:0|0:0|0:0,0:0:0:0:
167,148,205358,6,0,L|292:155,1,120,2|10,0:0|0:0,0:0:0:0:
389,214,206036,2,0,P|348:257|292:277,1,120,2|10,0:0|0:0,0:0:0:0:
197,351,206714,2,0,P|174:297|180:238,1,120,2|10,0:0|0:0,0:0:0:0:
133,127,207392,2,0,L|15:101,2,120,2|10|2,0:0|0:0|0:0,0:0:0:0:
192,135,208240,5,0,0:0:0:0:
192,135,208409,2,0,L|314:99,1,120,10|4,0:0|0:1,0:0:0:0:
404,320,209426,2,0,L|407:200,1,120,0|0,2:3|2:3,0:0:0:0:
408,139,209935,1,4,2:1:0:0:
256,235,210443,2,0,L|264:294,1,60,2|2,0:0|0:0,0:0:0:0:
97,228,211121,2,0,L|88:168,1,60,2|2,0:0|0:0,0:0:0:0:
113,112,211460,6,0,P|226:88|320:157,2,240,2|2|8,0:0|0:0|0:0,0:0:0:0:
29,199,213155,1,2,0:0:0:0:
57,315,213494,2,0,B|110:301|135:257|135:257|271:289,1,240,2|4,0:0|2:1,0:0:0:0:
385,326,214511,5,10,0:0:0:0:
455,228,214850,2,0,L|461:98,1,120,10|2,0:0|0:0,0:0:0:0:
464,48,215358,1,10,0:0:0:0:
353,94,215697,2,0,L|348:153,2,60,2|8|2,0:0|0:0|0:0,0:0:0:0:
235,67,216375,2,0,L|239:126,1,60,0|10,0:0|0:0,0:0:0:0:
243,248,216884,6,0,B|161:298|74:194|13:249,1,240,2|2,0:0|0:0,0:0:0:0:
64,357,217901,2,0,L|121:341,1,60,8|10,0:0|0:0,0:0:0:0:
241,338,218409,2,0,L|298:353,2,60,10|8|4,0:0|0:0|2:1,0:0:0:0:
178,235,219087,6,0,L|167:175,1,60,0|2,0:0|0:0,0:0:0:0:
248,86,219596,2,0,P|305:102|363:91,1,120,2|2,0:0|0:0,0:0:0:0:
416,62,220104,2,0,L|421:181,1,120,0|0,0:0|0:0,0:0:0:0:
424,242,220613,1,4,0:1:0:0:
256,192,220782,12,0,229765,0:0:0:0:
