osu file format v14

[General]
AudioFilename: audio.mp3
AudioLeadIn: 0
PreviewTime: 55528
Countdown: 0
SampleSet: Soft
StackLeniency: 0.7
Mode: 0
LetterboxInBreaks: 0
WidescreenStoryboard: 1

[Editor]
Bookmarks: 100951
DistanceSpacing: 1.2
BeatDivisor: 4
GridSize: 4
TimelineZoom: 2.599999

[Metadata]
Title:Hajimariiro Splash
TitleUnicode:はじまりいろスプラッシュ
Artist:Oomiya Shinobu (CV: Nishi Asuka)
ArtistUnicode:大宮 忍(CV:西 明日香)
Creator:moonlightleaf
Version:Hard
Source:ハロー!!きんいろモザイク
Tags:Music Palette 1 忍*アリス 黄金拼图 Hello!! Kiniro Mosaic
BeatmapID:1094020
BeatmapSetID:515141

[Difficulty]
HPDrainRate:5
CircleSize:4
OverallDifficulty:6
ApproachRate:7
SliderMultiplier:1.4
SliderTickRate:1

[Events]
//Background and Video events
0,0,"bg.jpg",0,0
//Break Periods
2,90304,100051
2,184541,190899
//Storyboard Layer 0 (Background)
//Storyboard Layer 1 (Fail)
//Storyboard Layer 2 (Pass)
//Storyboard Layer 3 (Foreground)
//Storyboard Sound Samples

[TimingPoints]
613,338.983050847458,4,2,1,60,1,0
32646,-100,4,2,1,40,0,0
57392,-100,4,2,1,75,0,1
79257,-100,4,2,1,60,0,0
84680,-100,4,2,1,60,0,0
111290,-100,4,2,1,40,0,0
136036,-100,4,2,1,75,0,1
157901,-100,4,2,1,60,0,0
161968,-100,4,2,1,50,0,0
162646,-100,4,2,1,65,0,0
192307,-100,4,2,1,75,0,1
208748,-100,4,2,1,60,0,0
211460,-100,4,2,1,45,0,0
212816,-100,4,2,1,55,0,0
214511,-100,4,2,1,60,0,0
219935,-100,4,2,1,50,0,0
220274,-100,4,2,1,40,0,0
220613,-100,4,2,1,30,0,0
220867,-100,4,2,1,5,0,0

[Colours]
Combo1 : 255,172,214
Combo2 : 222,234,0
Combo3 : 132,0,66
Combo4 : 255,98,98

[HitObjects]
58,324,613,6,0,L|50:255,1,70,4|0,2:1|0:0,0:0:0:0:
71,174,951,1,0,0:0:0:0:
132,229,1121,2,0,P|164:244|199:243,1,70,2|0,0:0|0:0,0:0:0:0:
257,183,1460,2,0,L|264:113,1,70,2|0,0:0|0:0,0:0:0:0:
275,29,1799,1,2,0:0:0:0:
413,131,2138,6,0,P|411:96|400:62,2,70,2|2|2,0:0|0:0|0:0,0:0:0:0:
388,209,2646,2,0,P|381:243|382:278,1,70
319,334,2985,2,0,P|299:305|274:280,1,70,2|2,2:0|2:0,2:0:0:0:
198,243,3324,5,2,0:0:0:0:
130,294,3494,1,0,0:0:0:0:
70,235,3663,2,0,L|56:166,1,70,2|2,0:0|0:0,0:0:0:0:
50,305,4172,6,0,L|36:236,1,70,2|0,0:0|0:0,0:0:0:0:
23,153,4511,6,0,B|72:124|125:149|125:149|177:173|225:151,1,210,4|0,2:1|0:0,0:0:0:0:
316,163,5189,2,0,P|320:198|316:233,2,70,0|0|0,0:0|0:0|2:3,0:0:0:0:
387,118,5697,2,2,P|413:140|446:152,1,70,0|0,0:0|0:0,0:0:0:0:
408,46,6036,6,0,P|373:44|341:58,1,70,4|0,2:1|0:0,0:0:0:0:
271,104,6375,2,0,P|236:105|204:91,1,70,8|0,0:0|0:0,0:0:0:0:
133,46,6714,1,2,0:0:0:0:
54,14,6884,1,0,0:0:0:0:
16,89,7053,1,10,0:0:0:0:
93,121,7223,6,0,P|97:155|92:190,1,70,2|0,0:0|0:0,0:0:0:0:
25,240,7562,1,2,0:0:0:0:
33,323,7731,1,10,0:0:0:0:
103,276,7901,2,0,L|173:265,1,70,2|0,0:0|0:0,0:0:0:0:
253,288,8240,1,0,0:0:0:0:
300,356,8409,2,0,P|324:331|335:298,1,70,10|0,0:0|0:0,0:0:0:0:
352,216,8748,6,0,P|381:196|416:191,1,70,2|0,0:0|0:0,0:0:0:0:
498,173,9087,2,0,P|500:207|487:239,1,70,10|0,0:0|0:0,0:0:0:0:
469,322,9426,2,0,P|437:307|416:279,1,70,2|0,0:0|0:0,0:0:0:0:
352,216,9765,1,2,0:0:0:0:
316,322,9935,1,4,0:1:0:0:
316,322,10274,5,0,0:0:0:0:
268,253,10443,1,0,0:0:0:0:
188,277,10613,1,2,0:0:0:0:
188,277,10951,5,0,0:0:0:0:
137,209,11121,2,0,L|126:165,3,35
125,133,11460,6,0,P|138:100|163:76,1,70,4|0,0:1|0:0,0:0:0:0:
232,126,11799,2,0,P|265:134|299:126,1,70,2|0,0:0|0:0,0:0:0:0:
368,78,12138,1,2,0:0:0:0:
397,154,12307,2,0,P|401:189|400:224,1,70,2|0,0:0|0:0,0:0:0:0:
403,311,12646,6,0,P|369:305|342:285,1,70,4|0,2:1|0:0,0:0:0:0:
309,206,12985,2,0,P|281:226|264:256,1,70,2|0,0:0|0:0,0:0:0:0:
220,327,13324,2,0,P|190:342|155:342,1,70,2|0,0:0|0:0,0:0:0:0:
97,281,13663,2,0,L|86:202,1,70,2|0,0:0|0:0,0:0:0:0:
74,128,14002,1,2,0:0:0:0:
74,128,14087,1,2,0:0:0:0:
74,128,14172,1,4,2:1:0:0:
58,51,14511,6,0,P|93:50|125:63,1,70,2|0,0:0|0:0,0:0:0:0:
163,138,14850,1,2,0:0:0:0:
210,69,15019,2,0,P|242:55|276:56,1,70,2|0,0:0|0:0,0:0:0:0:
346,103,15358,2,0,L|358:171,2,70,4|0|2,2:1|0:0|0:0,0:0:0:0:
371,22,15867,5,2,0:0:0:0:
448,52,16036,2,0,P|435:107|454:191,1,140,2|0,0:0|0:0,0:0:0:0:
447,272,16545,2,0,L|444:306,3,35,2|0|0|0,0:0|0:0|0:0|0:0,0:0:0:0:
415,337,16884,6,0,P|383:326|348:324,1,70,4|0,2:1|0:0,0:0:0:0:
268,348,17223,2,0,P|199:353|144:312,1,140,2|2,0:0|0:0,0:0:0:0:
97,241,17731,2,0,P|71:265|57:297,1,70,2|0,0:0|0:0,0:0:0:0:
7,229,18070,2,0,L|0:159,1,70,4|0,2:1|0:0,0:0:0:0:
76,127,18409,6,0,L|137:160,1,70,2|0,0:0|0:0,0:0:0:0:
213,197,18748,2,0,P|280:182|342:213,1,140,2|2,0:0|0:0,0:0:0:0:
383,288,19257,1,2,0:0:0:0:
312,334,19426,1,0,0:0:0:0:
312,334,19511,1,0,0:0:0:0:
312,334,19596,6,0,P|300:268|342:214,1,140,4|0,2:1|0:0,0:0:0:0:
426,215,20104,1,2,0:0:0:0:
385,140,20274,2,0,P|351:130|317:134,1,70,2|2,0:0|0:0,0:0:0:0:
262,178,20613,1,2,0:0:0:0:
211,102,20782,1,4,0:1:0:0:
153,258,21121,5,0,0:0:0:0:
103,190,21290,1,0,0:0:0:0:
186,177,21460,1,2,0:0:0:0:
130,60,21799,6,0,L|92:60,1,35
60,65,21968,2,0,P|31:109|26:161,1,105
36,201,22307,5,4,2:1:0:0:
107,353,22646,6,0,P|105:318|96:284,1,70,2|0,0:0|0:0,0:0:0:0:
148,217,22985,1,2,0:0:0:0:
199,285,23155,2,0,L|288:264,1,70,2|0,0:0|0:0,0:0:0:0:
341,309,23494,2,0,P|348:274|342:240,1,70,4|0,2:1|0:0,0:0:0:0:
280,183,23833,6,0,P|272:148|278:114,1,70,2|0,0:0|2:3,0:0:0:0:
336,54,24172,2,0,P|369:41|404:42,1,70,2|0,0:0|0:0,0:0:0:0:
469,96,24511,2,0,L|477:187,1,70,2|0,0:0|2:3,0:0:0:0:
485,249,24850,1,0,2:3:0:0:
387,239,25019,6,0,L|317:232,1,70,4|0,2:1|0:0,0:0:0:0:
236,255,25358,1,2,0:0:0:0:
177,194,25528,2,0,L|165:124,1,70,2|0,0:0|0:0,0:0:0:0:
97,174,25867,2,0,L|85:104,1,70,2|0,0:0|0:3,0:0:0:0:
17,155,26206,6,0,L|5:85,1,70,4|0,2:1|0:0,0:0:0:0:
64,26,26545,2,0,P|98:24|131:36,1,70,2|2,0:0|0:0,0:0:0:0:
194,92,26884,1,2,0:0:0:0:
275,74,27053,2,0,L|309:69,3,35,0|0|0|0,2:3|2:3|2:3|2:3,2:3:0:0:
351,72,27392,2,0,L|383:84,3,35,2|0|0|0,0:0|2:3|2:3|2:3,0:0:0:0:
418,107,27731,6,0,P|395:173|412:240,1,140,4|0,2:1|0:0,0:0:0:0:
247,282,28409,2,0,P|262:313|267:348,2,70,0|2|2,0:0|0:0|0:0,0:0:0:0:
165,261,28918,1,2,0:0:0:0:
96,309,29087,2,0,P|80:244|119:188,1,140,4|2,2:1|0:0,0:0:0:0:
270,115,29765,2,0,P|206:138|144:110,1,140,4|2,2:1|0:0,0:0:0:0:
293,32,30443,6,0,P|346:75|350:143,1,140,4|0,2:1|0:0,0:0:0:0:
315,220,30951,1,2,0:0:0:0:
376,276,31121,2,0,P|410:276|444:266,2,70,2|0|0,0:0|0:0|0:0,0:0:0:0:
292,301,31629,6,0,B|255:304|255:304|217:348|162:337,1,140,4|0,2:1|0:0,0:0:0:0:
94,287,32138,1,0,0:0:0:0:
68,207,32307,2,0,L|61:164,2,35
164,224,32646,2,0,L|231:206,1,70,2|2,0:0|0:0,0:0:0:0:
272,132,32985,1,2,0:0:0:0:
315,220,33155,6,0,L|396:215,1,70,4|0,2:1|0:0,0:0:0:0:
468,202,33494,2,0,P|450:171|424:149,1,70,2|2,0:0|0:0,0:0:0:0:
352,105,33833,1,4,0:1:0:0:
272,132,34002,2,0,P|237:136|204:125,1,70,2|0,0:0|0:0,0:0:0:0:
124,97,34341,6,0,P|107:164|126:230,2,140,2|2|2,0:0|0:0|0:0,0:0:0:0:
189,42,35189,1,0,2:3:0:0:
272,42,35358,2,0,L|340:29,1,70,2|0,0:0|0:0,0:0:0:0:
416,65,35697,1,2,0:0:0:0:
390,144,35867,6,0,P|361:206|385:270,1,140,4|2,2:1|0:0,0:0:0:0:
445,210,36375,1,2,0:0:0:0:
346,207,36545,2,0,L|276:209,1,70,0|2,2:3|0:0,0:0:0:0:
191,208,36884,1,2,0:0:0:0:
136,271,37053,6,0,P|107:210|132:147,1,140,2|0,0:0|0:0,0:0:0:0:
214,127,37562,2,0,L|249:123,3,35
290,117,37901,5,4,2:1:0:0:
360,194,38070,2,0,L|371:124,1,70,4|0,2:1|0:0,0:0:0:0:
435,207,38409,6,0,P|399:263|331:269,1,140,4|0,2:1|0:0,0:0:0:0:
255,232,38918,1,2,0:0:0:0:
239,248,39257,6,0,L|221:326,1,70,2|0,0:0|0:0,0:0:0:0:
145,347,39596,1,2,0:0:0:0:
104,273,39765,6,0,L|34:262,1,70,2|0,0:0|0:0,0:0:0:0:
86,196,40104,2,0,L|155:185,1,70,2|0,0:0|0:3,0:0:0:0:
100,121,40443,2,0,L|30:110,1,70,2|0,0:0|0:0,0:0:0:0:
82,44,40782,2,0,L|221:22,1,140,2|0,0:0|0:0,0:0:0:0:
324,37,41290,6,0,P|314:106|344:168,1,140,4|0,2:1|0:0,0:0:0:0:
413,218,41799,1,0,0:0:0:0:
472,159,41968,2,0,P|477:124|470:90,1,70
401,40,42307,1,0,0:0:0:0:
313,99,42477,6,0,B|274:113|218:95|173:104,1,140,4|0,0:1|0:0,0:0:0:0:
133,183,42985,1,0,0:0:0:0:
74,243,43155,2,0,P|54:214|49:179,1,70
86,104,43494,2,0,P|91:69|92:34,2,70,2|2|2,0:0|0:0|0:0,0:0:0:0:
50,180,44002,5,4,2:1:0:0:
133,183,44172,1,0,0:0:0:0:
160,260,44341,2,0,P|157:295|146:328,1,70,2|0,0:0|0:0,0:0:0:0:
226,355,44680,1,2,0:0:0:0:
305,330,44850,2,0,P|340:323|374:328,1,70,2|0,0:0|0:0,0:0:0:0:
456,347,45189,6,0,P|470:279|453:212,1,140,2|2,0:0|0:0,0:0:0:0:
407,141,45697,1,0,2:3:0:0:
337,189,45867,2,0,L|267:183,1,70,2|0,0:0|0:0,0:0:0:0:
217,114,46206,2,0,P|194:141|185:175,1,70,2|0,0:0|0:0,0:0:0:0:
187,259,46545,1,2,0:0:0:0:
112,221,46714,6,0,L|42:215,1,70,4|0,2:1|0:0,0:0:0:0:
15,135,47053,1,2,0:0:0:0:
42,55,47223,1,2,0:0:0:0:
98,116,47392,2,0,L|173:109,1,70,2|2,0:0|0:0,0:0:0:0:
240,151,47731,1,2,0:0:0:0:
312,74,47901,6,0,P|379:61|442:89,2,140,4|2|2,2:1|0:0|0:0,0:0:0:0:
325,158,48748,2,0,P|330:192|328:227,1,70,0|0,2:3|2:3,2:3:0:0:
275,293,49087,1,2,0:0:0:0:
213,235,49257,1,2,0:0:0:0:
143,313,49426,6,0,P|110:254|120:186,1,140,4|2,0:0|0:0,0:0:0:0:
196,147,49935,1,2,0:0:0:0:
125,101,50104,2,0,L|59:77,2,70,0|2|2,0:0|0:0|0:0,0:0:0:0:
200,62,50613,1,2,0:0:0:0:
271,103,50782,6,0,P|282:137|279:171,1,70,2|0,0:0|0:0,0:0:0:0:
246,249,51121,1,2,0:0:0:0:
299,312,51290,2,0,P|365:298|425:332,2,140,2|0|0,0:0|0:0|2:3,0:0:0:0:
277,326,52053,1,0,2:3:0:0:
254,336,52138,6,0,L|114:348,1,140,4|0,0:0|0:0,0:0:0:0:
34,322,52646,2,0,L|14:183,1,140,4|0,0:0|0:0,0:0:0:0:
20,98,53155,2,0,L|159:104,1,140,4|0,0:0|0:0,0:0:0:0:
212,170,53663,6,0,L|351:160,1,140,4|0,0:0|0:0,0:0:0:0:
423,107,54172,2,0,P|440:155|431:206,2,105,4|2|2,0:0|0:0|0:0,0:0:0:0:
366,44,54850,5,4,0:0:0:0:
200,78,55528,6,0,B|155:159|250:253|207:351,2,280,0|2|0,0:0|0:0|0:0,0:0:0:0:
240,76,57392,6,0,P|274:78|309:74,2,70,2|0|0,0:0|0:0|0:0,0:0:0:0:
164,37,57901,1,10,0:0:0:0:
87,71,58070,1,2,0:0:0:0:
103,152,58240,2,0,P|107:187|105:222,2,70,2|0|8,0:0|0:0|0:0,0:0:0:0:
182,123,58748,6,0,B|236:173|293:129|293:129|341:137,1,140,2|0,0:0|0:0,0:0:0:0:
384,170,59257,1,8,0:0:0:0:
394,253,59426,2,0,L|396:322,1,70,2|0,0:0|0:0,0:0:0:0:
475,293,59765,2,0,L|477:223,2,70,2|8|2,0:0|0:0|0:0,0:0:0:0:
382,344,60274,6,0,P|314:329|247:347,1,140,2|10,0:0|0:0,0:0:0:0:
163,356,60782,2,0,L|135:271,1,70,2|0,0:0|0:0,0:0:0:0:
100,215,61121,2,0,P|74:237|60:269,2,70,2|8|2,0:0|0:0|0:0,0:0:0:0:
184,221,61629,6,0,L|284:220,1,70
331,187,61968,2,0,P|338:221|337:255,2,70,8|0|2,0:0|0:0|0:0,0:0:0:0:
267,130,62477,1,0,0:0:0:0:
184,116,62646,1,10,0:0:0:0:
184,221,62816,1,2,0:0:0:0:
118,168,62985,6,0,P|83:172|48:166,2,70,4|0|10,0:0|0:0|0:0,0:0:0:0:
184,116,63494,1,0,0:0:0:0:
251,165,63663,2,0,P|267:196|271:230,2,70,2|2|8,0:0|0:0|0:0,0:0:0:0:
184,116,64172,6,0,P|121:85|52:90,2,140,2|2|2,0:0|0:0|0:0,0:0:0:0:
251,165,65019,1,0,0:0:0:0:
213,281,65189,2,0,P|178:286|144:278,1,70,0|10,0:0|0:0,0:0:0:0:
67,311,65528,1,2,0:0:0:0:
51,228,65697,6,0,P|71:198|100:181,1,70,4|0,2:1|0:0,0:0:0:0:
181,203,66036,1,8,0:0:0:0:
182,118,66206,1,2,0:0:0:0:
251,165,66375,2,0,P|305:170|344:164,1,70,2|0,0:0|0:0,0:0:0:0:
387,219,66714,1,10,0:0:0:0:
402,135,66884,1,0,0:0:0:0:
388,51,67053,6,0,P|421:49|453:64,2,70,0|2|8,0:0|0:0|0:0,0:0:0:0:
296,103,67562,2,0,P|241:95|172:42,1,140,4|0,2:1|0:0,0:0:0:0:
90,45,68070,2,8,L|80:78,3,35,10|8|8|8,0:0|0:0|0:0|0:0,0:0:0:0:
66,118,68409,6,0,L|65:187,1,70
64,271,68748,2,0,L|24:328,2,70,10|2|0,0:0|0:0|0:0,0:0:0:0:
138,230,69257,2,0,L|207:239,1,70,2|8,0:0|0:0,0:0:0:0:
265,299,69596,6,0,P|291:237|261:176,2,140,2|0|2,0:0|0:0|0:0,0:0:0:0:
184,151,70613,1,2,0:0:0:0:
242,91,70782,2,0,P|276:91|307:107,1,70,10|0,0:0|0:0,0:0:0:0:
369,182,71121,6,0,P|352:213|348:248,1,70,4|0,2:1|0:0,0:0:0:0:
420,294,71460,1,10,0:0:0:0:
420,294,71629,2,0,P|475:254|489:187,2,140,2|2|2,0:0|0:0|0:0,0:0:0:0:
253,320,72646,6,0,B|188:333|135:311|135:311|139:330,2,140,2|4|2,0:0|2:1|0:0,0:0:0:0:
326,276,73494,2,0,L|333:197,1,70,10|0,0:0|0:0,0:0:0:0:
302,105,73833,6,0,P|233:104|180:148,2,140,4|10|2,2:1|0:0|0:0,0:0:0:0:
381,133,74680,1,0,0:0:0:0:
443,76,74850,1,10,0:0:0:0:
477,152,75019,6,0,L|491:298,1,140,2|0,0:0|0:0,0:0:0:0:
422,342,75528,2,0,L|373:293,1,70,10|0,0:0|0:0,0:0:0:0:
302,245,75867,2,0,P|291:279|291:313,1,70,2|0,0:0|0:0,0:0:0:0:
216,351,76206,2,0,P|185:334|151:328,1,70,10|0,0:0|0:0,0:0:0:0:
58,277,76545,6,0,P|45:212|12:134,1,140,4|8,2:1|0:0,0:0:0:0:
23,59,77053,1,2,0:0:0:0:
96,100,77223,2,0,L|181:106,1,70,2|0,0:0|0:0,0:0:0:0:
246,129,77562,1,10,0:0:0:0:
254,212,77731,1,10,0:0:0:0:
324,165,77901,6,0,L|398:146,1,70,10|0,0:0|0:0,0:0:0:0:
477,157,78240,1,10,0:0:0:0:
444,81,78409,1,10,0:0:0:0:
398,175,78579,2,0,L|394:272,1,70,2|0,0:0|0:0,0:0:0:0:
385,328,78918,1,10,0:0:0:0:
462,295,79087,1,2,0:0:0:0:
366,249,79257,6,0,L|206:246,1,140,4|0,2:1|0:0,0:0:0:0:
154,92,79935,2,0,P|180:115|194:147,2,70,0|0|0,2:3|2:3|2:3,0:0:0:0:
135,195,80443,6,0,P|230:217|269:128,1,210,4|2,2:1|0:0,0:0:0:0:
243,46,81121,2,0,P|339:70|357:168,1,210,2|2,0:0|0:0,0:0:0:0:
321,245,81799,1,2,0:0:0:0:
256,295,81968,6,0,P|222:304|187:298,3,70,2|0|0|0,0:0|0:0|0:0|0:0,0:0:0:0:
128,240,82646,2,0,P|113:208|92:180,3,70,2|0|0|0,0:0|0:0|0:0|0:0,0:0:0:0:
116,99,83324,6,0,P|151:99|185:90,1,70,2|0,0:0|0:0,0:0:0:0:
256,45,83663,2,0,P|268:77|267:112,1,70,8|0,0:0|0:0,0:0:0:0:
240,191,84002,2,0,P|275:197|308:188,1,70,8|8,0:0|0:0,0:0:0:0:
380,144,84341,2,8,L|409:125,3,35
445,102,84680,6,2,L|477:238,1,140,2|10,0:0|0:0,0:0:0:0:
477,238,85358,2,0,L|471:322,1,70,2|0,0:0|0:0,0:0:0:0:
401,354,85697,1,8,0:0:0:0:
340,293,85867,2,0,P|306:294|271:301,1,70,10|0,0:0|0:0,0:0:0:0:
201,347,86206,5,2,0:0:0:0:
165,271,86375,1,8,0:0:0:0:
85,300,86545,2,0,P|79:265|88:231,1,70,10|0,0:0|0:0,0:0:0:0:
156,181,86884,1,2,0:0:0:0:
92,125,87053,2,0,P|58:123|28:106,1,70,10|0,0:0|0:0,0:0:0:0:
80,40,87392,6,0,P|114:41|144:58,1,70,4|0,0:0|0:0,0:0:0:0:
174,137,87731,2,0,P|204:119|222:90,1,70,8|0,0:0|0:0,0:0:0:0:
240,8,88070,2,0,P|273:18|297:42,1,70,2|0,0:0|0:0,0:0:0:0:
306,126,88409,1,8,0:0:0:0:
394,68,88579,6,0,P|407:100|408:135,1,70,4|0,0:0|0:0,0:0:0:0:
386,216,88918,1,2,0:0:0:0:
363,296,89087,2,0,P|332:278|311:250,1,70,10|2,0:0|0:0,0:0:0:0:
232,221,89426,2,8,L|198:231,2,35
199,143,89765,2,8,L|164:138,2,35
282,155,90104,5,6,0:0:0:0:
290,186,100951,5,4,0:1:0:0:
290,186,101290,6,0,P|301:220|304:255,1,70,8|0,0:0|0:0,0:0:0:0:
291,338,101629,1,4,0:1:0:0:
369,309,101799,2,0,P|404:301|438:298,1,70,2|8,0:0|0:0,0:0:0:0:
483,227,102138,2,0,P|483:192|486:157,1,70,2|0,0:0|0:0,0:0:0:0:
464,75,102477,5,2,0:0:0:0:
394,122,102646,1,8,0:0:0:0:
319,82,102816,2,0,P|284:80|249:84,2,70,0|2|0,0:0|0:0|0:0,0:0:0:0:
394,122,103324,2,0,L|403:208,1,70,8|8,0:0|0:0,0:0:0:0:
364,282,103663,6,0,P|295:268|227:283,1,140,4|8,0:0|0:0,0:0:0:0:
176,350,104172,2,0,P|146:288|169:224,1,140,2|8,0:0|0:0,0:0:0:0:
242,180,104680,1,8,0:0:0:0:
317,215,104850,2,0,P|319:147|269:100,1,140,2|8,0:0|0:0,0:0:0:0:
186,115,105358,1,8,0:0:0:0:
117,163,105528,1,2,0:0:0:0:
44,120,105697,2,8,L|28:88,2,35
42,204,106036,2,8,L|32:237,3,35
35,279,106375,6,0,P|102:292|166:265,1,140,4|8,2:1|0:0,0:0:0:0:
225,205,106884,1,2,0:0:0:0:
254,283,107053,2,0,P|297:246|280:142,1,140,2|8,0:0|0:0,0:0:0:0:
228,118,107562,6,0,P|287:82|353:96,1,140,8|2,0:0|0:0,0:0:0:0:
383,175,108070,2,0,P|429:125|425:57,2,140,2|4|8,0:0|2:1|0:0,0:0:0:0:
299,167,108918,1,2,0:0:0:0:
215,226,109087,6,0,L|78:195,1,140,4|8,0:0|0:0,0:0:0:0:
19,256,109596,1,2,0:0:0:0:
1,173,109765,2,0,P|18:142|46:122,1,70,2|0,0:0|0:0,0:0:0:0:
131,127,110104,1,8,0:0:0:0:
208,160,110274,6,0,B|255:164|255:164|301:149|301:149|345:154,1,140,2|2,0:0|0:0,0:0:0:0:
380,230,110782,1,8,0:0:0:0:
428,163,110951,2,0,P|425:128|407:98,1,70,2|0,0:0|0:0,0:0:0:0:
337,51,111290,2,0,B|303:60|303:60|241:39|200:46,1,140,4|0,0:0|0:0,0:0:0:0:
102,59,111799,6,0,P|88:91|83:125,1,70,4|0,2:1|0:0,0:0:0:0:
98,208,112138,2,0,P|111:240|116:274,1,70,8|0,0:0|0:0,0:0:0:0:
105,358,112477,1,8,0:0:0:0:
183,329,112646,2,0,L|248:304,1,70,2|0,0:0|0:0,0:0:0:0:
308,226,112985,6,0,P|343:284|333:353,2,140,4|0|0,2:1|0:0|0:0,0:0:0:0:
227,199,113833,1,8,0:0:0:0:
143,209,114002,2,0,B|91:218|91:218|79:229,1,70,2|8,0:0|0:0,0:0:0:0:
36,302,114341,1,2,0:0:0:0:
6,208,114511,6,0,B|-11:152|23:120|9:69,2,140,4|2|2,2:1|0:0|0:0,0:0:0:0:
35,302,115358,2,0,P|105:299|164:334,1,140,2|0,0:0|0:0,0:0:0:0:
247,352,115867,2,0,L|312:327,1,70,2|0,0:0|0:0,0:0:0:0:
392,301,116206,2,2,L|426:303,3,35
468,309,116545,5,8,0:0:0:0:
500,216,116714,2,0,L|492:137,1,70,8|0,0:0|0:0,0:0:0:0:
413,89,117053,6,0,B|346:119|304:82|304:82|279:84,1,140,4|2,2:1|0:0,0:0:0:0:
203,120,117562,2,0,P|208:155|207:190,1,70,8|0,0:0|0:0,0:0:0:0:
185,272,117901,1,2,0:0:0:0:
111,231,118070,1,2,0:0:0:0:
34,265,118240,2,0,P|27:230|31:196,2,70,8|0|2,0:0|0:0|0:0,0:0:0:0:
60,345,118748,2,0,L|129:336,1,70,2|8,0:0|0:0,0:0:0:0:
185,272,119087,2,0,L|183:182,1,70,2|0,0:0|0:0,0:0:0:0:
172,117,119426,2,0,P|139:129|113:153,1,70,2|8,0:0|0:0,0:0:0:0:
94,234,119765,1,2,0:0:0:0:
185,272,119935,6,0,L|331:247,1,140,4|8,0:0|0:0,0:0:0:0:
406,235,120443,1,2,0:0:0:0:
473,283,120613,2,0,P|487:250|487:215,1,70,2|2,0:0|0:0,0:0:0:0:
480,132,120951,1,8,0:0:0:0:
392,82,121121,6,0,B|362:77|362:77|311:102|257:83,1,140,4|10,0:0|0:0,0:0:0:0:
185,31,121629,1,0,0:0:0:0:
103,84,121799,2,0,P|89:116|88:151,1,70,2|2,0:0|0:0,0:0:0:0:
102,234,122138,1,2,0:0:0:0:
167,181,122307,2,0,P|200:172|235:175,1,70,8|2,0:0|0:0,0:0:0:0:
208,270,122646,6,0,P|169:326|104:347,1,140,4|8,2:1|0:0,0:0:0:0:
39,292,123155,1,2,0:0:0:0:
66,212,123324,2,0,P|65:178|59:143,1,70,2|2,0:0|0:0,0:0:0:0:
31,64,123663,1,8,0:0:0:0:
128,75,123833,6,0,L|267:60,1,140,2|2,0:0|0:0,0:0:0:0:
348,83,124341,1,8,0:0:0:0:
372,162,124511,2,0,P|363:196|364:231,1,70,2|2,0:0|0:0,0:0:0:0:
436,275,124850,2,0,P|444:241|443:206,1,70,2|8,0:0|0:0,0:0:0:0:
372,162,125189,2,0,L|232:166,1,140,2|2,0:0|0:0,0:0:0:0:
172,225,125697,1,8,0:0:0:0:
97,185,125867,2,0,L|90:255,1,70,2|2,0:0|0:0,0:0:0:0:
17,211,126206,2,0,L|10:141,1,70,2|8,0:0|0:0,0:0:0:0:
88,82,126545,6,0,L|156:66,1,70,10|0,0:0|0:0,0:0:0:0:
224,117,126884,2,0,L|292:132,1,70,10|0,0:0|0:0,0:0:0:0:
361,84,127223,2,0,L|429:68,1,70,10|0,0:0|0:0,0:0:0:0:
486,130,127562,1,0,0:0:0:0:
486,130,127646,1,0,0:0:0:0:
486,130,127731,2,0,L|494:176,3,35,8|8|2|2,0:0|0:0|0:0|0:0,0:0:0:0:
500,205,128070,6,0,P|465:205|433:219,1,70,4|0,2:1|0:0,0:0:0:0:
383,287,128409,1,8,0:0:0:0:
356,367,128579,2,0,P|326:348|306:320,1,70,2|0,0:0|0:0,0:0:0:0:
310,236,128918,2,0,P|246:259|224:323,1,140,2|8,0:0|0:0,0:0:0:0:
126,333,129426,6,0,L|57:318,1,70,4|0,2:1|0:0,0:0:0:0:
26,240,129765,1,8,0:0:0:0:
110,190,129935,2,0,P|108:155|103:120,1,70,2|8,0:0|0:0,0:0:0:0:
73,41,130274,2,0,P|44:60|25:89,2,70,8|8|8,0:0|0:0|0:0,0:0:0:0:
169,58,130782,6,0,B|204:69|204:69|255:49|305:58,1,140,4|0,0:0|0:0,0:0:0:0:
319,141,131290,2,0,P|376:103|387:36,1,140,4|0,0:0|0:0,0:0:0:0:
472,34,131799,2,0,L|497:185,1,140,4|0,0:0|0:0,0:0:0:0:
482,255,132307,6,0,B|452:258|417:273|417:273|383:260|346:259,1,140,4|0,0:0|0:0,0:0:0:0:
270,219,132816,2,2,P|261:271|278:320,2,105,4|2|2,0:0|0:0|0:0,0:0:0:0:
319,141,133494,5,4,2:1:0:0:
250,91,134172,5,2,0:0:0:0:
168,109,134850,5,2,0:0:0:0:
118,176,135528,6,8,L|113:210,5,35
106,251,136036,6,0,P|175:244|242:261,1,140,4|2,2:1|0:0,0:0:0:0:
303,320,136545,2,0,P|320:290|325:256,1,70,8|0,0:0|0:0,0:0:0:0:
324,172,136884,1,2,0:0:0:0:
400,208,137053,2,0,P|448:198|481:178,1,70,2|8,0:0|0:0,0:0:0:0:
406,110,137392,6,0,P|350:70|281:77,1,140,2|2,0:0|0:0,0:0:0:0:
222,137,137901,1,8,0:0:0:0:
192,215,138070,2,0,P|162:195|144:166,1,70,2|2,0:0|0:0,0:0:0:0:
121,85,138409,1,2,0:0:0:0:
54,31,138579,2,0,P|39:63|36:98,1,70,8|0,0:0|0:0,0:0:0:0:
61,193,138918,6,0,B|66:231|66:231|55:296|55:296|60:331,1,140,4|8,0:1|0:0,0:0:0:0:
142,349,139426,2,0,B|166:339|166:339|217:368|276:340,1,140,2|2,0:0|0:0,0:0:0:0:
349,300,139935,1,8,0:0:0:0:
346,202,140104,6,0,P|412:222|444:283,2,140,2|2|2,0:0|0:0|0:0,0:0:0:0:
264,217,140951,2,0,L|171:235,1,70,8|2,0:0|0:0,0:0:0:0:
112,245,141290,1,2,0:0:0:0:
46,297,141460,1,2,0:0:0:0:
34,213,141630,6,0,P|52:183|81:164,1,70,4|0,0:1|0:0,0:0:0:0:
163,147,141968,2,0,P|148:115|121:92,1,70,10|0,0:0|0:0,0:0:0:0:
37,91,142307,1,2,0:0:0:0:
80,19,142477,2,0,P|114:10|149:16,1,70,10|0,0:0|0:0,0:0:0:0:
215,68,142816,6,0,P|283:62|346:90,2,140,2|2|2,0:0|0:0|0:0,0:0:0:0:
154,128,143663,1,2,0:0:0:0:
167,210,143833,2,0,P|174:245|175:280,2,70,2|8|2,0:0|0:0|0:0,0:0:0:0:
238,164,144341,6,0,L|307:155,1,70,4|0,0:1|0:0,0:0:0:0:
387,177,144680,2,0,P|399:211|404:245,2,70,8|2|2,0:0|0:0|0:0,0:0:0:0:
370,95,145189,1,2,0:0:0:0:
449,122,145358,2,0,L|452:52,1,70,10|2,0:0|0:0,0:0:0:0:
358,21,145697,6,0,P|303:60|304:128,1,140,4|8,2:1|0:0,0:0:0:0:
340,205,146206,2,0,L|200:200,1,140,2|2,0:0|0:0,0:0:0:0:
116,198,146714,1,8,0:0:0:0:
49,251,146884,1,8,0:0:0:0:
49,251,146968,1,8,0:0:0:0:
49,251,147053,6,0,P|34:219|34:184,1,70,4|2,2:1|0:0,0:0:0:0:
69,108,147392,1,8,0:0:0:0:
153,115,147562,2,0,L|222:119,1,70,2|2,0:0|0:0,0:0:0:0:
287,173,147901,2,0,L|356:168,1,70,2|8,0:0|0:0,0:0:0:0:
422,240,148240,6,0,P|453:179|434:113,2,140,2|2|2,0:0|0:0|0:0,0:0:0:0:
362,298,149087,1,2,0:0:0:0:
285,261,149257,1,2,0:0:0:0:
215,308,149426,2,0,P|239:334|272:345,1,70,8|2,0:0|0:0,0:0:0:0:
212,231,149765,6,0,P|152:264|143:331,1,140,4|8,2:1|0:0,0:0:0:0:
69,373,150274,2,0,L|40:309,1,70,2|2,0:0|0:0,0:0:0:0:
69,229,150613,2,0,L|77:159,1,70,2|8,0:0|0:0,0:0:0:0:
26,75,150951,6,0,P|93:61|153:95,1,140,4|2,2:1|0:0,0:0:0:0:
165,178,151460,1,8,0:0:0:0:
255,140,151629,2,0,L|318:110,1,70,2|0,0:0|0:0,0:0:0:0:
403,110,151968,2,2,L|438:111,4,35
467,187,152477,6,0,P|440:251|458:318,2,140,4|2|2,2:1|0:0|0:0,0:0:0:0:
507,113,153324,2,0,P|472:106|438:112,1,70,2|8,0:0|0:0,0:0:0:0:
359,171,153663,6,0,B|324:182|324:182|222:163,1,140,4|0,2:1|0:0,0:0:0:0:
200,81,154172,2,0,P|146:122|139:190,2,140,2|10|10,0:0|0:0|0:0,0:0:0:0:
285,84,155019,1,2,0:0:0:0:
291,182,155189,6,0,L|293:251,1,70,4|0,2:1|0:0,0:0:0:0:
208,202,155528,2,0,L|223:270,1,70,2|2,0:0|0:0,0:0:0:0:
129,247,155867,2,0,L|161:308,1,70,2|2,0:0|0:0,0:0:0:0:
63,310,156206,2,0,L|110:361,1,70,2|2,0:0|0:0,0:0:0:0:
207,367,156545,6,0,P|241:356|276:351,3,70,2|2|2|2,0:0|0:0|0:0|0:0,0:0:0:0:
359,342,157223,2,0,L|428:355,1,70,2|2,0:0|0:0,0:0:0:0:
501,313,157562,2,0,L|508:243,1,70,2|2,0:0|0:0,0:0:0:0:
505,138,157901,5,4,2:1:0:0:
469,107,158579,6,0,L|376:108,1,70,2|0,0:0|0:0,0:0:0:0:
325,65,158918,1,2,0:0:0:0:
252,130,159087,6,0,P|252:181|200:271,1,140,4|0,2:1|0:0,0:0:0:0:
142,307,159596,1,2,0:0:0:0:
142,307,159765,1,2,0:0:0:0:
212,259,160274,1,2,0:0:0:0:
216,343,160443,1,2,0:0:0:0:
293,308,160613,6,0,L|358:282,3,70,2|2|2|2,0:0|0:0|0:0|0:0,0:0:0:0:
437,254,161290,2,0,L|479:198,1,70,2|2,0:0|0:0,0:0:0:0:
497,115,161629,2,8,L|503:80,3,35
493,39,161968,6,0,B|418:44|418:44|384:22,2,105,0|0|0,2:3|2:3|2:3,0:0:0:0:
423,117,162646,6,0,B|394:113|394:113|344:80|344:80|293:87,1,140,4|0,0:0|0:0,0:0:0:0:
216,122,163155,1,2,0:0:0:0:
179,197,163324,6,0,P|198:263|184:331,1,140,2|0,0:0|0:0,0:0:0:0:
267,347,163833,1,2,0:0:0:0:
294,268,164002,2,0,B|336:251|336:251|424:284,1,140,2|0,0:0|0:0,0:0:0:0:
500,246,164511,2,0,L|506:196,1,35,2|2,0:0|0:0,0:0:0:0:
499,169,164680,6,0,B|494:128|494:128|505:65,2,105,2|2|2,0:0|0:0|0:0,0:0:0:0:
421,200,165358,2,0,L|323:162,1,105,2|0,0:0|0:0,0:0:0:0:
283,148,165697,1,2,0:0:0:0:
185,166,165867,6,0,B|135:213|161:273|161:273|159:294,2,140,2|10|2,0:0|0:0|0:0,0:0:0:0:
234,235,166714,2,0,L|303:230,1,70,2|0,0:0|0:0,0:0:0:0:
286,312,167053,2,0,L|352:289,1,70,2|0,0:0|0:0,0:0:0:0:
355,373,167392,6,0,L|413:333,1,70,2|0,0:0|0:0,0:0:0:0:
479,281,167731,1,0,2:3:0:0:
505,201,167901,1,0,2:3:0:0:
422,215,168070,2,0,P|358:192|303:230,1,140,2|0,0:0|0:0,0:0:0:0:
306,366,168748,6,0,P|365:333|368:267,1,140,2|0,0:0|0:0,0:0:0:0:
358,182,169257,1,2,0:0:0:0:
287,136,169426,2,0,B|263:146|263:146|215:116|153:128,1,140,2|0,0:0|0:0,0:0:0:0:
89,183,169935,1,2,0:0:0:0:
89,183,170019,1,2,0:0:0:0:
89,183,170104,6,0,L|96:287,2,105,2|2|2,0:0|0:0|0:0,0:0:0:0:
84,83,170782,2,0,P|124:52|176:50,1,105,4|0,0:1|0:0,0:0:0:0:
217,61,171121,1,2,0:0:0:0:
311,86,171290,6,0,L|402:68,1,70,2|0,0:0|0:0,0:0:0:0:
452,113,171629,2,0,L|472:179,1,70,2|0,0:0|0:0,0:0:0:0:
389,188,171968,2,0,L|426:247,1,70,2|0,0:0|0:0,0:0:0:0:
410,329,172307,2,0,B|377:323|377:323|341:331,2,70,2|2|2,0:0|0:0|0:0,0:0:0:0:
338,257,172816,6,0,L|304:266,3,35,2|2|2|2,0:0|0:0|0:0|0:0,0:0:0:0:
266,284,173155,2,0,P|257:318|259:353,1,70,0|2,0:0|0:0,0:0:0:0:
175,302,173494,2,0,B|134:292|134:292|101:336|49:331,1,140,2|0,0:0|0:0,0:0:0:0:
61,248,174002,1,2,0:0:0:0:
18,175,174172,6,0,P|0:109|39:53,1,140,2|0,0:0|0:0,0:0:0:0:
85,124,174680,1,2,0:0:0:0:
153,75,174850,6,0,B|173:103|167:141,1,70,2|0,0:0|0:0,0:0:0:0:
154,225,175189,2,0,L|147:258,3,35,2|2|2|2,0:0|0:0|0:0|0:0,0:0:0:0:
143,301,175528,6,0,P|204:329|267:305,1,140,2|0,0:0|0:0,0:0:0:0:
320,238,176036,1,2,0:0:0:0:
402,254,176206,2,0,P|410:305|402:357,2,105,2|2|2,0:0|0:0|0:0,0:0:0:0:
418,171,176884,2,0,P|458:138|507:118,2,105,2|2|2,0:0|0:0|0:0,0:0:0:0:
337,196,177562,2,0,P|288:177|247:144,2,105,2|2|2,0:0|0:0|0:0,0:0:0:0:
356,114,178240,6,0,L|328:12,2,105,2|2|2,0:0|0:0|0:0,0:0:0:0:
418,171,178918,2,0,P|421:205|420:240,1,70,2|0,0:0|0:0,0:0:0:0:
419,325,179257,2,0,P|385:316|355:297,1,70,2|0,0:0|0:0,0:0:0:0:
274,273,179596,2,0,P|239:270|204:275,1,70,2|0,0:0|0:0,0:0:0:0:
141,331,179935,2,0,P|127:299|123:264,1,70,2|0,0:0|0:0,0:0:0:0:
61,205,180274,2,0,P|43:236|42:270,2,70,2|0|2,0:0|0:0|0:0,0:0:0:0:
130,158,180782,1,0,0:0:0:0:
57,116,180951,2,0,P|25:101|0:78,2,70,2|0|2,0:0|0:0|0:0,0:0:0:0:
130,74,181460,1,0,0:0:0:0:
225,116,181629,5,4,2:1:0:0:
256,192,181714,12,2,182985,0:0:0:0:
257,183,184172,6,2,L|257:227,2,35
120,182,191799,6,8,L|50:171,2,70
224,191,192307,5,4,2:1:0:0:
232,213,192646,5,2,0:0:0:0:
268,287,192815,2,0,P|294:264|310:233,1,70,10|0,0:0|0:0,0:0:0:0:
306,148,193155,5,2,0:0:0:0:
224,124,193324,2,0,P|163:155|141:219,2,140,10|2|0,0:0|0:0|0:0,0:0:0:0:
308,114,194172,2,0,B|348:115|348:115|408:92|408:92|443:94,1,140,10|0,0:0|0:0,0:0:0:0:
421,174,194680,6,0,P|419:209|424:244,1,70,2|8,0:0|0:0,0:0:0:0:
451,324,195019,1,2,0:0:0:0:
368,304,195189,2,0,B|319:302|319:302|235:338,1,140,4|10,0:1|0:0,0:0:0:0:
156,367,195697,1,2,0:0:0:0:
167,283,195867,6,0,P|162:248|152:214,1,70,2|0,0:0|0:0,0:0:0:0:
104,145,196206,1,10,0:0:0:0:
55,213,196375,1,10,0:0:0:0:
153,215,196545,2,0,L|290:189,1,140,2|10,0:0|0:0,0:0:0:0:
363,229,197053,6,0,P|370:264|371:299,2,70,2|2|0,0:0|0:0|0:0,0:0:0:0:
376,146,197562,2,2,L|410:152,3,35,10|2|2|2,0:0|0:0|0:0|0:0,0:0:0:0:
451,162,197901,2,0,P|458:128|455:93,1,70,2|0,0:0|0:0,0:0:0:0:
400,29,198240,2,0,P|361:29|330:46,1,70,10|0,0:0|0:0,0:0:0:0:
289,114,198579,5,2,0:0:0:0:
251,189,198748,2,0,P|224:166|208:135,1,70,2|8,0:0|0:0,0:0:0:0:
205,50,199087,6,0,P|143:79|119:143,2,140,2|2|10,0:0|0:0|0:0,0:0:0:0:
287,71,199935,2,0,L|377:58,1,70,2|0,0:0|0:0,0:0:0:0:
432,97,200274,2,0,L|432:175,1,70,10|0,0:0|0:0,0:0:0:0:
384,260,200613,6,0,P|318:238|254:263,1,140,4|10,2:1|0:0,0:0:0:0:
237,346,201121,2,0,P|181:306|177:238,2,140,2|2|10,0:0|0:0|0:0,0:0:0:0:
321,346,201968,1,2,0:0:0:0:
398,313,202138,2,0,P|430:325|456:348,1,70,2|8,0:0|0:0,0:0:0:0:
478,245,202477,6,0,L|484:175,1,70,2|0,0:0|0:0,0:0:0:0:
483,91,202816,2,0,L|472:57,5,35,2|2|2|2|2|2,0:0|0:0|0:0|0:0|0:0|0:0,0:0:0:0:
434,38,203324,2,0,B|390:22|390:22|352:48|303:53,1,140,4|10,0:1|0:0,0:0:0:0:
221,29,203833,2,0,P|199:56|193:90,1,70,0|2,0:0|0:0,0:0:0:0:
197,175,204172,5,0,0:0:0:0:
264,224,204341,1,10,0:0:0:0:
239,305,204511,2,0,P|181:266|112:261,1,140,2|0,0:0|0:0,0:0:0:0:
77,338,205019,2,0,P|49:317|33:286,1,70,10|0,0:0|0:0,0:0:0:0:
45,181,205358,6,0,P|47:146|42:111,1,70,2|0,0:0|0:0,0:0:0:0:
95,45,205697,2,0,P|130:50|165:45,1,70,10|0,0:0|0:0,0:0:0:0:
237,88,206036,2,0,P|271:82|306:87,1,70,2|0,0:0|0:0,0:0:0:0:
385,60,206375,2,0,P|419:66|453:61,1,70,10|0,0:0|0:0,0:0:0:0:
504,128,206714,6,0,P|500:163|502:198,1,70,2|0,0:0|0:0,0:0:0:0:
448,262,207053,2,0,P|449:296|445:331,1,70,10|0,0:0|0:0,0:0:0:0:
361,328,207392,2,0,P|326:331|294:318,1,70,2|0,0:0|0:0,0:0:0:0:
283,235,207731,2,0,P|248:231|216:245,1,70,10|0,0:0|0:0,0:0:0:0:
146,292,208070,6,0,P|152:327|152:362,2,70,2|0|10,0:0|0:0|0:0,0:0:0:0:
94,226,208579,1,2,0:0:0:0:
94,226,208663,1,2,0:0:0:0:
94,226,208748,6,0,P|114:128|211:102,1,210,4|0,0:1|0:0,0:0:0:0:
284,145,209426,6,0,P|336:142|364:133,2,70,0|0|0,2:3|2:3|2:3,0:0:0:0:
343,57,209935,2,0,P|408:77|433:140,1,140,4|0,2:1|0:0,0:0:0:0:
437,224,210443,1,2,0:0:0:0:
413,304,210613,6,0,B|384:280|384:280|340:304|284:300,1,140,2|0,0:0|0:0,0:0:0:0:
241,227,211121,2,0,P|214:250|198:281,1,70,2|2,0:0|0:0,0:0:0:0:
130,331,211460,2,0,L|96:269,3,70,2|0|2|0,0:0|0:0|0:0|0:0,0:0:0:0:
106,185,212138,6,0,L|112:115,3,70,2|0|2|0,0:0|0:0|0:0|0:0,0:0:0:0:
179,63,212816,1,8,0:0:0:0:
259,85,212985,1,2,0:0:0:0:
259,85,213070,1,2,0:0:0:0:
259,85,213155,2,2,L|293:88,3,35
331,108,213494,6,2,L|363:120,3,35
400,141,213833,2,2,L|422:170,3,35
445,203,214172,5,4,2:1:0:0:
301,289,214511,6,0,L|231:280,1,70,10|0,0:0|0:0,0:0:0:0:
147,272,214850,1,10,0:0:0:0:
80,323,215019,2,0,P|65:291|64:256,1,70,2|2,0:0|0:0,0:0:0:0:
117,191,215358,2,0,P|131:159|132:124,1,70,10|0,0:0|0:0,0:0:0:0:
97,47,215697,2,0,P|63:59|29:61,2,70,2|8|2,0:0|0:0|0:0,0:0:0:0:
181,52,216206,6,0,L|250:58,1,70,2|0,0:0|0:0,0:0:0:0:
334,53,216545,2,0,L|403:46,1,70,10|0,0:0|0:0,0:0:0:0:
472,94,216884,2,0,P|466:129|470:164,1,70,2|0,0:0|0:0,0:0:0:0:
392,133,217223,2,0,P|363:153|331:166,1,70,10|0,0:0|0:0,0:0:0:0:
264,217,217562,6,0,P|295:230|323:252,1,70,2|0,0:0|0:0,0:0:0:0:
385,309,217901,1,8,0:0:0:0:
456,232,218070,2,0,L|470:164,1,70,10|0,0:0|0:0,0:0:0:0:
481,80,218409,1,10,0:0:0:0:
420,20,218579,1,8,0:0:0:0:
328,70,218748,6,0,B|282:74|282:74|188:34,1,140,4|0,2:1|0:0,0:0:0:0:
110,37,219257,2,2,L|90:66,3,35
75,105,219596,2,0,L|78:174,1,70,2|0,0:0|0:0,0:0:0:0:
160,155,219935,6,0,L|145:223,1,70,2|0,0:0|0:0,0:0:0:0:
229,228,220274,6,0,L|197:290,1,70,2|0,0:0|0:0,0:0:0:0:
276,317,220613,5,4,0:1:0:0:
256,192,220782,12,0,229765,0:0:0:0:
