osu file format v14

[General]
AudioFilename: audio.mp3
AudioLeadIn: 0
PreviewTime: 41434
Countdown: 0
SampleSet: Normal
StackLeniency: 0.7
Mode: 1
LetterboxInBreaks: 0
WidescreenStoryboard: 0

[Editor]
Bookmarks: 103834,111034
DistanceSpacing: 0.9
BeatDivisor: 4
GridSize: 32
TimelineZoom: 3.099999

[Metadata]
Title:Fuuen no 135-byou
TitleUnicode:封焔の135秒
Artist:Ookuni Kanon
ArtistUnicode:大国奏音
Creator:GOD82028
Version:Flame Oni
Source:maimai でらっくす PLUS
Tags:Instrumental Video Game Electronic rhythm game original SEGA flame seal of 135 seconds DX
BeatmapID:2622014
BeatmapSetID:1261365

[Difficulty]
HPDrainRate:6
CircleSize:5
OverallDifficulty:6.5
ApproachRate:5
SliderMultiplier:1.4
SliderTickRate:1

[Events]
//Background and Video events
0,0,"122320.jpg",0,0
//Break Periods
//Storyboard Layer 0 (Background)
//Storyboard Layer 1 (Fail)
//Storyboard Layer 2 (Pass)
//Storyboard Layer 3 (Foreground)
//Storyboard Layer 4 (Overlay)
//Storyboard Sound Samples

[TimingPoints]
634,300,4,1,0,40,1,0
634,-200,4,1,0,40,0,0
10234,-133.333333333333,4,1,0,60,0,0
22234,-100,4,1,0,75,0,0
29284,-100,4,1,0,70,0,0
29434,-100,4,1,0,65,0,0
29734,-125,4,1,0,65,0,0
31834,-100,4,1,0,75,0,0
41434,-90.9090909090909,4,1,0,85,0,1
60634,-100,4,1,0,75,0,0
69634,-100,4,1,0,75,0,0
69734,-103.092783505155,4,1,0,73,0,0
69834,-106.382978723404,4,1,0,71,0,0
69934,-109.89010989011,4,1,0,69,0,0
70034,-113.636363636364,4,1,0,67,0,0
70134,-117.647058823529,4,1,0,65,0,0
70234,-121.951219512195,4,1,0,63,0,0
70834,-125,4,1,0,60,0,0
79234,-123.456790123457,4,1,0,61,0,0
79334,-121.951219512195,4,1,0,62,0,0
79434,-120.481927710843,4,1,0,63,0,0
79534,-119.047619047619,4,1,0,64,0,0
79634,-117.647058823529,4,1,0,65,0,0
79734,-116.279069767442,4,1,0,65,0,0
79834,-114.942528735632,4,1,0,65,0,0
84709,-111.111111111111,4,1,0,70,0,0
89134,-105.263157894737,4,1,0,70,0,0
90634,-100,4,1,0,70,0,0
93784,-99.009900990099,4,1,0,74,0,0
93934,-96.1538461538461,4,1,0,78,0,0
94084,-93.4579439252336,4,1,0,82,0,0
94234,-90.9090909090909,4,1,0,85,0,1
111034,-90.9090909090909,4,1,0,75,0,0
119434,-64.5161290322581,4,1,0,85,0,0
120934,-76.9230769230769,4,1,0,75,0,0
121234,-90.9090909090909,4,1,0,72,0,0
121534,-100,4,1,0,69,0,0
121834,-111.111111111111,4,1,0,66,0,0
122134,-117.647058823529,4,1,0,63,0,0
122434,-125,4,1,0,60,0,0
122734,-129.87012987013,4,1,0,58,0,0
123034,-135.135135135135,4,1,0,56,0,0
123334,-140.845070422535,4,1,0,54,0,0
123634,-144.927536231884,4,1,0,52,0,0
123934,-151.515151515152,4,1,0,50,0,0
124234,-153.846153846154,4,1,0,50,0,0
126634,300,4,1,0,50,1,8
126934,750,4,1,0,35,1,0

[HitObjects]
256,192,634,5,0,0:0:0:0:
256,192,934,1,8,0:0:0:0:
256,192,1234,1,8,0:0:0:0:
256,192,1534,1,0,0:0:0:0:
256,192,1584,1,0,0:0:0:0:
256,192,1634,1,0,0:0:0:0:
256,192,1834,1,0,0:0:0:0:
256,192,2734,1,0,0:0:0:0:
256,192,2884,1,0,0:0:0:0:
256,192,3034,1,0,0:0:0:0:
256,192,3334,1,8,0:0:0:0:
256,192,3634,1,8,0:0:0:0:
256,192,3934,1,0,0:0:0:0:
256,192,4234,1,0,0:0:0:0:
256,192,4534,1,0,0:0:0:0:
256,192,4834,1,8,0:0:0:0:
256,192,5134,1,0,0:0:0:0:
256,192,5284,1,0,0:0:0:0:
256,192,5434,1,8,0:0:0:0:
256,192,5734,1,8,0:0:0:0:
256,192,6034,1,0,0:0:0:0:
256,192,6184,1,8,0:0:0:0:
256,192,6334,1,8,0:0:0:0:
256,192,6634,1,0,0:0:0:0:
256,192,6934,1,8,0:0:0:0:
256,192,7234,1,8,0:0:0:0:
256,192,7384,1,8,0:0:0:0:
256,192,7534,1,0,0:0:0:0:
256,192,7834,1,0,0:0:0:0:
256,192,8134,1,8,0:0:0:0:
256,192,8434,1,8,0:0:0:0:
256,192,8584,1,0,0:0:0:0:
256,192,8734,1,0,0:0:0:0:
256,192,9034,1,8,0:0:0:0:
256,192,9334,1,8,0:0:0:0:
256,192,9409,1,8,0:0:0:0:
256,192,9484,1,0,0:0:0:0:
256,192,9634,1,8,0:0:0:0:
256,192,9784,1,0,0:0:0:0:
256,192,9934,1,8,0:0:0:0:
256,192,10084,1,0,0:0:0:0:
256,192,10234,1,4,0:0:0:0:
256,192,10534,1,8,0:0:0:0:
256,192,10834,1,8,0:0:0:0:
256,192,11134,1,0,0:0:0:0:
256,192,11434,1,0,0:0:0:0:
256,192,12034,1,0,0:0:0:0:
256,192,12634,1,8,0:0:0:0:
256,192,12934,1,8,0:0:0:0:
256,192,13234,1,0,0:0:0:0:
256,192,13534,1,0,0:0:0:0:
256,192,13834,1,8,0:0:0:0:
256,192,15034,1,0,0:0:0:0:
256,192,15334,1,8,0:0:0:0:
256,192,15634,1,8,0:0:0:0:
256,192,15934,1,0,0:0:0:0:
256,192,16234,1,8,0:0:0:0:
256,192,16834,1,0,0:0:0:0:
256,192,17434,2,0,L|320:192,14,52.5000020027161
256,192,19834,5,0,0:0:0:0:
256,192,19984,12,8,21934,0:0:0:0:
256,192,22234,5,4,0:0:0:0:
256,192,22459,1,8,0:0:0:0:
256,192,22534,1,0,0:0:0:0:
256,192,22684,1,0,0:0:0:0:
256,192,22834,1,8,0:0:0:0:
256,192,22909,1,0,0:0:0:0:
256,192,22984,1,8,0:0:0:0:
256,192,23134,1,8,0:0:0:0:
256,192,23209,1,8,0:0:0:0:
256,192,23284,1,0,0:0:0:0:
256,192,23434,1,8,0:0:0:0:
256,192,23509,1,0,0:0:0:0:
256,192,23584,1,0,0:0:0:0:
256,192,23734,1,0,0:0:0:0:
256,192,23809,1,8,0:0:0:0:
256,192,23884,1,0,0:0:0:0:
256,192,24034,1,0,0:0:0:0:
256,192,24109,1,0,0:0:0:0:
256,192,24184,1,8,0:0:0:0:
256,192,24259,1,8,0:0:0:0:
256,192,24334,1,0,0:0:0:0:
256,192,24484,1,8,0:0:0:0:
256,192,24634,1,4,0:0:0:0:
256,192,24859,1,8,0:0:0:0:
256,192,24934,1,0,0:0:0:0:
256,192,25084,1,0,0:0:0:0:
256,192,25234,1,8,0:0:0:0:
256,192,25309,1,8,0:0:0:0:
256,192,25384,1,0,0:0:0:0:
256,192,25459,1,0,0:0:0:0:
256,192,25534,1,8,0:0:0:0:
256,192,25609,1,0,0:0:0:0:
256,192,25684,1,0,0:0:0:0:
256,192,25759,1,0,0:0:0:0:
256,192,25834,1,8,0:0:0:0:
256,192,25909,1,0,0:0:0:0:
256,192,25984,1,8,0:0:0:0:
256,192,26059,1,8,0:0:0:0:
256,192,26134,1,0,0:0:0:0:
256,192,26209,1,0,0:0:0:0:
256,192,26284,1,8,0:0:0:0:
256,192,26359,1,8,0:0:0:0:
256,192,26434,1,0,0:0:0:0:
256,192,26509,1,8,0:0:0:0:
256,192,26584,1,0,0:0:0:0:
256,192,26659,1,0,0:0:0:0:
256,192,26734,1,0,0:0:0:0:
256,192,26884,1,8,0:0:0:0:
256,192,27034,1,4,0:0:0:0:
256,192,27259,1,8,0:0:0:0:
256,192,27334,1,0,0:0:0:0:
256,192,27484,1,0,0:0:0:0:
256,192,27634,1,8,0:0:0:0:
256,192,27709,1,0,0:0:0:0:
256,192,27784,1,8,0:0:0:0:
256,192,27934,1,8,0:0:0:0:
256,192,28009,1,8,0:0:0:0:
256,192,28084,1,0,0:0:0:0:
256,192,28234,1,0,0:0:0:0:
256,192,28309,1,0,0:0:0:0:
256,192,28384,1,8,0:0:0:0:
256,192,28534,1,0,0:0:0:0:
256,192,28609,1,8,0:0:0:0:
256,192,28684,1,8,0:0:0:0:
256,192,28834,1,0,0:0:0:0:
256,192,28909,1,8,0:0:0:0:
256,192,28984,1,0,0:0:0:0:
256,192,29059,1,8,0:0:0:0:
256,192,29134,1,8,0:0:0:0:
256,192,29284,1,8,0:0:0:0:
256,192,29434,1,4,0:0:0:0:
256,192,29734,1,0,0:0:0:0:
256,192,29884,1,0,0:0:0:0:
256,192,30034,1,8,0:0:0:0:
256,192,30334,1,0,0:0:0:0:
256,192,30484,1,8,0:0:0:0:
256,192,30784,1,8,0:0:0:0:
256,192,30934,1,8,0:0:0:0:
256,192,31084,1,0,0:0:0:0:
256,192,31234,1,8,0:0:0:0:
256,192,31384,1,8,0:0:0:0:
256,192,31534,1,0,0:0:0:0:
256,192,31684,1,8,0:0:0:0:
256,192,31834,1,4,0:0:0:0:
256,192,32059,1,8,0:0:0:0:
256,192,32134,1,0,0:0:0:0:
256,192,32284,1,0,0:0:0:0:
256,192,32434,1,0,0:0:0:0:
256,192,32509,1,8,0:0:0:0:
256,192,32584,1,8,0:0:0:0:
256,192,32734,1,0,0:0:0:0:
256,192,32809,1,0,0:0:0:0:
256,192,32884,1,8,0:0:0:0:
256,192,33034,1,0,0:0:0:0:
256,192,33109,1,8,0:0:0:0:
256,192,33184,1,0,0:0:0:0:
256,192,33334,1,8,0:0:0:0:
256,192,33409,1,0,0:0:0:0:
256,192,33484,1,8,0:0:0:0:
256,192,33634,1,0,0:0:0:0:
256,192,33709,1,0,0:0:0:0:
256,192,33784,1,8,0:0:0:0:
256,192,33859,1,0,0:0:0:0:
256,192,33934,1,8,0:0:0:0:
256,192,34084,1,8,0:0:0:0:
256,192,34234,1,4,0:0:0:0:
256,192,34459,1,8,0:0:0:0:
256,192,34534,1,0,0:0:0:0:
256,192,34684,1,0,0:0:0:0:
256,192,34834,1,0,0:0:0:0:
256,192,34909,1,0,0:0:0:0:
256,192,34984,1,8,0:0:0:0:
256,192,35059,1,8,0:0:0:0:
256,192,35134,1,0,0:0:0:0:
256,192,35209,1,8,0:0:0:0:
256,192,35284,1,8,0:0:0:0:
256,192,35359,1,8,0:0:0:0:
256,192,35434,1,0,0:0:0:0:
256,192,35509,1,8,0:0:0:0:
256,192,35584,1,8,0:0:0:0:
256,192,35659,1,0,0:0:0:0:
256,192,35734,1,8,0:0:0:0:
256,192,35809,1,8,0:0:0:0:
256,192,35884,1,0,0:0:0:0:
256,192,35959,1,8,0:0:0:0:
256,192,36034,1,0,0:0:0:0:
256,192,36109,1,0,0:0:0:0:
256,192,36184,1,8,0:0:0:0:
256,192,36259,1,0,0:0:0:0:
256,192,36334,1,8,0:0:0:0:
256,192,36484,1,8,0:0:0:0:
256,192,36634,1,4,0:0:0:0:
256,192,36859,1,8,0:0:0:0:
256,192,36934,1,0,0:0:0:0:
256,192,37084,1,0,0:0:0:0:
256,192,37234,1,0,0:0:0:0:
256,192,37309,1,8,0:0:0:0:
256,192,37384,1,8,0:0:0:0:
256,192,37534,1,0,0:0:0:0:
256,192,37609,1,0,0:0:0:0:
256,192,37684,1,8,0:0:0:0:
256,192,37834,1,8,0:0:0:0:
256,192,37909,1,8,0:0:0:0:
256,192,37984,1,0,0:0:0:0:
256,192,38134,1,0,0:0:0:0:
256,192,38209,1,8,0:0:0:0:
256,192,38284,1,0,0:0:0:0:
256,192,38434,1,8,0:0:0:0:
256,192,38509,1,8,0:0:0:0:
256,192,38584,1,0,0:0:0:0:
256,192,38659,1,0,0:0:0:0:
256,192,38734,1,0,0:0:0:0:
256,192,38884,1,8,0:0:0:0:
256,192,39034,1,4,0:0:0:0:
256,192,39184,1,8,0:0:0:0:
256,192,39334,1,0,0:0:0:0:
256,192,39484,1,8,0:0:0:0:
256,192,39634,1,0,0:0:0:0:
256,192,39784,1,0,0:0:0:0:
256,192,39934,1,8,0:0:0:0:
256,192,40084,1,8,0:0:0:0:
256,192,40234,1,0,0:0:0:0:
256,192,40309,1,0,0:0:0:0:
256,192,40384,1,8,0:0:0:0:
256,192,40459,1,8,0:0:0:0:
256,192,40534,1,0,0:0:0:0:
256,192,40609,1,0,0:0:0:0:
256,192,40684,1,8,0:0:0:0:
256,192,40759,1,0,0:0:0:0:
256,192,40834,1,0,0:0:0:0:
256,192,40909,1,0,0:0:0:0:
256,192,40984,1,8,0:0:0:0:
256,192,41059,1,0,0:0:0:0:
256,192,41134,1,8,0:0:0:0:
256,192,41209,1,8,0:0:0:0:
256,192,41284,1,0,0:0:0:0:
256,192,41434,1,12,0:0:0:0:
256,192,41584,1,0,0:0:0:0:
256,192,41659,1,8,0:0:0:0:
256,192,41809,1,0,0:0:0:0:
256,192,41884,1,8,0:0:0:0:
256,192,41959,1,8,0:0:0:0:
256,192,42034,1,0,0:0:0:0:
256,192,42184,1,8,0:0:0:0:
256,192,42259,1,8,0:0:0:0:
256,192,42334,1,8,0:0:0:0:
256,192,42484,1,8,0:0:0:0:
256,192,42634,1,0,0:0:0:0:
256,192,42784,1,8,0:0:0:0:
256,192,42859,1,0,0:0:0:0:
256,192,43009,1,0,0:0:0:0:
256,192,43084,1,8,0:0:0:0:
256,192,43234,1,0,0:0:0:0:
256,192,43309,1,0,0:0:0:0:
256,192,43384,1,8,0:0:0:0:
256,192,43459,1,0,0:0:0:0:
256,192,43534,1,8,0:0:0:0:
256,192,43609,1,8,0:0:0:0:
256,192,43684,1,0,0:0:0:0:
256,192,43834,1,0,0:0:0:0:
256,192,43984,1,8,0:0:0:0:
256,192,44059,1,0,0:0:0:0:
256,192,44209,1,8,0:0:0:0:
256,192,44284,1,8,0:0:0:0:
256,192,44359,1,8,0:0:0:0:
256,192,44434,1,0,0:0:0:0:
256,192,44584,1,0,0:0:0:0:
256,192,44659,1,8,0:0:0:0:
256,192,44734,1,0,0:0:0:0:
256,192,44884,1,8,0:0:0:0:
256,192,45034,1,0,0:0:0:0:
256,192,45184,1,0,0:0:0:0:
256,192,45259,1,0,0:0:0:0:
256,192,45409,1,0,0:0:0:0:
256,192,45484,1,8,0:0:0:0:
256,192,45634,1,0,0:0:0:0:
256,192,45709,1,0,0:0:0:0:
256,192,45784,1,8,0:0:0:0:
256,192,45859,1,8,0:0:0:0:
256,192,45934,1,0,0:0:0:0:
256,192,46084,1,0,0:0:0:0:
256,192,46159,1,0,0:0:0:0:
256,192,46234,1,8,0:0:0:0:
256,192,46309,1,8,0:0:0:0:
256,192,46384,1,0,0:0:0:0:
256,192,46459,1,0,0:0:0:0:
256,192,46534,1,8,0:0:0:0:
256,192,46609,1,0,0:0:0:0:
256,192,46684,1,8,0:0:0:0:
256,192,46759,1,8,0:0:0:0:
256,192,46834,1,0,0:0:0:0:
256,192,46909,1,8,0:0:0:0:
256,192,46984,1,8,0:0:0:0:
256,192,47059,1,0,0:0:0:0:
256,192,47134,1,8,0:0:0:0:
256,192,47209,1,0,0:0:0:0:
256,192,47284,1,0,0:0:0:0:
256,192,47359,1,0,0:0:0:0:
256,192,47434,1,8,0:0:0:0:
256,192,47509,1,0,0:0:0:0:
256,192,47584,1,8,0:0:0:0:
256,192,47659,1,8,0:0:0:0:
256,192,47734,1,0,0:0:0:0:
256,192,47809,1,8,0:0:0:0:
256,192,47884,1,8,0:0:0:0:
256,192,47959,1,0,0:0:0:0:
256,192,48034,1,0,0:0:0:0:
256,192,48109,1,8,0:0:0:0:
256,192,48184,1,0,0:0:0:0:
256,192,48259,1,8,0:0:0:0:
256,192,48334,1,0,0:0:0:0:
256,192,48384,1,0,0:0:0:0:
256,192,48434,1,0,0:0:0:0:
256,192,48484,1,8,0:0:0:0:
256,192,48634,1,8,0:0:0:0:
256,192,48709,1,0,0:0:0:0:
256,192,48784,1,0,0:0:0:0:
256,192,48859,1,0,0:0:0:0:
256,192,48934,1,8,0:0:0:0:
256,192,49009,1,8,0:0:0:0:
256,192,49084,1,0,0:0:0:0:
256,192,49159,1,0,0:0:0:0:
256,192,49234,1,8,0:0:0:0:
256,192,49309,1,0,0:0:0:0:
256,192,49384,1,8,0:0:0:0:
256,192,49459,1,8,0:0:0:0:
256,192,49534,1,0,0:0:0:0:
256,192,49609,1,8,0:0:0:0:
256,192,49684,1,8,0:0:0:0:
256,192,49759,1,8,0:0:0:0:
256,192,49834,1,0,0:0:0:0:
256,192,49909,1,0,0:0:0:0:
256,192,49984,1,8,0:0:0:0:
256,192,50059,1,0,0:0:0:0:
256,192,50134,1,0,0:0:0:0:
256,192,50209,1,8,0:0:0:0:
256,192,50284,1,8,0:0:0:0:
256,192,50359,1,0,0:0:0:0:
256,192,50434,1,8,0:0:0:0:
256,192,50484,1,8,0:0:0:0:
256,192,50534,1,8,0:0:0:0:
256,192,50584,1,0,0:0:0:0:
256,192,50659,1,0,0:0:0:0:
256,192,50734,1,8,0:0:0:0:
256,192,50784,1,8,0:0:0:0:
256,192,50834,1,8,0:0:0:0:
256,192,50884,1,0,0:0:0:0:
256,192,51034,1,12,0:0:0:0:
256,192,51184,1,0,0:0:0:0:
256,192,51259,1,8,0:0:0:0:
256,192,51409,1,0,0:0:0:0:
256,192,51484,1,8,0:0:0:0:
256,192,51559,1,8,0:0:0:0:
256,192,51634,1,0,0:0:0:0:
256,192,51784,1,8,0:0:0:0:
256,192,51859,1,8,0:0:0:0:
256,192,51934,1,8,0:0:0:0:
256,192,52084,1,0,0:0:0:0:
256,192,52234,1,8,0:0:0:0:
256,192,52384,1,8,0:0:0:0:
256,192,52459,1,8,0:0:0:0:
256,192,52609,1,8,0:0:0:0:
256,192,52684,1,0,0:0:0:0:
256,192,52834,1,0,0:0:0:0:
256,192,52984,1,8,0:0:0:0:
256,192,53059,1,0,0:0:0:0:
256,192,53134,1,0,0:0:0:0:
256,192,53209,1,0,0:0:0:0:
256,192,53284,1,8,0:0:0:0:
256,192,53434,1,0,0:0:0:0:
256,192,53584,1,8,0:0:0:0:
256,192,53659,1,0,0:0:0:0:
256,192,53809,1,8,0:0:0:0:
256,192,53884,1,8,0:0:0:0:
256,192,53959,1,8,0:0:0:0:
256,192,54034,1,0,0:0:0:0:
256,192,54184,1,0,0:0:0:0:
256,192,54259,1,0,0:0:0:0:
256,192,54334,1,8,0:0:0:0:
256,192,54484,1,0,0:0:0:0:
256,192,54634,1,8,0:0:0:0:
256,192,54784,1,8,0:0:0:0:
256,192,54859,1,0,0:0:0:0:
256,192,55009,1,0,0:0:0:0:
256,192,55084,1,0,0:0:0:0:
256,192,55234,1,0,0:0:0:0:
256,192,55384,1,0,0:0:0:0:
256,192,55459,1,8,0:0:0:0:
256,192,55534,1,8,0:0:0:0:
256,192,55609,1,0,0:0:0:0:
256,192,55684,1,8,0:0:0:0:
256,192,55834,1,8,0:0:0:0:
256,192,55909,1,8,0:0:0:0:
256,192,55984,1,0,0:0:0:0:
256,192,56059,1,8,0:0:0:0:
256,192,56134,1,0,0:0:0:0:
256,192,56209,1,8,0:0:0:0:
256,192,56284,1,8,0:0:0:0:
256,192,56359,1,0,0:0:0:0:
256,192,56434,1,0,0:0:0:0:
256,192,56509,1,8,0:0:0:0:
256,192,56584,1,8,0:0:0:0:
256,192,56659,1,8,0:0:0:0:
256,192,56734,1,0,0:0:0:0:
256,192,56809,1,8,0:0:0:0:
256,192,56884,1,0,0:0:0:0:
256,192,56959,1,8,0:0:0:0:
256,192,57034,1,0,0:0:0:0:
256,192,57109,1,0,0:0:0:0:
256,192,57184,1,8,0:0:0:0:
256,192,57259,1,0,0:0:0:0:
256,192,57334,1,8,0:0:0:0:
256,192,57409,1,8,0:0:0:0:
256,192,57484,1,0,0:0:0:0:
256,192,57559,1,8,0:0:0:0:
256,192,57634,1,0,0:0:0:0:
256,192,57709,1,8,0:0:0:0:
256,192,57784,1,8,0:0:0:0:
256,192,57859,1,0,0:0:0:0:
256,192,57934,1,0,0:0:0:0:
256,192,58009,1,0,0:0:0:0:
256,192,58084,1,8,0:0:0:0:
256,192,58234,1,8,0:0:0:0:
256,192,58309,1,0,0:0:0:0:
256,192,58384,1,0,0:0:0:0:
256,192,58459,1,0,0:0:0:0:
256,192,58534,1,8,0:0:0:0:
256,192,58609,1,8,0:0:0:0:
256,192,58684,1,0,0:0:0:0:
256,192,58759,1,0,0:0:0:0:
256,192,58834,1,8,0:0:0:0:
256,192,58909,1,0,0:0:0:0:
256,192,58984,1,8,0:0:0:0:
256,192,59059,1,0,0:0:0:0:
256,192,59134,1,8,0:0:0:0:
256,192,59209,1,8,0:0:0:0:
256,192,59284,1,8,0:0:0:0:
256,192,59359,1,8,0:0:0:0:
256,192,59434,1,0,0:0:0:0:
256,192,59509,1,0,0:0:0:0:
256,192,59584,1,8,0:0:0:0:
256,192,59659,1,8,0:0:0:0:
256,192,59734,1,0,0:0:0:0:
256,192,59809,1,8,0:0:0:0:
256,192,59884,1,8,0:0:0:0:
256,192,59959,1,8,0:0:0:0:
256,192,60034,1,0,0:0:0:0:
256,192,60084,1,0,0:0:0:0:
256,192,60134,1,0,0:0:0:0:
256,192,60184,1,8,0:0:0:0:
256,192,60259,1,8,0:0:0:0:
256,192,60334,1,0,0:0:0:0:
256,192,60384,1,0,0:0:0:0:
256,192,60434,1,0,0:0:0:0:
256,192,60484,1,8,0:0:0:0:
256,192,60634,1,4,0:0:0:0:
256,192,60784,1,0,0:0:0:0:
256,192,60859,1,8,0:0:0:0:
256,192,60934,1,0,0:0:0:0:
256,192,61084,1,0,0:0:0:0:
256,192,61234,1,8,0:0:0:0:
256,192,61309,1,8,0:0:0:0:
256,192,61384,1,0,0:0:0:0:
256,192,61459,1,8,0:0:0:0:
256,192,61534,1,0,0:0:0:0:
256,192,61609,1,0,0:0:0:0:
256,192,61684,1,8,0:0:0:0:
256,192,61759,1,8,0:0:0:0:
256,192,61834,1,0,0:0:0:0:
256,192,61984,1,0,0:0:0:0:
256,192,62059,1,8,0:0:0:0:
256,192,62134,1,0,0:0:0:0:
256,192,62284,1,0,0:0:0:0:
256,192,62434,1,0,0:0:0:0:
256,192,62509,1,8,0:0:0:0:
256,192,62584,1,8,0:0:0:0:
256,192,62659,1,0,0:0:0:0:
256,192,62734,1,8,0:0:0:0:
256,192,62809,1,0,0:0:0:0:
256,192,62884,1,8,0:0:0:0:
256,192,62959,1,8,0:0:0:0:
256,192,63034,1,0,0:0:0:0:
256,192,63184,1,0,0:0:0:0:
256,192,63259,1,8,0:0:0:0:
256,192,63334,1,0,0:0:0:0:
256,192,63484,1,0,0:0:0:0:
256,192,63634,1,8,0:0:0:0:
256,192,63709,1,8,0:0:0:0:
256,192,63784,1,0,0:0:0:0:
256,192,63859,1,0,0:0:0:0:
256,192,63934,1,8,0:0:0:0:
256,192,64009,1,0,0:0:0:0:
256,192,64084,1,0,0:0:0:0:
256,192,64159,1,8,0:0:0:0:
256,192,64234,1,0,0:0:0:0:
256,192,64384,1,0,0:0:0:0:
256,192,64459,1,8,0:0:0:0:
256,192,64534,1,0,0:0:0:0:
256,192,64684,1,0,0:0:0:0:
256,192,64834,1,0,0:0:0:0:
256,192,64909,1,0,0:0:0:0:
256,192,64984,1,8,0:0:0:0:
256,192,65059,1,0,0:0:0:0:
256,192,65134,1,8,0:0:0:0:
256,192,65209,1,8,0:0:0:0:
256,192,65284,1,0,0:0:0:0:
256,192,65359,1,0,0:0:0:0:
256,192,65434,1,8,0:0:0:0:
256,192,65584,1,0,0:0:0:0:
256,192,65659,1,0,0:0:0:0:
256,192,65734,1,0,0:0:0:0:
256,192,65884,1,8,0:0:0:0:
256,192,66034,1,8,0:0:0:0:
256,192,66109,1,0,0:0:0:0:
256,192,66184,1,0,0:0:0:0:
256,192,66259,1,0,0:0:0:0:
256,192,66334,1,8,0:0:0:0:
256,192,66409,1,8,0:0:0:0:
256,192,66484,1,0,0:0:0:0:
256,192,66559,1,0,0:0:0:0:
256,192,66634,1,8,0:0:0:0:
256,192,66784,1,0,0:0:0:0:
256,192,66859,1,0,0:0:0:0:
256,192,66934,1,0,0:0:0:0:
256,192,67084,1,8,0:0:0:0:
256,192,67234,1,0,0:0:0:0:
256,192,67309,1,8,0:0:0:0:
256,192,67384,1,0,0:0:0:0:
256,192,67459,1,0,0:0:0:0:
256,192,67534,1,8,0:0:0:0:
256,192,67609,1,8,0:0:0:0:
256,192,67684,1,0,0:0:0:0:
256,192,67759,1,0,0:0:0:0:
256,192,67834,1,8,0:0:0:0:
256,192,67984,1,0,0:0:0:0:
256,192,68059,1,0,0:0:0:0:
256,192,68134,1,0,0:0:0:0:
256,192,68284,1,8,0:0:0:0:
256,192,68434,1,8,0:0:0:0:
256,192,68509,1,0,0:0:0:0:
256,192,68584,1,8,0:0:0:0:
256,192,68659,1,0,0:0:0:0:
256,192,68734,1,8,0:0:0:0:
256,192,68809,1,8,0:0:0:0:
256,192,68884,1,0,0:0:0:0:
256,192,68959,1,0,0:0:0:0:
256,192,69034,1,8,0:0:0:0:
256,192,69184,1,0,0:0:0:0:
256,192,69259,1,0,0:0:0:0:
256,192,69334,1,0,0:0:0:0:
256,192,69484,1,8,0:0:0:0:
256,192,69634,1,8,0:0:0:0:
256,192,69734,1,8,0:0:0:0:
256,192,69834,1,0,0:0:0:0:
256,192,69934,1,8,0:0:0:0:
256,192,70034,1,0,0:0:0:0:
256,192,70134,1,0,0:0:0:0:
256,192,70234,1,0,0:0:0:0:
256,192,70834,1,8,0:0:0:0:
256,192,71134,1,8,0:0:0:0:
256,192,71434,1,0,0:0:0:0:
256,192,72034,1,0,0:0:0:0:
256,192,72634,1,8,0:0:0:0:
256,192,73234,1,0,0:0:0:0:
256,192,73534,1,8,0:0:0:0:
256,192,73834,1,0,0:0:0:0:
256,192,74434,1,0,0:0:0:0:
256,192,74734,1,0,0:0:0:0:
256,192,75034,1,8,0:0:0:0:
256,192,75634,1,8,0:0:0:0:
256,192,75934,1,0,0:0:0:0:
256,192,76234,1,8,0:0:0:0:
256,192,76834,1,8,0:0:0:0:
256,192,77434,1,0,0:0:0:0:
256,192,78034,1,8,0:0:0:0:
256,192,78334,1,0,0:0:0:0:
256,192,78634,1,0,0:0:0:0:
256,192,79234,1,8,0:0:0:0:
256,192,79334,1,8,0:0:0:0:
256,192,79434,1,0,0:0:0:0:
256,192,79534,1,8,0:0:0:0:
256,192,79634,1,0,0:0:0:0:
256,192,79734,1,0,0:0:0:0:
256,192,79834,1,0,0:0:0:0:
256,192,80134,1,0,0:0:0:0:
256,192,80434,1,8,0:0:0:0:
256,192,80734,1,0,0:0:0:0:
256,192,80834,1,0,0:0:0:0:
256,192,80934,1,0,0:0:0:0:
256,192,81034,1,8,0:0:0:0:
256,192,81334,1,0,0:0:0:0:
256,192,81634,1,8,0:0:0:0:
256,192,81934,1,0,0:0:0:0:
256,192,82034,1,8,0:0:0:0:
256,192,82134,1,8,0:0:0:0:
256,192,82234,1,8,0:0:0:0:
256,192,82534,1,8,0:0:0:0:
256,192,82834,1,0,0:0:0:0:
256,192,83134,1,8,0:0:0:0:
256,192,83234,1,8,0:0:0:0:
256,192,83334,1,8,0:0:0:0:
256,192,83434,1,0,0:0:0:0:
256,192,83734,1,8,0:0:0:0:
256,192,83834,1,0,0:0:0:0:
256,192,83934,1,0,0:0:0:0:
256,192,84034,1,8,0:0:0:0:
256,192,84134,1,0,0:0:0:0:
256,192,84234,1,0,0:0:0:0:
256,192,84334,1,8,0:0:0:0:
256,192,84434,1,0,0:0:0:0:
256,192,84534,1,0,0:0:0:0:
256,192,84634,1,8,0:0:0:0:
256,192,84934,1,0,0:0:0:0:
256,192,85234,1,8,0:0:0:0:
256,192,85534,1,8,0:0:0:0:
256,192,85834,1,0,0:0:0:0:
256,192,86134,1,8,0:0:0:0:
256,192,86434,1,0,0:0:0:0:
256,192,86734,1,8,0:0:0:0:
256,192,86934,1,8,0:0:0:0:
256,192,87034,1,0,0:0:0:0:
256,192,87334,1,0,0:0:0:0:
256,192,87484,1,0,0:0:0:0:
256,192,87634,1,8,0:0:0:0:
256,192,87934,1,8,0:0:0:0:
256,192,88034,1,0,0:0:0:0:
256,192,88134,1,0,0:0:0:0:
256,192,88234,1,0,0:0:0:0:
256,192,88534,1,0,0:0:0:0:
256,192,88684,1,8,0:0:0:0:
256,192,88834,1,0,0:0:0:0:
256,192,89134,1,8,0:0:0:0:
256,192,89234,1,8,0:0:0:0:
256,192,89334,1,8,0:0:0:0:
256,192,89434,1,0,0:0:0:0:
256,192,89584,1,0,0:0:0:0:
256,192,89734,1,8,0:0:0:0:
256,192,89884,1,8,0:0:0:0:
256,192,90034,1,0,0:0:0:0:
256,192,90184,1,8,0:0:0:0:
256,192,90334,1,8,0:0:0:0:
256,192,90484,1,0,0:0:0:0:
256,192,90634,1,8,0:0:0:0:
256,192,90734,1,8,0:0:0:0:
256,192,90834,1,0,0:0:0:0:
256,192,90934,1,8,0:0:0:0:
256,192,91034,1,0,0:0:0:0:
256,192,91134,1,0,0:0:0:0:
256,192,91234,1,8,0:0:0:0:
256,192,91334,1,0,0:0:0:0:
256,192,91434,1,8,0:0:0:0:
256,192,91534,1,0,0:0:0:0:
256,192,91634,1,0,0:0:0:0:
256,192,91734,1,8,0:0:0:0:
256,192,91834,1,0,0:0:0:0:
256,192,91984,12,0,93034,0:0:0:0:
256,192,93784,5,0,0:0:0:0:
256,192,93934,1,0,0:0:0:0:
256,192,94084,1,0,0:0:0:0:
256,192,94234,1,12,0:0:0:0:
256,192,94384,1,0,0:0:0:0:
256,192,94459,1,0,0:0:0:0:
256,192,94534,1,0,0:0:0:0:
256,192,94684,1,0,0:0:0:0:
256,192,94759,1,0,0:0:0:0:
256,192,94834,1,8,0:0:0:0:
256,192,94984,1,0,0:0:0:0:
256,192,95059,1,8,0:0:0:0:
256,192,95134,1,8,0:0:0:0:
256,192,95284,1,0,0:0:0:0:
256,192,95434,1,8,0:0:0:0:
256,192,95509,1,8,0:0:0:0:
256,192,95584,1,8,0:0:0:0:
256,192,95659,1,8,0:0:0:0:
256,192,95734,1,0,0:0:0:0:
256,192,95884,1,8,0:0:0:0:
256,192,96034,1,0,0:0:0:0:
256,192,96109,1,8,0:0:0:0:
256,192,96184,1,0,0:0:0:0:
256,192,96259,1,8,0:0:0:0:
256,192,96334,1,8,0:0:0:0:
256,192,96484,1,0,0:0:0:0:
256,192,96634,1,8,0:0:0:0:
256,192,96784,1,0,0:0:0:0:
256,192,96859,1,8,0:0:0:0:
256,192,96934,1,0,0:0:0:0:
256,192,97084,1,0,0:0:0:0:
256,192,97234,1,8,0:0:0:0:
256,192,97309,1,0,0:0:0:0:
256,192,97384,1,0,0:0:0:0:
256,192,97459,1,0,0:0:0:0:
256,192,97534,1,8,0:0:0:0:
256,192,97609,1,0,0:0:0:0:
256,192,97684,1,8,0:0:0:0:
256,192,97759,1,0,0:0:0:0:
256,192,97834,1,8,0:0:0:0:
256,192,97984,1,8,0:0:0:0:
256,192,98059,1,8,0:0:0:0:
256,192,98134,1,0,0:0:0:0:
256,192,98284,1,8,0:0:0:0:
256,192,98434,1,0,0:0:0:0:
256,192,98509,1,0,0:0:0:0:
256,192,98584,1,8,0:0:0:0:
256,192,98659,1,8,0:0:0:0:
256,192,98734,1,0,0:0:0:0:
256,192,98784,1,0,0:0:0:0:
256,192,98834,1,0,0:0:0:0:
256,192,98884,1,0,0:0:0:0:
256,192,98934,1,0,0:0:0:0:
256,192,98984,1,0,0:0:0:0:
256,192,99034,1,8,0:0:0:0:
256,192,99184,1,0,0:0:0:0:
256,192,99259,1,0,0:0:0:0:
256,192,99334,1,0,0:0:0:0:
256,192,99484,1,8,0:0:0:0:
256,192,99634,1,8,0:0:0:0:
256,192,99784,1,8,0:0:0:0:
256,192,99859,1,8,0:0:0:0:
256,192,99934,1,0,0:0:0:0:
256,192,100084,1,0,0:0:0:0:
256,192,100234,1,8,0:0:0:0:
256,192,100384,1,8,0:0:0:0:
256,192,100459,1,0,0:0:0:0:
256,192,100609,1,8,0:0:0:0:
256,192,100684,1,0,0:0:0:0:
256,192,100759,1,0,0:0:0:0:
256,192,100834,1,8,0:0:0:0:
256,192,100984,1,0,0:0:0:0:
256,192,101134,1,8,0:0:0:0:
256,192,101209,1,8,0:0:0:0:
256,192,101284,1,8,0:0:0:0:
256,192,101359,1,8,0:0:0:0:
256,192,101434,1,0,0:0:0:0:
256,192,101584,1,8,0:0:0:0:
256,192,101659,1,8,0:0:0:0:
256,192,101734,1,0,0:0:0:0:
256,192,101884,1,8,0:0:0:0:
256,192,101959,1,0,0:0:0:0:
256,192,102034,1,8,0:0:0:0:
256,192,102184,1,0,0:0:0:0:
256,192,102259,1,0,0:0:0:0:
256,192,102334,1,8,0:0:0:0:
256,192,102484,1,0,0:0:0:0:
256,192,102634,1,12,0:0:0:0:
256,192,102784,1,12,0:0:0:0:
256,192,102934,1,12,0:0:0:0:
256,192,103084,1,12,0:0:0:0:
256,192,103234,1,4,0:0:0:0:
256,192,103534,1,8,0:0:0:0:
256,192,103584,1,0,0:0:0:0:
256,192,103634,1,0,0:0:0:0:
256,192,103684,1,8,0:0:0:0:
256,192,103734,1,0,0:0:0:0:
256,192,103784,1,0,0:0:0:0:
256,192,103834,1,8,0:0:0:0:
256,192,103984,1,0,0:0:0:0:
256,192,104059,1,0,0:0:0:0:
256,192,104134,1,0,0:0:0:0:
256,192,104284,1,0,0:0:0:0:
256,192,104359,1,0,0:0:0:0:
256,192,104434,1,8,0:0:0:0:
256,192,104584,1,0,0:0:0:0:
256,192,104659,1,8,0:0:0:0:
256,192,104734,1,8,0:0:0:0:
256,192,104884,1,0,0:0:0:0:
256,192,105034,1,8,0:0:0:0:
256,192,105109,1,8,0:0:0:0:
256,192,105184,1,8,0:0:0:0:
256,192,105259,1,8,0:0:0:0:
256,192,105334,1,0,0:0:0:0:
256,192,105484,1,8,0:0:0:0:
256,192,105634,1,0,0:0:0:0:
256,192,105709,1,8,0:0:0:0:
256,192,105784,1,0,0:0:0:0:
256,192,105859,1,8,0:0:0:0:
256,192,105934,1,8,0:0:0:0:
256,192,106084,1,0,0:0:0:0:
256,192,106234,1,8,0:0:0:0:
256,192,106384,1,0,0:0:0:0:
256,192,106459,1,8,0:0:0:0:
256,192,106534,1,0,0:0:0:0:
256,192,106684,1,0,0:0:0:0:
256,192,106834,1,8,0:0:0:0:
256,192,106909,1,0,0:0:0:0:
256,192,106984,1,0,0:0:0:0:
256,192,107059,1,0,0:0:0:0:
256,192,107134,1,8,0:0:0:0:
256,192,107209,1,0,0:0:0:0:
256,192,107284,1,8,0:0:0:0:
256,192,107359,1,0,0:0:0:0:
256,192,107434,1,8,0:0:0:0:
256,192,107584,1,0,0:0:0:0:
256,192,107659,1,8,0:0:0:0:
256,192,107734,1,8,0:0:0:0:
256,192,107884,1,8,0:0:0:0:
256,192,108034,1,8,0:0:0:0:
256,192,108109,1,0,0:0:0:0:
256,192,108184,1,0,0:0:0:0:
256,192,108259,1,0,0:0:0:0:
256,192,108334,1,8,0:0:0:0:
256,192,108384,1,8,0:0:0:0:
256,192,108434,1,0,0:0:0:0:
256,192,108484,1,8,0:0:0:0:
256,192,108534,1,8,0:0:0:0:
256,192,108584,1,0,0:0:0:0:
256,192,108634,1,8,0:0:0:0:
256,192,108784,1,0,0:0:0:0:
256,192,108859,1,8,0:0:0:0:
256,192,108934,1,0,0:0:0:0:
256,192,109084,1,8,0:0:0:0:
256,192,109234,1,0,0:0:0:0:
256,192,109309,1,0,0:0:0:0:
256,192,109384,1,0,0:0:0:0:
256,192,109534,1,0,0:0:0:0:
256,192,109684,1,8,0:0:0:0:
256,192,109834,1,8,0:0:0:0:
256,192,109909,1,8,0:0:0:0:
256,192,109984,1,0,0:0:0:0:
256,192,110059,1,0,0:0:0:0:
256,192,110134,1,8,0:0:0:0:
256,192,110209,1,0,0:0:0:0:
256,192,110284,1,0,0:0:0:0:
256,192,110359,1,0,0:0:0:0:
256,192,110434,1,8,0:0:0:0:
256,192,110484,1,8,0:0:0:0:
256,192,110534,1,8,0:0:0:0:
256,192,110584,1,0,0:0:0:0:
256,192,110659,1,0,0:0:0:0:
256,192,110734,1,8,0:0:0:0:
256,192,110784,1,8,0:0:0:0:
256,192,110834,1,8,0:0:0:0:
256,192,110884,1,0,0:0:0:0:
256,192,111034,1,4,0:0:0:0:
256,192,111184,1,0,0:0:0:0:
256,192,111259,1,8,0:0:0:0:
256,192,111334,1,0,0:0:0:0:
256,192,111484,1,0,0:0:0:0:
256,192,111634,1,8,0:0:0:0:
256,192,111709,1,8,0:0:0:0:
256,192,111784,1,0,0:0:0:0:
256,192,111859,1,8,0:0:0:0:
256,192,111934,1,0,0:0:0:0:
256,192,112009,1,0,0:0:0:0:
256,192,112084,1,8,0:0:0:0:
256,192,112159,1,8,0:0:0:0:
256,192,112234,1,0,0:0:0:0:
256,192,112384,1,0,0:0:0:0:
256,192,112459,1,8,0:0:0:0:
256,192,112534,1,0,0:0:0:0:
256,192,112684,1,0,0:0:0:0:
256,192,112834,1,0,0:0:0:0:
256,192,112909,1,8,0:0:0:0:
256,192,112984,1,8,0:0:0:0:
256,192,113059,1,0,0:0:0:0:
256,192,113134,1,8,0:0:0:0:
256,192,113209,1,0,0:0:0:0:
256,192,113284,1,8,0:0:0:0:
256,192,113359,1,8,0:0:0:0:
256,192,113434,1,0,0:0:0:0:
256,192,113584,1,0,0:0:0:0:
256,192,113659,1,8,0:0:0:0:
256,192,113734,1,0,0:0:0:0:
256,192,113884,1,0,0:0:0:0:
256,192,114034,1,8,0:0:0:0:
256,192,114109,1,8,0:0:0:0:
256,192,114184,1,0,0:0:0:0:
256,192,114259,1,0,0:0:0:0:
256,192,114334,1,8,0:0:0:0:
256,192,114409,1,0,0:0:0:0:
256,192,114484,1,0,0:0:0:0:
256,192,114559,1,8,0:0:0:0:
256,192,114634,1,0,0:0:0:0:
256,192,114784,1,0,0:0:0:0:
256,192,114859,1,8,0:0:0:0:
256,192,114934,1,0,0:0:0:0:
256,192,115084,1,0,0:0:0:0:
256,192,115234,1,0,0:0:0:0:
256,192,115334,1,0,0:0:0:0:
256,192,115434,1,0,0:0:0:0:
256,192,115534,1,8,0:0:0:0:
256,192,115634,1,8,0:0:0:0:
256,192,115734,1,8,0:0:0:0:
256,192,115834,1,0,0:0:0:0:
256,192,115909,1,0,0:0:0:0:
256,192,115984,1,8,0:0:0:0:
256,192,116059,1,0,0:0:0:0:
256,192,116134,1,8,0:0:0:0:
256,192,116209,1,8,0:0:0:0:
256,192,116284,1,0,0:0:0:0:
256,192,116359,1,0,0:0:0:0:
256,192,116434,1,8,0:0:0:0:
256,192,116484,1,8,0:0:0:0:
256,192,116534,1,8,0:0:0:0:
256,192,116584,1,0,0:0:0:0:
256,192,116659,1,8,0:0:0:0:
256,192,116734,1,0,0:0:0:0:
256,192,116784,1,0,0:0:0:0:
256,192,116834,1,0,0:0:0:0:
256,192,116884,1,8,0:0:0:0:
256,192,117034,1,8,0:0:0:0:
256,192,117109,1,0,0:0:0:0:
256,192,117184,1,0,0:0:0:0:
256,192,117259,1,0,0:0:0:0:
256,192,117334,1,8,0:0:0:0:
256,192,117409,1,8,0:0:0:0:
256,192,117484,1,0,0:0:0:0:
256,192,117559,1,8,0:0:0:0:
256,192,117634,1,0,0:0:0:0:
256,192,117684,1,0,0:0:0:0:
256,192,117734,1,0,0:0:0:0:
256,192,117784,1,8,0:0:0:0:
256,192,117859,1,0,0:0:0:0:
256,192,117934,1,8,0:0:0:0:
256,192,117984,1,8,0:0:0:0:
256,192,118034,1,8,0:0:0:0:
256,192,118084,1,0,0:0:0:0:
256,192,118234,1,0,0:0:0:0:
256,192,118309,1,8,0:0:0:0:
256,192,118384,1,0,0:0:0:0:
256,192,118459,1,8,0:0:0:0:
256,192,118534,1,0,0:0:0:0:
256,192,118609,1,0,0:0:0:0:
256,192,118684,1,8,0:0:0:0:
256,192,118759,1,8,0:0:0:0:
256,192,118834,1,0,0:0:0:0:
256,192,118884,1,8,0:0:0:0:
256,192,118934,1,0,0:0:0:0:
256,192,118984,1,8,0:0:0:0:
256,192,119034,1,0,0:0:0:0:
256,192,119084,1,8,0:0:0:0:
256,192,119134,1,0,0:0:0:0:
256,192,119209,1,8,0:0:0:0:
256,192,119284,1,0,0:0:0:0:
256,192,119434,1,12,0:0:0:0:
256,192,120034,1,4,0:0:0:0:
256,192,120634,1,4,0:0:0:0:
256,192,120934,1,8,0:0:0:0:
256,192,121234,1,8,0:0:0:0:
256,192,121534,1,0,0:0:0:0:
256,192,121834,1,0,0:0:0:0:
256,192,122134,1,8,0:0:0:0:
256,192,122434,1,0,0:0:0:0:
256,192,122734,1,0,0:0:0:0:
256,192,123034,1,8,0:0:0:0:
256,192,123334,1,8,0:0:0:0:
256,192,123634,1,0,0:0:0:0:
256,192,123934,1,0,0:0:0:0:
256,192,124234,1,8,0:0:0:0:
256,192,124534,1,0,0:0:0:0:
256,192,124684,1,0,0:0:0:0:
256,192,124834,1,8,0:0:0:0:
256,192,124984,1,0,0:0:0:0:
256,192,125134,1,8,0:0:0:0:
256,192,125284,1,0,0:0:0:0:
256,192,125434,1,8,0:0:0:0:
256,192,126934,1,8,0:0:0:0:
256,192,127684,1,8,0:0:0:0:
256,192,128059,1,0,0:0:0:0:
256,192,128434,1,0,0:0:0:0:
256,192,129184,1,8,0:0:0:0:
256,192,129934,1,0,0:0:0:0:
256,192,130121,12,0,132934,0:0:0:0:
