osu file format v14

[General]
AudioFilename: audio.mp3
AudioLeadIn: 0
PreviewTime: 53143
Countdown: 0
SampleSet: Soft
StackLeniency: 0.7
Mode: 2
LetterboxInBreaks: 0
WidescreenStoryboard: 1

[Editor]
DistanceSpacing: 1.1
BeatDivisor: 4
GridSize: 32
TimelineZoom: 1

[Metadata]
Title:Otomodachi Film (TV Size)
TitleUnicode:オトモダチフィルム (TV Size)
Artist:Ooishi Masayoshi
ArtistUnicode:オーイシマサヨシ
Creator:Ascendance
Version:Platter
Source:多田くんは恋をしない
Tags:anime op opening nepuri kun never falls in love tada-kun wa koi wo shinai tada jemzuu ajamez japanese
BeatmapID:2262368
BeatmapSetID:1081496

[Difficulty]
HPDrainRate:5
CircleSize:3.5
OverallDifficulty:8
ApproachRate:8
SliderMultiplier:1.6
SliderTickRate:2

[Events]
//Background and Video events
0,0,"wonjae.jpg",0,0
//Break Periods
//Storyboard Layer 0 (Background)
//Storyboard Layer 1 (Fail)
//Storyboard Layer 2 (Pass)
//Storyboard Layer 3 (Foreground)
//Storyboard Layer 4 (Overlay)
//Storyboard Sound Samples

[TimingPoints]
763,379.746835443038,4,2,2,60,1,0
3420,-100,4,2,3,60,0,0
5130,-100,4,2,2,60,0,0
6079,-100,4,2,1,89,0,0
6269,-100,4,2,2,89,0,0
6649,-90.9090909090909,4,2,1,89,0,0
9306,-90.9090909090909,4,2,2,89,0,0
9687,-90.9090909090909,4,2,1,89,0,0
11965,-90.9090909090909,4,2,2,89,0,0
12344,-90.9090909090909,4,2,1,89,0,0
12914,-100,4,2,1,89,0,0
13104,-100,4,2,1,61,0,0
13294,-100,4,2,7,61,0,0
13483,-100,4,2,1,61,0,0
13674,-100,4,2,2,61,0,0
17281,-100,4,2,1,90,0,0
18990,-90.9090909090909,4,2,1,90,0,0
23357,-158.730158730159,4,2,1,90,0,0
24687,-158.730158730159,4,2,3,90,0,0
25066,-100,4,2,2,60,0,0
29433,-100,4,2,1,89,0,0
31142,-90.9090909090909,4,2,1,89,0,0
33421,-90.9090909090909,4,3,2,89,0,0
33610,-90.9090909090909,4,2,1,89,0,0
35509,-100,4,2,1,89,0,0
38168,-100,4,2,2,89,0,0
40446,-100,4,2,7,89,0,0
40635,-100,4,2,2,89,0,0
42344,-100,4,3,2,60,0,0
43103,-100,4,2,2,89,0,0
44433,-100,4,2,3,89,0,0
44813,-100,4,2,1,89,0,0
45002,-100,4,2,2,89,0,0
47661,-90.9090909090909,4,2,1,89,0,0
49940,-90.9090909090909,4,2,2,89,0,0
50319,-90.9090909090909,4,2,1,89,0,0
50699,-90.9090909090909,4,2,3,89,0,0
51078,-90.9090909090909,4,2,1,89,0,0
51269,-90.9090909090909,4,2,2,89,0,0
51458,-90.9090909090909,4,2,1,89,0,0
51649,-90.9090909090909,4,2,2,89,0,0
51838,-90.9090909090909,4,2,1,89,0,0
52028,-90.9090909090909,4,2,2,89,0,0
52598,-90.9090909090909,4,2,5,89,0,0
52978,-90.9090909090909,4,2,1,89,0,0
53547,-90.9090909090909,4,2,2,89,0,0
53736,-90.9090909090909,4,2,1,89,0,0
53927,-83.3333333333333,4,2,4,91,0,1
54497,-83.3333333333333,4,2,1,91,0,1
54687,-83.3333333333333,4,2,11,91,0,1
55066,-83.3333333333333,4,2,4,91,0,1
55446,-83.3333333333333,4,2,12,91,0,1
55636,-83.3333333333333,4,2,1,91,0,1
55825,-83.3333333333333,4,2,4,91,0,1
56206,-83.3333333333333,4,2,14,91,0,1
56395,-83.3333333333333,4,2,1,91,0,1
56585,-83.3333333333333,4,2,4,91,0,1
56774,-83.3333333333333,4,2,1,91,0,1
56965,-83.3333333333333,4,2,13,91,0,1
57344,-83.3333333333333,4,2,4,91,0,1
58294,-83.3333333333333,4,2,2,91,0,1
58673,-83.3333333333333,4,2,1,91,0,1
58864,-83.3333333333333,4,2,4,91,0,1
59053,-83.3333333333333,4,2,1,91,0,1
59623,-83.3333333333333,4,2,4,91,0,1
59812,-83.3333333333333,4,2,1,91,0,1
60763,-83.3333333333333,4,3,2,91,0,1
61142,-83.3333333333333,4,2,4,91,0,1
61331,-83.3333333333333,4,2,1,91,0,1
62281,-83.3333333333333,4,3,2,91,0,1
62375,-83.3333333333333,4,2,2,91,0,1
62470,-83.3333333333333,4,2,1,91,0,1
62661,-83.3333333333333,4,2,4,91,0,1
63041,-83.3333333333333,4,2,1,91,0,1
63420,-83.3333333333333,4,2,2,91,0,1
63611,-83.3333333333333,4,2,1,91,0,1
63800,-83.3333333333333,4,2,2,91,0,1
64180,-83.3333333333333,4,2,1,91,0,1
64939,-83.3333333333333,4,2,2,91,0,1
65130,-83.3333333333333,4,2,1,91,0,1
65699,-83.3333333333333,4,2,7,91,0,1
65889,-83.3333333333333,4,2,4,91,0,1
66649,-83.3333333333333,4,2,1,91,0,1
66838,-83.3333333333333,4,2,13,91,0,1
67218,-83.3333333333333,4,2,4,91,0,1
67598,-83.3333333333333,4,2,11,91,0,1
67788,-83.3333333333333,4,2,1,91,0,1
67977,-83.3333333333333,4,2,4,91,0,1
68167,-83.3333333333333,4,2,12,91,0,1
68357,-83.3333333333333,4,2,14,91,0,1
68546,-83.3333333333333,4,2,1,91,0,1
68736,-83.3333333333333,4,2,4,91,0,1
68927,-83.3333333333333,4,2,1,91,0,1
69117,-83.3333333333333,4,2,12,91,0,1
69306,-83.3333333333333,4,2,1,91,0,1
69497,-83.3333333333333,4,2,4,91,0,1
69686,-83.3333333333333,4,2,1,91,0,1
69876,-83.3333333333333,4,2,4,91,0,1
70446,-83.3333333333333,4,2,2,91,0,1
70825,-83.3333333333333,4,2,12,91,0,1
71016,-83.3333333333333,4,2,11,91,0,1
71205,-83.3333333333333,4,2,13,91,0,1
71585,-83.3333333333333,4,2,4,91,0,1
71774,-83.3333333333333,4,2,12,91,0,1
71869,-83.3333333333333,4,2,4,91,0,1
72155,-83.3333333333333,4,2,1,91,0,1
72535,-83.3333333333333,4,2,2,91,0,1
73104,-83.3333333333333,4,2,1,91,0,1
73294,-83.3333333333333,4,2,4,91,0,1
73483,-83.3333333333333,4,2,1,91,0,1
73674,-83.3333333333333,4,2,13,91,0,1
74054,-83.3333333333333,4,2,3,91,0,1
74623,-83.3333333333333,4,2,1,91,0,1
74813,-83.3333333333333,4,2,4,91,0,1
75193,-83.3333333333333,4,2,1,91,0,1
75573,-83.3333333333333,4,2,3,91,0,1
75762,-83.3333333333333,4,2,1,91,0,1
75952,-83.3333333333333,4,3,2,91,0,1
76332,-83.3333333333333,4,2,3,91,0,1
76521,-83.3333333333333,4,2,1,91,0,1
76712,-83.3333333333333,4,2,3,91,0,1
77091,-83.3333333333333,4,2,1,91,0,1
78041,-90.9090909090909,4,2,4,91,0,1
78610,-90.9090909090909,4,2,2,91,0,1
78800,-90.9090909090909,4,2,14,91,0,1
78894,-90.9090909090909,4,2,1,91,0,1
80130,-90.9090909090909,4,2,13,91,0,1
80319,-90.9090909090909,4,2,11,91,0,1
80509,-90.9090909090909,4,2,4,91,0,1
81269,-100,4,2,2,91,0,1
82788,-100,4,2,1,90,0,0
83357,-100,4,2,2,90,0,0
84117,-90.9090909090909,4,2,1,90,0,0
84307,-90.9090909090909,4,2,1,91,0,0
86395,-90.9090909090909,4,2,2,91,0,0
86585,-90.9090909090909,4,2,1,91,0,0
86774,-90.9090909090909,4,2,2,91,0,0
86964,-90.9090909090909,4,2,1,91,0,0
87345,-90.9090909090909,4,2,3,91,0,0

[Colours]
Combo1 : 210,210,0
Combo2 : 0,128,128
Combo3 : 0,128,0
Combo4 : 0,128,64

[HitObjects]
418,93,763,5,8,0:0:0:0:
225,268,1332,2,0,L|216:185,1,80,2|8,0:0|0:0,0:0:0:0:
475,316,1712,1,2,0:0:0:0:
331,220,2092,2,0,L|158:246,2,160,10|2|2,0:0|0:0|0:0,0:0:0:0:
55,57,3041,5,8,0:0:0:0:
144,82,3231,1,0,0:0:0:0:
157,119,3294,1,0,0:0:0:0:
161,159,3420,1,8,0:0:0:0:
55,57,3611,1,0,0:0:0:0:
347,179,3800,6,0,B|395:193|395:193|502:142,1,160,8|2,0:0|0:0,0:0:0:0:
415,292,4370,1,0,0:0:0:0:
224,369,4560,2,0,L|223:262,1,80,8|10,0:0|0:0,0:0:0:0:
337,336,4940,1,0,0:0:0:0:
43,162,5130,5,14,0:0:0:0:
297,26,6079,5,8,0:3:0:0:
185,176,6269,1,8,0:0:0:0:
179,136,6363,1,8,0:0:0:0:
173,96,6458,1,8,0:0:0:0:
485,350,6649,6,0,P|474:263|385:229,1,176.000005371094,6|2,0:0|0:0,0:0:0:0:
303,257,7218,1,8,0:0:0:0:
187,335,7408,2,0,L|181:247,1,88.000002685547,2|0,0:0|0:0,0:0:0:0:
295,151,7788,2,0,L|297:243,1,88.000002685547,2|8,0:0|0:0,0:0:0:0:
85,187,8168,6,0,P|23:141|44:52,1,176.000005371094,2|2,0:0|0:0,0:0:0:0:
238,9,8737,1,8,0:0:0:0:
124,54,8927,2,0,L|309:54,1,176.000005371094,2|8,0:0|0:0,0:0:0:0:
314,258,9497,1,8,0:0:0:0:
40,365,9687,6,0,P|26:267|101:208,1,176.000005371094,12|2,0:0|0:0,0:0:0:0:
181,208,10256,1,8,0:0:0:0:
289,255,10446,2,0,L|306:159,1,88.000002685547,2|0,0:0|0:0,0:0:0:0:
195,356,10826,2,0,L|170:266,1,88.000002685547,2|8,0:0|0:0,0:0:0:0:
431,288,11206,6,0,P|485:226|441:129,1,176.000005371094,6|8,0:0|0:0,0:0:0:0:
355,114,11775,1,8,0:0:0:0:
76,218,11965,2,0,P|26:168|78:69,1,176.000005371094,6|8,0:0|0:0,0:0:0:0:
164,57,12535,1,8,0:0:0:0:
59,15,12725,1,8,0:0:0:0:
318,110,12914,5,6,0:0:0:0:
427,264,13104,2,0,L|436:86,1,160,2|2,0:0|0:0,0:0:0:0:
301,234,13674,2,0,L|298:334,1,80,2|0,0:0|0:0,0:0:0:0:
416,196,14054,1,8,0:0:0:0:
194,76,14244,5,8,0:0:0:0:
351,26,14623,1,2,0:0:0:0:
251,83,14813,2,0,L|254:173,1,80,8|0,0:0|0:0,0:0:0:0:
371,197,15193,1,2,0:0:0:0:
251,247,15383,1,0,0:0:0:0:
371,197,15573,1,8,0:0:0:0:
171,113,15763,5,8,0:0:0:0:
366,50,16142,2,0,L|467:65,2,80,2|8|2,0:0|0:0|0:0,0:0:0:0:
236,98,16712,1,8,0:3:0:0:
366,232,16902,2,0,L|370:132,1,80,0|8,3:0|0:0,0:0:0:0:
99,358,17281,6,0,P|34:313|49:228,1,160,6|2,0:0|0:0,0:0:0:0:
181,200,17851,2,0,L|185:99,1,80,10|2,0:0|0:0,0:0:0:0:
75,80,18231,1,10,0:0:0:0:
276,182,18421,1,2,0:0:0:0:
312,167,18515,1,0,0:0:0:0:
332,133,18610,1,8,0:0:0:0:
329,94,18705,1,8,0:0:0:0:
302,65,18800,1,8,0:0:0:0:
42,194,18990,6,0,L|43:288,1,88.000002685547,6|0,0:0|0:0,0:0:0:0:
238,323,19370,1,8,0:0:0:0:
125,285,19560,2,0,P|65:240|82:146,1,176.000005371094,2|2,0:0|0:0,0:0:0:0:
179,113,20130,1,8,0:0:0:0:
367,63,20319,6,0,L|183:63,1,176.000005371094,6|2,0:0|0:0,0:0:0:0:
183,192,20889,1,8,0:0:0:0:
479,331,21079,2,0,P|486:238|404:192,1,176.000005371094,6|0,0:0|0:0,0:0:0:0:
312,212,21649,1,8,0:0:0:0:
426,164,21838,1,0,0:0:0:0:
196,357,22028,6,0,L|184:255,1,88.000002685547,6|2,0:0|0:0,0:0:0:0:
297,292,22408,1,8,0:0:0:0:
127,249,22598,2,0,P|96:169|173:97,1,176.000005371094,2|0,0:0|0:0,0:0:0:0:
280,104,23168,1,8,0:0:0:0:
487,44,23357,5,10,0:0:0:0:
296,135,23737,2,0,L|298:196,1,50.3999984619141,8|2,0:0|0:0,0:0:0:0:
487,44,24117,1,8,0:0:0:0:
287,51,24497,1,8,0:0:0:0:
487,44,24687,2,0,L|485:110,1,50.3999984619141,8|0,0:0|0:0,0:0:0:0:
225,194,25066,5,6,0:0:0:0:
124,318,25256,2,0,L|124:233,1,80,2|8,0:0|0:0,0:0:0:0:
226,188,25636,1,2,0:0:0:0:
474,347,25826,2,0,L|479:180,1,160,2|8,0:0|0:0,0:0:0:0:
316,135,26395,5,2,0:0:0:0:
170,234,26775,1,2,0:0:0:0:
280,259,26965,2,0,L|286:344,1,80,8|0,0:0|0:0,0:0:0:0:
170,234,27345,1,2,0:0:0:0:
281,259,27535,2,0,L|285:343,1,80,2|8,0:0|0:0,0:0:0:0:
51,152,27914,5,8,0:0:0:0:
226,52,28294,1,2,0:0:0:0:
346,141,28484,2,0,L|348:45,1,80,8|2,0:0|0:0,0:0:0:0:
233,188,28864,1,2,0:0:0:0:
346,189,29054,1,8,0:0:0:0:
463,190,29244,1,8,0:0:0:0:
207,354,29433,6,0,P|124:306|134:232,1,160,4|2,0:0|0:0,0:0:0:0:
267,129,30003,2,0,L|272:232,1,80,8|2,0:0|0:0,0:0:0:0:
161,118,30383,1,2,0:0:0:0:
342,24,30573,1,0,0:0:0:0:
380,34,30667,1,0,0:0:0:0:
408,61,30762,1,8,0:0:0:0:
420,99,30857,1,8,0:0:0:0:
413,138,30952,1,8,0:0:0:0:
161,231,31142,6,0,L|44:252,2,88.000002685547,4|2|8,0:0|0:0|0:0,0:0:0:0:
291,296,31712,2,0,L|487:331,1,176.000005371094,2|2,0:0|0:0,0:0:0:0:
396,276,32281,1,8,0:0:0:0:
208,362,32471,6,0,P|168:313|241:218,1,176.000005371094,4|2,0:0|0:0,0:0:0:0:
325,212,33041,1,8,0:0:0:0:
63,197,33231,2,0,P|19:164|87:68,1,176.000005371094,6|0,0:0|0:0,0:0:0:0:
166,61,33800,1,10,0:0:0:0:
53,46,33990,1,0,0:0:0:0:
267,153,34180,6,0,L|360:141,2,88.000002685547,6|2|8,0:0|0:0|0:0,0:0:0:0:
136,212,34750,2,0,L|335:250,1,176.000005371094,2|2,0:0|0:0,0:0:0:0:
401,271,35319,1,8,0:0:0:0:
123,355,35509,6,0,P|38:288|63:220,1,160,4|8,0:0|0:3,0:0:0:0:
162,149,36079,2,0,L|164:237,1,80,8|2,0:3|0:0,0:0:0:0:
57,129,36459,2,0,L|56:34,1,80,8|2,0:3|0:0,0:0:0:0:
159,19,36838,1,8,0:3:0:0:
413,83,37028,5,4,0:0:0:0:
260,150,37408,1,2,0:0:0:0:
255,189,37502,1,0,0:0:0:0:
251,229,37597,1,8,0:0:0:0:
400,253,37788,1,2,0:0:0:0:
405,292,37882,1,0,0:0:0:0:
409,332,37977,1,8,0:0:0:0:
97,340,38168,2,2,L|87:178,1,160,14|0,0:0|0:0,0:0:0:0:
275,229,38737,6,0,B|336:247|336:247|439:210,3,160,2|2|10|2,0:0|0:0|0:0|0:0,0:0:0:0:
217,99,40256,2,0,L|50:125,1,160,2|2,0:0|0:0,0:0:0:0:
234,194,41016,2,0,L|427:223,1,160,8|2,0:0|0:0,0:0:0:0:
392,217,41585,1,2,0:0:0:0:
211,350,41775,5,10,0:0:0:0:
130,312,41964,1,2,0:0:0:0:
128,235,42154,1,2,0:0:0:0:
208,192,42344,1,0,0:3:0:0:
313,253,42535,2,0,L|312:164,1,80,8|0,0:3|0:0,0:0:0:0:
177,177,42914,2,0,L|179:273,1,80,4|2,0:0|0:0,0:0:0:0:
454,100,43294,5,2,0:0:0:0:
286,60,43674,1,8,0:0:0:0:
454,100,44054,1,2,0:0:0:0:
454,100,44433,2,0,L|455:190,1,80,10|0,0:0|0:0,0:0:0:0:
187,355,44813,5,6,0:0:0:0:
108,308,45002,1,0,0:0:0:0:
110,230,45192,1,2,0:0:0:0:
191,183,45382,1,0,0:0:0:0:
279,189,45573,2,0,L|281:283,1,80,8|0,0:0|0:0,0:0:0:0:
191,183,45952,2,2,L|189:91,1,80
386,319,46332,6,0,P|449:274|424:196,1,160,2|2,0:0|0:0,0:0:0:0:
332,187,46902,1,0,0:0:0:0:
441,127,47092,1,8,0:3:0:0:
332,187,47281,1,4,0:3:0:0:
441,127,47471,1,4,0:3:0:0:
184,33,47661,6,0,L|1:34,1,176.000005371094,6|2,0:0|0:0,0:0:0:0:
116,73,48231,1,8,0:0:0:0:
294,72,48421,2,0,P|341:99|311:220,1,176.000005371094,6|2,0:0|0:0,0:0:0:0:
219,232,48990,1,8,0:0:0:0:
480,358,49180,6,0,P|483:273|409:227,1,176.000005371094,4|2,0:0|0:0,0:0:0:0:
314,260,49750,1,8,0:0:0:0:
45,359,49940,2,0,P|42:274|116:228,1,176.000005371094,4|2,0:0|0:0,0:0:0:0:
206,261,50510,1,8,0:0:0:0:
483,365,50699,6,0,L|483:167,1,176.000005371094,4|2,0:0|0:0,0:0:0:0:
357,188,51269,2,2,L|359:89,1,88.000002685547,10|2,0:0|0:0,0:0:0:0:
227,283,51649,2,0,L|229:179,1,88.000002685547,8|2,0:0|0:0,0:0:0:0:
344,341,52028,1,8,0:0:0:0:
74,230,52218,5,8,0:0:0:0:
212,183,52598,1,12,0:0:0:0:
60,233,52978,1,8,0:0:0:0:
165,294,53168,2,0,L|255:275,1,88.000002685547,10|8,0:0|0:0,0:0:0:0:
371,301,53547,2,0,L|425:314,2,44.0000013427735,8|0|10,0:0|0:0|0:0,0:0:0:0:
116,355,53927,6,0,P|55:295|120:193,1,191.999994140625,4|8,0:0|0:0,0:0:0:0:
197,182,54497,1,2,0:0:0:0:
309,190,54687,2,0,L|310:306,1,95.9999970703126,2|0,0:0|0:0,0:0:0:0:
197,182,55066,2,0,L|198:82,1,95.9999970703126,8|0,0:0|0:0,0:0:0:0:
99,50,55446,5,2,0:0:0:0:
301,172,55636,2,0,L|302:76,1,95.9999970703126,2|8,0:0|0:0,0:0:0:0:
399,25,56016,1,0,0:0:0:0:
294,127,56206,2,0,L|191:111,1,95.9999970703126,2|2,0:0|0:0,0:0:0:0:
302,227,56585,2,0,L|398:217,1,95.9999970703126,8|2,0:0|0:0,0:0:0:0:
194,334,56965,6,0,B|108:353|108:353|4:303,2,191.999994140625,2|8|2,0:0|0:0|0:0,0:0:0:0:
322,355,57914,2,0,L|437:338,1,95.9999970703126,2|8,0:3|0:0,0:0:0:0:
135,274,58294,6,0,P|67:221|125:118,1,191.999994140625,4|0,0:0|0:0,0:0:0:0:
210,105,58864,2,0,L|314:106,1,95.9999970703126,8|2,0:0|0:0,0:0:0:0:
156,313,59244,2,0,L|141:208,1,95.9999970703126,2|2,0:0|0:0,0:0:0:0:
269,270,59623,2,0,L|287:388,1,95.9999970703126,8|2,0:0|0:0,0:0:0:0:
177,223,60003,5,2,0:0:0:0:
68,210,60193,1,0,0:0:0:0:
377,150,60383,2,0,L|383:46,1,95.9999970703126,12|2,0:0|0:0,0:0:0:0:
267,157,60763,2,0,L|264:260,1,95.9999970703126,0|0,0:3|0:0,0:0:0:0:
377,152,61142,2,0,L|380:40,1,95.9999970703126,8|2,0:0|0:0,0:0:0:0:
272,21,61522,5,2,0:0:0:0:
160,9,61712,1,0,0:0:0:0:
424,151,61902,2,0,L|428:254,1,95.9999970703126,12|0,0:0|0:0,0:0:0:0:
302,222,62281,2,0,L|242:234,2,47.9999985351563,0|0|2,0:0|0:0|0:0,0:0:0:0:
412,168,62661,2,0,L|472:180,2,47.9999985351563,8|2|2,0:0|0:0|0:0,0:0:0:0:
236,47,63041,6,0,P|165:80|181:202,1,191.999994140625,2|12,0:0|0:0,0:0:0:0:
280,206,63611,1,2,0:0:0:0:
14,366,63800,2,0,L|12:270,1,95.9999970703126,8|4,0:0|0:3,0:0:0:0:
138,246,64180,1,2,0:0:0:0:
21,180,64370,1,4,0:3:0:0:
324,338,64560,6,0,P|403:273|362:171,1,191.999994140625,4|8,0:0|0:0,0:0:0:0:
224,128,65130,2,0,L|29:149,2,191.999994140625,2|2|8,0:0|0:0|0:0,0:0:0:0:
490,247,66079,6,0,P|501:142|410:99,1,191.999994140625,4|8,0:0|0:0,0:0:0:0:
336,124,66649,1,2,0:0:0:0:
237,199,66838,2,0,L|234:98,1,95.9999970703126,2|0,0:0|0:0,0:0:0:0:
362,262,67218,2,0,L|247:263,1,95.9999970703126,8|0,0:0|0:0,0:0:0:0:
161,260,67598,5,2,0:0:0:0:
375,356,67788,1,2,0:0:0:0:
429,285,67977,1,8,0:0:0:0:
375,214,68167,1,2,0:0:0:0:
286,189,68357,2,0,L|169:210,2,95.9999970703126,2|2|8,0:0|0:0|0:0,0:0:0:0:
367,109,68927,1,2,0:0:0:0:
181,141,69117,6,0,L|180:42,1,95.9999970703126,2|2,0:0|0:0,0:0:0:0:
297,157,69497,2,0,L|298:270,1,95.9999970703126,8|2,0:0|0:0,0:0:0:0:
183,284,69876,1,8,0:0:0:0:
289,272,70066,1,8,0:0:0:0:
183,284,70256,1,4,0:3:0:0:
463,354,70446,6,0,P|474:269|392:211,1,191.999994140625,4|10,0:0|0:0,0:0:0:0:
289,272,71016,2,0,L|187:251,2,95.9999970703126,8|2|8,0:0|0:0|0:3,0:0:0:0:
177,110,71585,1,0,0:0:0:0:
130,120,71679,1,0,0:0:0:0:
97,154,71774,1,8,0:0:0:0:
87,200,71869,1,8,0:0:0:0:
104,244,71964,1,4,0:3:0:0:
219,274,72155,5,4,0:0:0:0:
98,333,72345,1,0,0:0:0:0:
381,337,72535,1,12,0:0:0:0:
284,279,72725,1,8,0:3:0:0:
281,231,72819,1,8,0:3:0:0:
278,183,72914,1,4,0:3:0:0:
381,129,73104,1,2,0:0:0:0:
298,177,73294,2,0,L|162:163,1,95.9999970703126,8|2,0:0|0:0,0:0:0:0:
304,273,73674,5,2,0:0:0:0:
430,252,73864,1,0,0:0:0:0:
169,356,74054,1,12,0:0:0:0:
63,289,74244,1,8,0:3:0:0:
67,241,74338,1,8,0:3:0:0:
72,193,74433,1,4,0:3:0:0:
187,147,74623,1,2,0:0:0:0:
64,139,74813,1,10,0:0:0:0:
68,91,74907,1,2,0:0:0:0:
73,43,75002,1,0,0:0:0:0:
214,52,75193,6,0,L|317:40,1,95.9999970703126,6|0,0:0|0:0,0:0:0:0:
32,302,75573,2,0,L|29:193,1,95.9999970703126,12|2,0:0|0:0,0:0:0:0:
134,162,75952,1,0,0:0:0:0:
20,105,76142,1,0,0:0:0:0:
347,249,76332,2,0,L|449:234,1,95.9999970703126,12|2,0:0|0:0,0:0:0:0:
174,359,76712,6,0,P|111:300|149:201,1,191.999994140625,10|10,0:0|0:0,0:0:0:0:
290,152,77281,2,0,L|494:178,1,191.999994140625,10|2,0:0|0:0,0:0:0:0:
401,123,77851,1,8,0:0:0:0:
135,28,78041,6,0,P|59:75|123:225,1,264.000008056641,4|8,0:0|0:0,0:0:0:0:
264,315,78800,1,2,0:0:0:0:
265,271,78894,1,4,0:3:0:0:
266,227,78989,1,4,0:3:0:0:
141,250,79180,2,0,L|141:363,1,88.000002685547,8|4,0:3|0:3,0:0:0:0:
398,281,79560,6,0,P|472:212|427:129,1,176.000005371094,4|2,0:0|0:0,0:0:0:0:
327,106,80130,2,0,L|227:99,1,88.000002685547,10|2,0:0|0:0,0:0:0:0:
402,258,80509,1,8,0:0:0:0:
442,242,80603,1,0,0:0:0:0:
471,209,80698,1,8,0:0:0:0:
479,167,80793,1,0,0:0:0:0:
466,125,80888,1,8,0:0:0:0:
435,96,80983,1,0,0:0:0:0:
392,85,81078,1,8,0:0:0:0:
206,24,81269,6,0,P|129:71|176:196,1,240,4|2,0:0|0:0,0:0:0:0:
312,255,82028,2,0,L|61:251,1,240,2|0,0:0|0:0,0:0:0:0:
209,342,82788,5,2,0:0:0:0:
452,264,83357,1,8,0:0:0:0:
353,250,83737,1,0,0:0:0:0:
452,264,83927,1,8,0:0:0:0:
176,279,84117,6,0,P|101:211|137:135,1,176.000005371094,4|2,0:0|0:0,0:0:0:0:
212,119,84687,1,8,0:0:0:0:
306,142,84876,2,0,L|309:240,1,88.000002685547,2|2,0:0|0:0,0:0:0:0:
210,197,85256,2,0,L|100:195,1,88.000002685547,2|8,0:0|0:0,0:0:0:0:
308,278,85636,6,0,L|495:290,2,176.000005371094,6|2|6,0:0|0:0|0:0,0:0:0:0:
100,350,86585,1,2,0:0:0:0:
33,298,86774,1,8,0:0:0:0:
36,213,86964,1,8,0:0:0:0:
108,168,87155,1,0,0:0:0:0:
376,256,87345,6,0,L|384:51,1,176.000005371094,14|10,0:0|0:0,0:0:0:0:
265,130,87914,1,2,0:0:0:0:
486,314,88104,2,0,L|487:220,1,88.000002685547,8|10,0:0|0:0,0:0:0:0:
390,193,88484,1,2,0:0:0:0:
118,177,88674,5,14,0:0:0:0:
