osu file format v14

[General]
AudioFilename: audio.mp3
AudioLeadIn: 0
PreviewTime: 53143
Countdown: 0
SampleSet: Soft
StackLeniency: 0.7
Mode: 2
LetterboxInBreaks: 0
WidescreenStoryboard: 0

[Editor]
DistanceSpacing: 1.1
BeatDivisor: 4
GridSize: 32
TimelineZoom: 1

[Metadata]
Title:Otomodachi Film (TV Size)
TitleUnicode:オトモダチフィルム (TV Size)
Artist:Ooishi Masayoshi
ArtistUnicode:オーイシマサヨシ
Creator:Ascendance
Version:Ba! Badu wa! Ba ba duwa ba! Ba ba duwa ba!
Source:多田くんは恋をしない
Tags:anime op opening nepuri kun never falls in love tada-kun wa koi wo shinai tada jemzuu ajamez japanese
BeatmapID:2262367
BeatmapSetID:1081496

[Difficulty]
HPDrainRate:7
CircleSize:4.2
OverallDifficulty:9.2
ApproachRate:9.2
SliderMultiplier:2.4
SliderTickRate:2

[Events]
//Background and Video events
0,0,"wonjae.jpg",0,0
//Break Periods
//Storyboard Layer 0 (Background)
//Storyboard Layer 1 (Fail)
//Storyboard Layer 2 (Pass)
//Storyboard Layer 3 (Foreground)
//Storyboard Layer 4 (Overlay)
//Storyboard Sound Samples

[TimingPoints]
763,379.746835443038,4,2,2,60,1,0
3421,-100,4,2,3,60,0,0
5130,-100,4,2,2,60,0,0
5225,-100,4,2,2,40,0,0
5699,-100,4,2,2,20,0,0
6079,-100,4,2,1,89,0,0
6269,-100,4,2,2,89,0,0
6649,-90.9090909090909,4,2,1,89,0,0
9307,-90.9090909090909,4,2,2,89,0,0
9687,-90.9090909090909,4,2,1,89,0,0
11965,-90.9090909090909,4,2,2,89,0,0
12344,-90.9090909090909,4,2,1,89,0,0
12914,-100,4,2,1,89,0,0
13104,-100,4,2,1,61,0,0
13294,-100,4,2,7,61,0,0
13483,-100,4,2,1,61,0,0
13674,-100,4,2,2,61,0,0
17281,-100,4,2,1,90,0,0
18990,-90.9090909090909,4,2,1,90,0,0
23357,-100,4,2,1,90,0,0
24687,-100,4,2,3,90,0,0
25066,-100,4,2,2,60,0,0
29433,-100,4,2,1,89,0,0
31142,-90.9090909090909,4,2,1,89,0,0
33421,-90.9090909090909,4,3,2,89,0,0
33610,-90.9090909090909,4,2,1,89,0,0
35225,-90.9090909090909,4,2,2,89,0,0
35319,-90.9090909090909,4,2,1,89,0,0
35509,-100,4,2,1,89,0,0
38168,-100,4,2,2,89,0,0
40446,-100,4,2,7,89,0,0
40635,-100,4,2,2,89,0,0
42344,-100,4,3,2,60,0,0
43104,-100,4,2,2,89,0,0
44433,-100,4,2,3,89,0,0
44813,-100,4,2,1,89,0,0
45002,-100,4,2,2,89,0,0
47661,-90.9090909090909,4,2,1,89,0,0
49940,-90.9090909090909,4,2,2,89,0,0
50319,-90.9090909090909,4,2,1,89,0,0
50699,-90.9090909090909,4,2,3,89,0,0
51078,-90.9090909090909,4,2,1,89,0,0
51269,-90.9090909090909,4,2,2,89,0,0
51458,-90.9090909090909,4,2,1,89,0,0
51649,-90.9090909090909,4,2,2,89,0,0
51838,-90.9090909090909,4,2,1,89,0,0
52028,-90.9090909090909,4,2,2,89,0,0
52598,-90.9090909090909,4,2,5,89,0,0
52978,-90.9090909090909,4,2,1,89,0,0
53547,-90.9090909090909,4,2,2,89,0,0
53737,-90.9090909090909,4,2,1,89,0,0
53927,-83.3333333333333,4,2,4,91,0,1
54497,-83.3333333333333,4,2,1,91,0,1
54687,-83.3333333333333,4,2,11,91,0,1
55066,-83.3333333333333,4,2,4,91,0,1
55446,-83.3333333333333,4,2,12,91,0,1
55636,-83.3333333333333,4,2,1,91,0,1
55825,-83.3333333333333,4,2,4,91,0,1
56206,-83.3333333333333,4,2,14,91,0,1
56395,-83.3333333333333,4,2,1,91,0,1
56585,-83.3333333333333,4,2,4,91,0,1
56774,-83.3333333333333,4,2,1,91,0,1
56965,-83.3333333333333,4,2,13,91,0,1
57154,-83.3333333333333,4,2,1,91,0,1
57344,-83.3333333333333,4,2,4,91,0,1
57535,-83.3333333333333,4,2,1,91,0,1
57725,-83.3333333333333,4,2,4,91,0,1
58294,-83.3333333333333,4,2,2,91,0,1
58674,-83.3333333333333,4,2,1,91,0,1
58864,-83.3333333333333,4,2,4,91,0,1
59054,-83.3333333333333,4,2,1,91,0,1
59623,-83.3333333333333,4,2,4,91,0,1
59812,-83.3333333333333,4,2,1,91,0,1
60763,-83.3333333333333,4,3,2,91,0,1
61142,-83.3333333333333,4,2,4,91,0,1
61331,-83.3333333333333,4,2,1,91,0,1
62281,-83.3333333333333,4,3,2,91,0,1
62471,-83.3333333333333,4,2,1,91,0,1
62661,-83.3333333333333,4,2,4,91,0,1
63041,-83.3333333333333,4,2,1,91,0,1
63421,-83.3333333333333,4,2,2,91,0,1
63610,-83.3333333333333,4,2,1,91,0,1
63706,-83.3333333333333,4,2,2,91,0,1
64180,-83.3333333333333,4,2,1,91,0,1
64844,-83.3333333333333,4,2,2,91,0,1
65130,-83.3333333333333,4,2,1,91,0,1
65699,-83.3333333333333,4,2,7,91,0,1
65889,-83.3333333333333,4,2,4,91,0,1
66649,-83.3333333333333,4,2,1,91,0,1
66838,-83.3333333333333,4,2,13,91,0,1
67218,-83.3333333333333,4,2,4,91,0,1
67598,-83.3333333333333,4,2,11,91,0,1
67788,-83.3333333333333,4,2,1,91,0,1
67978,-83.3333333333333,4,2,4,91,0,1
68167,-83.3333333333333,4,2,12,91,0,1
68357,-83.3333333333333,4,2,14,91,0,1
68547,-83.3333333333333,4,2,1,91,0,1
68737,-83.3333333333333,4,2,4,91,0,1
68926,-83.3333333333333,4,2,1,91,0,1
69117,-83.3333333333333,4,2,12,91,0,1
69211,-83.3333333333333,4,2,2,91,0,1
69307,-83.3333333333333,4,2,1,91,0,1
69497,-83.3333333333333,4,2,4,91,0,1
69591,-83.3333333333333,4,2,1,91,0,1
69876,-83.3333333333333,4,2,4,91,0,1
70446,-83.3333333333333,4,2,2,91,0,1
70825,-83.3333333333333,4,2,12,91,0,1
71016,-83.3333333333333,4,2,11,91,0,1
71205,-83.3333333333333,4,2,13,91,0,1
71585,-83.3333333333333,4,2,4,91,0,1
71775,-83.3333333333333,4,2,12,91,0,1
71869,-83.3333333333333,4,2,4,91,0,1
72059,-83.3333333333333,4,2,1,91,0,1
72535,-83.3333333333333,4,2,2,91,0,1
73104,-83.3333333333333,4,2,1,91,0,1
73294,-83.3333333333333,4,2,4,91,0,1
73483,-83.3333333333333,4,2,1,91,0,1
73674,-83.3333333333333,4,2,13,91,0,1
74054,-83.3333333333333,4,2,3,91,0,1
74622,-83.3333333333333,4,2,1,91,0,1
74813,-83.3333333333333,4,2,4,91,0,1
75193,-83.3333333333333,4,2,1,91,0,1
75573,-83.3333333333333,4,2,3,91,0,1
75762,-83.3333333333333,4,2,1,91,0,1
75952,-83.3333333333333,4,3,2,91,0,1
76332,-83.3333333333333,4,2,3,91,0,1
76522,-83.3333333333333,4,2,1,91,0,1
76712,-83.3333333333333,4,2,3,91,0,1
77091,-83.3333333333333,4,2,1,91,0,1
78041,-90.9090909090909,4,2,4,91,0,1
78420,-90.9090909090909,4,2,11,91,0,1
78611,-90.9090909090909,4,2,2,91,0,1
78800,-90.9090909090909,4,2,14,91,0,1
78894,-90.9090909090909,4,2,1,91,0,1
80130,-90.9090909090909,4,2,13,91,0,1
80319,-90.9090909090909,4,2,11,91,0,1
80414,-90.9090909090909,4,2,4,91,0,1
81269,-100,4,2,2,91,0,1
82788,-100,4,2,1,90,0,0
83357,-100,4,2,2,90,0,0
84117,-90.9090909090909,4,2,1,90,0,0
84307,-90.9090909090909,4,2,1,91,0,0
86395,-90.9090909090909,4,2,2,91,0,0
86585,-90.9090909090909,4,2,1,91,0,0
86774,-90.9090909090909,4,2,2,91,0,0
86965,-90.9090909090909,4,2,1,91,0,0
87345,-90.9090909090909,4,2,3,91,0,0

[Colours]
Combo1 : 210,210,0
Combo2 : 0,128,128
Combo3 : 0,128,0
Combo4 : 0,128,64

[HitObjects]
82,173,763,5,8,0:0:0:0:
422,141,1332,1,2,0:0:0:0:
290,120,1522,2,0,L|434:103,1,120,8|2,0:0|0:0,0:0:0:0:
168,225,2092,2,0,L|409:247,2,240,10|2|2,0:0|0:0|0:0,0:0:0:0:
349,139,3041,1,8,0:0:0:0:
28,140,3421,1,8,0:0:0:0:
465,121,3800,6,0,L|465:255,1,120,8|0,0:0|0:0,0:0:0:0:
316,150,4180,2,0,L|186:150,1,120,2|0,0:0|0:0,0:0:0:0:
472,67,4560,2,0,L|345:67,2,120,8|10|0,0:0|0:0|0:0,0:0:0:0:
128,22,5130,5,14,0:0:0:0:
256,192,5225,12,8,6079,0:3:0:0:
171,186,6269,6,0,L|101:186,1,60,8|8,0:0|0:0,0:0:0:0:
340,248,6459,2,0,L|415:247,1,60,8|0,0:0|0:0,0:0:0:0:
91,349,6649,6,0,P|40:291|92:222,1,132.00000402832,6|0,0:0|0:0,0:0:0:0:
213,119,7028,2,0,L|212:253,1,132.00000402832,2|8,0:0|0:0,0:0:0:0:
40,87,7408,2,0,L|180:73,1,132.00000402832,2|0,0:0|0:0,0:0:0:0:
325,220,7788,2,0,L|169:207,1,132.00000402832,2|8,0:0|0:0,0:0:0:0:
448,73,8168,6,0,L|181:97,1,264.000008056641,2|2,0:0|0:0,0:0:0:0:
497,207,8737,1,8,0:0:0:0:
149,335,8927,2,0,P|76:263|150:194,1,198.000006042481,2|0,0:0|0:0,0:0:0:0:
334,171,9307,2,0,L|423:172,1,66.0000020141602,8|0,0:0|0:0,0:0:0:0:
161,90,9497,2,0,L|70:90,1,66.0000020141602,8|0,0:0|0:0,0:0:0:0:
375,27,9687,6,0,L|375:172,1,132.00000402832,12|0,0:0|0:0,0:0:0:0:
219,108,10066,2,0,L|54:108,1,132.00000402832,2|8,0:0|0:0,0:0:0:0:
246,198,10446,2,0,L|381:199,1,132.00000402832,2|0,0:0|0:0,0:0:0:0:
174,65,10826,2,0,L|163:203,1,132.00000402832,2|8,0:0|0:0,0:0:0:0:
462,17,11206,6,0,L|156:35,1,264.000008056641,6|8,0:0|0:0,0:0:0:0:
493,105,11775,1,8,0:0:0:0:
182,245,11965,2,0,L|452:217,1,264.000008056641,6|8,0:0|0:0,0:0:0:0:
373,200,12440,1,0,0:0:0:0:
141,144,12535,2,0,L|55:153,1,66.0000020141602,8|8,0:0|0:0,0:0:0:0:
304,90,12725,2,0,L|395:76,1,66.0000020141602,8|8,0:0|0:0,0:0:0:0:
118,30,12914,5,6,0:0:0:0:
259,7,13104,2,0,P|326:23|326:183,1,240,2|2,0:0|0:0,0:0:0:0:
198,227,13674,2,0,L|482:195,1,240,2|8,0:0|0:0,0:0:0:0:
118,108,14244,1,8,0:0:0:0:
334,60,14623,2,0,L|188:37,1,120,2|8,0:0|0:0,0:0:0:0:
36,175,15193,1,2,0:0:0:0:
176,201,15383,2,0,L|35:219,1,120,0|8,0:0|0:0,0:0:0:0:
346,314,15763,5,8,0:0:0:0:
154,350,16142,2,0,L|167:226,1,120,2|8,0:0|0:0,0:0:0:0:
303,214,16522,1,2,0:0:0:0:
111,177,16712,1,8,0:3:0:0:
226,156,16902,1,0,3:0:0:0:
49,80,17092,1,8,0:0:0:0:
375,1,17281,6,0,L|111:21,1,240,6|2,0:0|0:0,0:0:0:0:
430,207,17851,2,0,L|439:69,1,120,10|2,0:0|0:0,0:0:0:0:
126,198,18231,1,10,0:0:0:0:
256,214,18421,2,0,L|344:213,1,60,2|0,0:0|0:0,0:0:0:0:
115,166,18611,1,8,0:0:0:0:
67,133,18705,1,8,0:0:0:0:
66,75,18800,1,8,0:0:0:0:
112,40,18895,1,8,0:0:0:0:
327,17,18990,6,0,L|327:155,1,132.00000402832,6|0,0:0|0:0,0:0:0:0:
183,88,19370,1,8,0:0:0:0:
450,258,19560,2,0,L|154:269,1,264.000008056641,2|2,0:0|0:0,0:0:0:0:
353,353,20130,1,8,0:0:0:0:
36,352,20319,6,0,P|26:259|181:167,1,264.000008056641,6|2,0:0|0:0,0:0:0:0:
461,187,20889,1,8,0:0:0:0:
94,90,21079,2,0,L|393:75,1,264.000008056641,6|0,0:0|0:0,0:0:0:0:
196,233,21649,2,0,P|145:155|213:90,1,198.000006042481,8|0,0:0|0:0,0:0:0:0:
442,325,22028,6,0,L|306:300,2,132.00000402832,6|2|8,0:0|0:0|0:0,0:0:0:0:
266,187,22598,2,0,L|0:220,1,264.000008056641,2|0,0:0|0:0,0:0:0:0:
139,289,23168,1,8,0:0:0:0:
408,334,23357,1,10,0:0:0:0:
218,255,23737,1,8,0:0:0:0:
331,232,23927,1,2,0:0:0:0:
72,97,24117,1,8,0:0:0:0:
309,70,24497,1,8,0:0:0:0:
162,13,24687,2,0,P|97:45|125:147,1,180,8|0,0:0|0:0,0:0:0:0:
330,172,25066,5,6,0:0:0:0:
203,177,25256,2,0,L|192:303,2,120,2|8|2,0:0|0:0|0:0,0:0:0:0:
386,248,25826,2,0,P|464:195|417:78,1,240,2|8,0:0|0:0,0:0:0:0:
170,60,26395,1,2,0:0:0:0:
419,71,26775,2,0,L|292:48,1,120,2|8,0:0|0:0,0:0:0:0:
135,167,27345,1,2,0:0:0:0:
243,144,27535,1,2,0:0:0:0:
79,89,27725,1,8,0:0:0:0:
424,234,27914,5,8,0:0:0:0:
227,312,28294,2,0,L|221:181,1,120,2|8,0:0|0:0,0:0:0:0:
358,339,28674,1,2,0:0:0:0:
150,216,28864,1,2,0:0:0:0:
301,130,29054,1,8,0:0:0:0:
176,149,29244,1,8,0:0:0:0:
502,278,29433,6,0,L|226:257,1,240,4|2,0:0|0:0,0:0:0:0:
13,162,30003,2,0,L|132:145,1,120,8|2,0:0|0:0,0:0:0:0:
451,79,30383,1,2,0:0:0:0:
283,93,30573,2,8,L|278:24,1,60
456,216,30763,1,8,0:0:0:0:
503,182,30857,1,8,0:0:0:0:
502,125,30952,1,8,0:0:0:0:
455,92,31047,1,8,0:0:0:0:
290,86,31142,6,0,L|129:87,2,132.00000402832,4|2|8,0:0|0:0|0:0,0:0:0:0:
40,309,31712,2,0,P|40:183|178:130,1,264.000008056641,2|2,0:0|0:0,0:0:0:0:
305,128,32281,1,8,0:0:0:0:
42,48,32471,6,0,L|331:44,1,264.000008056641,4|2,0:0|0:0,0:0:0:0:
15,18,33041,1,8,0:0:0:0:
315,292,33231,2,0,P|411:260|400:114,1,264.000008056641,6|0,0:0|0:0,0:0:0:0:
231,145,33800,2,0,P|186:73|274:11,1,198.000006042481,10|0,0:0|0:0,0:0:0:0:
479,34,34180,5,6,0:0:0:0:
345,33,34370,1,2,0:0:0:0:
208,23,34560,1,8,0:0:0:0:
349,45,34750,2,0,L|420:45,1,66.0000020141602,2|8,0:0|0:0,0:0:0:0:
214,140,34940,2,0,L|64:142,1,132.00000402832,8|2,0:0|0:0,0:0:0:0:
150,169,35225,1,8,0:0:0:0:
363,206,35319,2,0,L|446:207,1,66.0000020141602,8|0,0:0|0:0,0:0:0:0:
156,361,35509,6,0,P|77:303|184:197,1,240,4|8,0:0|0:3,0:0:0:0:
273,192,36079,1,8,0:3:0:0:
133,181,36269,2,0,L|199:180,1,60,2|2,0:0|0:0,0:0:0:0:
455,175,36459,2,0,L|314:175,2,120,8|2|8,0:3|0:0|0:3,0:0:0:0:
170,337,37028,6,0,P|95:293|147:170,1,240,4|2,0:0|0:0,0:0:0:0:
208,165,37503,1,0,0:0:0:0:
411,168,37598,1,8,0:0:0:0:
263,170,37788,2,0,L|177:171,1,60,2|0,0:0|0:0,0:0:0:0:
426,196,37978,1,8,0:0:0:0:
162,309,38168,2,2,P|69:256|156:131,1,240,14|2,0:0|0:0,0:0:0:0:
366,41,38737,6,0,L|366:166,1,120,2|0,0:0|0:0,0:0:0:0:
227,147,39117,2,0,L|227:272,1,120,2|0,0:0|0:0,0:0:0:0:
401,147,39497,2,0,L|278:126,1,120,10|0,0:0|0:0,0:0:0:0:
150,294,39876,2,0,L|276:268,1,120,2|0,0:0|0:0,0:0:0:0:
102,128,40256,2,0,L|351:150,2,240,2|2|8,0:0|0:0|0:0,0:0:0:0:
306,36,41395,2,0,L|308:161,1,120,2|2,0:0|0:0,0:0:0:0:
135,311,41775,5,10,0:0:0:0:
42,243,41964,1,2,0:0:0:0:
50,128,42154,1,2,0:0:0:0:
152,75,42344,1,0,0:3:0:0:
341,75,42535,1,8,0:3:0:0:
205,75,42725,1,0,0:0:0:0:
341,75,42914,1,4,0:0:0:0:
205,75,43104,1,2,0:0:0:0:
483,79,43294,2,0,L|225:58,2,240,2|8|2,0:0|0:0|0:0,0:0:0:0:
276,189,44433,2,0,L|466:169,1,180,10|0,0:0|0:0,0:0:0:0:
232,349,44813,6,0,L|231:208,1,120,6|0,0:0|0:0,0:0:0:0:
89,253,45193,2,0,L|89:129,1,120,2|0,0:0|0:0,0:0:0:0:
265,123,45573,2,0,L|124:96,1,120,8|0,0:0|0:0,0:0:0:0:
9,263,45952,2,2,L|151:248,1,120
291,353,46332,2,0,L|16:336,2,240,2|2|8,0:0|0:0|0:3,0:0:0:0:
169,320,47281,1,4,0:3:0:0:
365,288,47471,1,4,0:3:0:0:
87,343,47661,6,0,P|5:257|99:157,1,264.000008056641,6|2,0:0|0:0,0:0:0:0:
206,156,48231,1,8,0:0:0:0:
473,164,48421,2,0,L|181:162,1,264.000008056641,6|2,0:0|0:0,0:0:0:0:
370,251,48990,1,8,0:0:0:0:
96,100,49180,6,0,L|396:100,1,264.000008056641,4|2,0:0|0:0,0:0:0:0:
43,27,49750,1,8,0:0:0:0:
365,312,49940,2,0,P|441:266|335:148,1,264.000008056641,4|2,0:0|0:0,0:0:0:0:
51,137,50509,1,8,0:0:0:0:
461,68,50699,6,0,L|143:68,1,264.000008056641,4|2,0:0|0:0,0:0:0:0:
484,291,51269,2,2,L|486:150,1,132.00000402832,10|2,0:0|0:0,0:0:0:0:
156,213,51649,2,0,L|341:212,2,132.00000402832,8|2|8,0:0|0:0|0:0,0:0:0:0:
467,310,52218,5,8,0:0:0:0:
24,312,52598,1,12,0:0:0:0:
467,310,52978,1,8,0:0:0:0:
207,313,53168,2,0,L|61:314,1,132.00000402832,10|8,0:0|0:0,0:0:0:0:
143,289,53452,1,8,0:0:0:0:
369,267,53547,2,0,L|445:268,1,66.0000020141602,8|0,0:0|0:0,0:0:0:0:
190,177,53737,2,0,L|108:177,1,66.0000020141602,10|8,0:0|0:0,0:0:0:0:
397,268,53927,6,0,P|481:215|389:85,1,287.999991210938,4|8,0:0|0:0,0:0:0:0:
232,80,54497,1,2,0:0:0:0:
411,59,54687,2,0,L|413:227,1,143.999995605469,2|0,0:0|0:0,0:0:0:0:
136,288,55066,2,0,P|70:261|139:127,1,215.999993408203,8|0,0:0|0:0,0:0:0:0:
336,128,55446,5,2,0:0:0:0:
178,122,55636,2,0,L|176:276,1,143.999995605469,2|8,0:0|0:0,0:0:0:0:
334,118,56016,1,0,0:0:0:0:
46,60,56206,2,0,L|202:58,1,143.999995605469,2|2,0:0|0:0,0:0:0:0:
456,211,56585,2,0,L|308:210,1,143.999995605469,8|2,0:0|0:0,0:0:0:0:
231,210,56870,1,0,0:0:0:0:
19,212,56965,6,0,L|185:210,2,143.999995605469,2|2|8,0:0|0:0|0:0,0:0:0:0:
179,213,57535,2,2,L|275:213,1,71.9999978027344
477,300,57725,2,0,L|481:154,1,143.999995605469,2|2,0:0|0:3,0:0:0:0:
333,113,58104,1,8,0:0:0:0:
40,134,58294,5,4,0:0:0:0:
297,212,58674,2,8,L|375:212,1,71.9999978027344
151,127,58864,1,8,0:0:0:0:
318,130,59054,1,2,0:0:0:0:
63,43,59244,2,0,L|59:195,1,143.999995605469,2|2,0:0|0:0,0:0:0:0:
351,48,59623,2,0,L|506:48,1,143.999995605469,8|2,0:0|0:0,0:0:0:0:
292,135,60003,6,0,L|514:136,1,215.999993408203,2|0,0:0|0:0,0:0:0:0:
137,142,60383,2,0,L|130:291,1,143.999995605469,12|2,0:0|0:0,0:0:0:0:
276,216,60763,1,0,0:3:0:0:
117,145,60952,1,0,0:0:0:0:
291,223,61142,2,0,L|434:211,1,143.999995605469,8|2,0:0|0:0,0:0:0:0:
268,316,61522,6,0,L|499:297,1,215.999993408203,2|0,0:0|0:0,0:0:0:0:
167,268,61902,2,0,P|111:182|162:111,1,143.999995605469,12|0,0:0|0:0,0:0:0:0:
250,121,62281,1,0,0:0:0:0:
92,118,62471,1,2,0:0:0:0:
266,126,62661,1,8,0:0:0:0:
327,95,62755,1,2,0:0:0:0:
329,27,62850,1,2,0:0:0:0:
269,0,62945,1,2,0:0:0:0:
85,152,63041,6,0,P|17:74|124:16,1,215.999993408203,2|0,0:0|0:0,0:0:0:0:
381,22,63421,2,0,L|381:179,1,143.999995605469,12|2,0:0|0:0,0:0:0:0:
301,177,63706,1,8,0:3:0:0:
58,180,63800,1,8,0:0:0:0:
422,188,63990,1,4,0:3:0:0:
58,180,64180,1,2,0:0:0:0:
422,188,64370,1,4,0:3:0:0:
20,179,64560,6,0,L|293:179,1,215.999993408203,4|8,0:0|0:0,0:0:0:0:
468,185,64940,1,8,0:0:0:0:
128,77,65130,2,0,L|423:73,2,287.999991210938,2|2|8,0:0|0:0|0:0,0:0:0:0:
48,77,65984,1,0,0:0:0:0:
347,326,66079,6,0,P|462:257|400:143,1,287.999991210938,4|8,0:0|0:0,0:0:0:0:
257,133,66649,1,2,0:0:0:0:
419,32,66838,2,0,L|417:182,1,143.999995605469,2|0,0:0|0:0,0:0:0:0:
106,13,67218,2,0,P|6:50|51:161,1,215.999993408203,8|0,0:0|0:0,0:0:0:0:
254,172,67598,5,2,0:0:0:0:
121,171,67788,1,2,0:0:0:0:
273,172,67978,2,0,L|450:173,1,143.999995605469,8|2,0:0|0:0,0:0:0:0:
56,303,68357,1,2,0:0:0:0:
213,306,68547,1,2,0:0:0:0:
48,177,68737,2,0,L|43:330,1,143.999995605469,8|2,0:0|0:0,0:0:0:0:
120,341,69022,1,2,0:0:0:0:
373,276,69117,6,0,L|471:276,1,71.9999978027344,2|2,0:0|0:0,0:0:0:0:
199,183,69307,2,0,L|116:185,1,71.9999978027344,2|2,0:0|0:0,0:0:0:0:
396,260,69497,2,0,L|468:260,1,71.9999978027344,8|2,0:0|0:0,0:0:0:0:
176,160,69687,2,0,L|78:162,1,71.9999978027344,2|2,0:0|0:0,0:0:0:0:
365,62,69876,1,8,0:0:0:0:
219,57,70066,2,0,L|303:58,1,71.9999978027344,8|0,0:0|0:0,0:0:0:0:
462,62,70256,1,4,0:3:0:0:
139,122,70446,6,0,L|452:123,1,287.999991210938,4|10,0:0|0:0,0:0:0:0:
51,329,71016,2,0,L|46:182,1,143.999995605469,8|2,0:0|0:0,0:0:0:0:
412,271,71395,1,8,0:3:0:0:
251,308,71585,2,8,L|250:223,1,71.9999978027344
467,334,71775,2,0,L|392:323,1,71.9999978027344,8|8,0:0|0:0,0:0:0:0:
192,196,71965,2,0,L|275:177,1,71.9999978027344,4|2,0:3|0:0,0:0:0:0:
456,205,72155,6,0,P|506:117|425:50,1,215.999993408203,4|0,0:0|0:0,0:0:0:0:
137,48,72535,2,0,L|350:25,1,143.999995605469,12|8,0:0|0:3,0:0:0:0:
358,22,72819,1,8,0:3:0:0:
135,142,72914,1,4,0:3:0:0:
297,167,73104,1,2,0:0:0:0:
120,143,73294,2,0,L|116:294,1,143.999995605469,8|2,0:0|0:0,0:0:0:0:
193,309,73579,1,2,0:0:0:0:
344,338,73674,6,0,P|412:281|329:190,1,215.999993408203,2|0,0:0|0:0,0:0:0:0:
61,223,74054,2,0,L|61:70,1,143.999995605469,12|8,0:0|0:3,0:3:0:0:
139,65,74338,1,8,0:3:0:0:
304,88,74433,2,0,L|385:88,2,71.9999978027344,4|0|2,0:3|0:0|0:0,0:0:0:0:
141,165,74813,2,0,L|226:165,1,71.9999978027344,10|2,0:0|0:0,0:0:0:0:
423,202,75003,2,2,L|515:202,1,71.9999978027344
254,348,75193,6,0,P|191:294|274:183,1,215.999993408203,6|0,0:0|0:0,0:0:0:0:
439,203,75573,2,0,L|449:33,1,143.999995605469,12|2,0:0|0:0,0:0:0:0:
370,38,75857,1,0,0:0:0:0:
291,29,75952,1,0,0:0:0:0:
460,10,76142,1,0,0:0:0:0:
143,99,76332,1,12,0:0:0:0:
467,16,76522,1,2,0:0:0:0:
92,46,76712,6,0,L|399:72,1,287.999991210938,10|10,0:0|0:0,0:0:0:0:
35,163,77281,1,10,0:0:0:0:
485,114,77661,1,10,0:0:0:0:
41,165,78041,6,0,L|337:192,1,264.000008056641,4|2,0:0|0:0,0:0:0:0:
447,210,78611,1,8,0:0:0:0:
291,207,78800,2,0,L|274:278,1,66.0000020141602,2|4,0:0|0:3,0:3:0:0:
485,133,78990,2,0,L|337:150,2,132.00000402832,4|8|4,0:3|0:3|0:3,0:0:0:0:
203,24,79560,6,0,P|109:74|160:208,1,264.000008056641,4|2,0:0|0:0,0:0:0:0:
299,225,80130,2,0,L|449:225,1,132.00000402832,10|2,0:0|0:0,0:0:0:0:
361,202,80414,1,8,0:0:0:0:
144,300,80509,2,0,L|128:231,1,66.0000020141602,8|0,0:0|0:0,0:0:0:0:
320,189,80699,2,0,L|336:111,1,66.0000020141602,8|0,0:0|0:0,0:0:0:0:
142,143,80889,2,0,L|8:132,1,132.00000402832,8|8,0:0|0:0,0:0:0:0:
368,343,81269,6,0,P|462:308|441:177,1,240,4|0,0:0|0:0,0:0:0:0:
326,162,81838,1,2,0:0:0:0:
145,145,82028,2,0,L|388:144,1,240,2|2,0:0|0:0,0:0:0:0:
246,110,82598,1,0,0:0:0:0:
51,111,82788,5,2,0:0:0:0:
362,113,83357,1,8,0:0:0:0:
199,114,83737,2,8,L|121:113,1,60
366,140,83927,2,0,L|437:140,1,60,8|0,0:0|0:0,0:0:0:0:
137,344,84117,6,0,L|138:205,1,132.00000402832,4|2,0:0|0:0,0:0:0:0:
291,267,84497,2,0,L|293:121,1,132.00000402832,2|8,0:0|0:0,0:0:0:0:
124,147,84876,2,0,L|271:149,1,132.00000402832,2|2,0:0|0:0,0:0:0:0:
411,255,85256,2,0,L|272:246,1,132.00000402832,2|8,0:0|0:0,0:0:0:0:
24,351,85636,6,0,P|13:251|142:165,1,264.000008056641,6|2,0:0|0:0,0:0:0:0:
445,156,86206,1,8,0:0:0:0:
292,153,86395,2,0,L|196:151,1,66.0000020141602,6|0,0:0|0:0,0:0:0:0:
465,177,86585,2,0,L|465:321,1,132.00000402832,2|8,0:0|0:0,0:0:0:0:
393,325,86870,1,2,0:0:0:0:
107,297,86965,1,8,0:0:0:0:
264,243,87155,2,8,L|336:241,1,66.0000020141602
37,138,87345,6,0,L|38:-2,1,132.00000402832,14|2,0:0|0:0,0:0:0:0:
305,231,87725,2,0,L|158:218,1,132.00000402832,10|2,0:0|0:0,0:0:0:0:
486,328,88104,2,0,L|335:348,2,132.00000402832,8|10|2,0:0|0:0|0:0,0:0:0:0:
176,166,88674,5,14,0:0:0:0:
